<?xml version="1.0" standalone="no"?>
<!DOCTYPE svg PUBLIC "-//W3C//DTD SVG 1.1//EN" "http://www.w3.org/Graphics/SVG/1.1/DTD/svg11.dtd" >
<svg xmlns="http://www.w3.org/2000/svg">
<metadata></metadata>
<defs>
<font id="bebas_neuebook" horiz-adv-x="780" >
<font-face units-per-em="2048" ascent="1536" descent="-512" />
<missing-glyph horiz-adv-x="317" />
<glyph horiz-adv-x="2048" />
<glyph horiz-adv-x="2048" />
<glyph unicode="&#xd;" horiz-adv-x="2048" />
<glyph unicode=" "  horiz-adv-x="317" />
<glyph unicode="&#x09;" horiz-adv-x="317" />
<glyph unicode="&#xa0;" horiz-adv-x="317" />
<glyph unicode="!" horiz-adv-x="258" d="M82 686v750h94v-750l-12 -369h-70zM84 0v178h90v-178h-90z" />
<glyph unicode="&#x22;" horiz-adv-x="421" d="M82 1436h92l-12 -357h-70zM248 1436h92l-12 -357h-68z" />
<glyph unicode="#" horiz-adv-x="847" d="M63 455l7 69h135l49 465h-137l6 70h137l39 377h80l-39 -377h240l38 377h80l-39 -377h125l-6 -70h-125l-49 -465h125l-6 -69h-125l-49 -455h-80l49 455h-242l-47 -455h-79l49 455h-136zM285 524h239l49 465h-241z" />
<glyph unicode="$" horiz-adv-x="772" d="M78 352v80h90v-84q0 -266 217 -266t217 266q0 69 -28.5 127t-74.5 99.5t-101 80t-110 79.5t-101 87t-74.5 113t-28.5 147q0 156 65 249t199 106v123h80v-123q92 -8 153 -57.5t87 -124t26 -173.5v-32h-90v36q0 124 -51 195.5t-162 71.5t-162 -71.5t-51 -193.5 q0 -70 28.5 -128.5t74.5 -100.5t101 -81t110 -80t101 -87t74.5 -112t28.5 -146q0 -151 -66 -247t-202 -107v-115h-80v115q-138 10 -204 105t-66 249z" />
<glyph unicode="%" horiz-adv-x="1239" d="M78 770v436q0 104 47 168t145 64q99 0 147 -64t48 -168v-436q0 -104 -48 -167.5t-147 -63.5q-98 0 -145 63.5t-47 167.5zM141 766q0 -75 30 -121.5t99 -46.5q67 0 98 47t31 121v442q0 76 -30.5 123t-98.5 47q-129 0 -129 -170v-442zM303 0l565 1436h62l-565 -1436h-62z M774 229v430q0 104 48 169t147 65t145.5 -64.5t46.5 -169.5v-430q0 -105 -46.5 -169t-145.5 -64t-147 64.5t-48 168.5zM840 225q0 -75 31 -122.5t98 -47.5q68 0 98.5 47.5t30.5 122.5v439q0 167 -129 167q-68 0 -98.5 -46t-30.5 -121v-439z" />
<glyph unicode="&#x26;" horiz-adv-x="825" d="M82 319v136q0 106 47.5 186t140.5 111q-93 27 -140.5 104.5t-47.5 185.5v35q0 174 86.5 265.5t257.5 91.5h203v-86h-203q-250 0 -250 -267v-57q0 -99 52.5 -164t144.5 -69h221v159h94v-159h78v-86h-78v-517q0 -46 1.5 -69.5t10 -57t25.5 -61.5h-98q-31 55 -31 137 q-32 -73 -95 -111t-147 -38q-136 0 -204 88.5t-68 242.5zM176 326q0 -117 52.5 -184.5t158.5 -67.5q91 0 148.5 53.5t58.5 146.5v431h-209q-100 -6 -154.5 -72.5t-54.5 -175.5v-131z" />
<glyph unicode="'" horiz-adv-x="249" d="M80 1436h90l-10 -357h-70z" />
<glyph unicode="(" horiz-adv-x="473" d="M88 317v801q0 160 62 239t215 79h45v-80h-41q-106 0 -146.5 -60t-40.5 -178v-801q0 -120 40 -178.5t147 -58.5h41v-80h-45q-154 0 -215.5 78.5t-61.5 238.5z" />
<glyph unicode=")" horiz-adv-x="473" d="M63 0v80h41q108 0 148.5 59t40.5 178v801q0 118 -41.5 178t-147.5 60h-41v80h46q153 0 215.5 -79.5t62.5 -238.5v-801q0 -160 -62 -238.5t-216 -78.5h-46z" />
<glyph unicode="*" horiz-adv-x="806" d="M68 1143l24 76l291 -109l-21 313h80l-18 -313l291 104l24 -75l-303 -68l195 -242l-64 -47l-164 265l-163 -263l-66 45l197 242z" />
<glyph unicode="+" horiz-adv-x="794" d="M72 682v70h290v295h70v-295h293v-70h-293v-299h-70v299h-290z" />
<glyph unicode="," horiz-adv-x="274" d="M92 -156l41 156h-31v180h91v-172l-60 -164h-41z" />
<glyph unicode="-" horiz-adv-x="532" d="M78 674v86h377v-86h-377z" />
<glyph unicode="." horiz-adv-x="256" d="M82 0v180h92v-180h-92z" />
<glyph unicode="/" horiz-adv-x="759" d="M55 0l566 1434h84l-566 -1434h-84z" />
<glyph unicode="0" d="M76 350v733q0 166 78.5 264.5t236.5 98.5t237 -98.5t79 -264.5v-733q0 -165 -79 -263.5t-237 -98.5t-236.5 98.5t-78.5 263.5zM170 346q0 -126 54 -199t167 -73t167 73t54 199v744q0 124 -54 197t-167 73t-167 -73t-54 -197v-744z" />
<glyph unicode="1" horiz-adv-x="575" d="M131 1153v82q99 7 156 60t88 141h74v-1436h-95v1274q-82 -109 -223 -121z" />
<glyph unicode="2" horiz-adv-x="772" d="M82 0v70q0 103 29 194t75 159t102 131t112 121.5t102 117.5t75 132t29 152q0 283 -219 283q-112 0 -163.5 -76t-51.5 -201v-98h-90v92q0 166 76 267.5t233 101.5q159 0 234 -99t75 -266q0 -84 -28.5 -162t-74.5 -140.5t-101.5 -123t-111 -122t-102 -124.5t-76 -142.5 t-30.5 -164.5v-16h512v-86h-606z" />
<glyph unicode="3" horiz-adv-x="774" d="M78 350v82h90v-86q0 -125 52 -198.5t165 -73.5q217 0 217 278v111q0 113 -54.5 175.5t-158.5 66.5h-96v86h100q96 6 152.5 71t56.5 168v51q0 279 -217 279q-113 0 -165 -72.5t-52 -197.5v-58h-90v51q0 166 76 264.5t233 98.5t233 -98.5t76 -264.5v-34q0 -107 -49.5 -186 t-140.5 -111q94 -28 142 -105t48 -186v-111q0 -166 -76 -264t-233 -98t-233 98t-76 264z" />
<glyph unicode="4" horiz-adv-x="825" d="M63 317v89l476 1030h106v-1033h121v-86h-121v-317h-92v317h-490zM150 403h403v857z" />
<glyph unicode="5" horiz-adv-x="774" d="M78 350v78h90v-82q0 -123 53 -196.5t164 -73.5q113 0 166 73.5t53 196.5v242q0 123 -53 196.5t-166 73.5q-78 0 -130.5 -42t-74.5 -122v-24h-88l37 766h539v-88h-453l-27 -512q69 110 232 110q142 0 210 -95.5t68 -254.5v-246q0 -164 -77 -263t-234 -99q-156 0 -232.5 99 t-76.5 263z" />
<glyph unicode="6" horiz-adv-x="782" d="M76 350v729q0 170 78 268.5t239 98.5q158 0 233.5 -95.5t75.5 -260.5v-17h-90v23q0 123 -52 193.5t-165 70.5q-116 0 -170.5 -75t-54.5 -208v-332q78 132 256 132q144 0 213.5 -95.5t69.5 -255.5v-176q0 -165 -79 -263.5t-237 -98.5q-159 0 -238 98.5t-79 263.5zM170 346 q0 -125 54 -197.5t169 -72.5q113 0 167 72.5t54 197.5v174q0 123 -54 195.5t-167 72.5q-114 0 -168.5 -72.5t-54.5 -195.5v-174z" />
<glyph unicode="7" horiz-adv-x="774" d="M76 1348v88h622v-86l-403 -1350h-96l403 1348h-526z" />
<glyph unicode="8" horiz-adv-x="794" d="M72 342v102q0 250 192 308q-192 54 -192 301v45q0 163 83 255.5t242 92.5q158 0 242 -92.5t84 -255.5v-45q0 -116 -47 -195t-144 -106q191 -56 191 -308v-102q0 -163 -83 -258.5t-243 -95.5q-161 0 -243 95t-82 259zM166 344q0 -128 58.5 -199t172.5 -71t172 71t60 199 v109q0 252 -232 252q-118 0 -174.5 -62.5t-56.5 -189.5v-109zM166 1036q0 -245 231 -245q114 0 173 62t59 183v60q0 127 -59.5 195.5t-172.5 68.5q-114 0 -172.5 -68t-58.5 -196v-60z" />
<glyph unicode="9" horiz-adv-x="782" d="M74 909v174q0 166 78.5 265.5t236.5 99.5q159 0 237.5 -99t78.5 -266v-729q0 -168 -78 -267t-238 -99q-158 0 -235.5 96.5t-77.5 261.5v19h90v-23q0 -124 54 -196t167 -72q223 0 223 284v353q-33 -79 -95.5 -115.5t-158.5 -36.5q-144 0 -213 94.5t-69 255.5zM168 915 q0 -124 54 -197t167 -73t167 73t54 197v175q0 124 -54 197t-167 73t-167 -73t-54 -197v-175z" />
<glyph unicode=":" horiz-adv-x="256" d="M82 0v180h92v-180h-92zM82 780v181h92v-181h-92z" />
<glyph unicode=";" horiz-adv-x="274" d="M92 -156l41 156h-31v180h91v-172l-60 -164h-41zM102 780v181h91v-181h-91z" />
<glyph unicode="&#x3c;" horiz-adv-x="757" d="M74 682v70l602 274v-74l-510 -235l510 -236v-73z" />
<glyph unicode="=" horiz-adv-x="624" d="M78 586v69h469v-69h-469zM78 836v69h469v-69h-469z" />
<glyph unicode="&#x3e;" horiz-adv-x="757" d="M82 408v73l512 236l-512 235v74l602 -274v-70z" />
<glyph unicode="?" horiz-adv-x="743" d="M68 983v94q0 167 74 268t231 101q81 0 141 -27.5t95.5 -78t52 -115t16.5 -144.5q0 -89 -31 -165.5t-75 -133.5t-87.5 -112t-74.5 -125.5t-31 -149.5q0 -34 10 -76h-86q-10 42 -10 80q0 63 16 119.5t41.5 99.5t56.5 84.5t62.5 82.5t57 84t41.5 98.5t16 117.5 q0 275 -213 275q-58 0 -100.5 -21.5t-66.5 -60.5t-35 -87t-11 -108v-100h-90zM299 0v178h90v-178h-90z" />
<glyph unicode="@" horiz-adv-x="1409" d="M70 586q0 144 26 275.5t83.5 248t141 201.5t206.5 134.5t272 49.5q143 0 248.5 -41.5t169.5 -120t95 -182.5t31 -236q0 -159 -39.5 -298t-121 -231t-189.5 -93q-67 0 -102.5 38.5t-38.5 104.5q-66 -158 -221 -155q-79 1 -127.5 45.5t-62.5 112t-5 155.5l21 203 q14 135 78.5 215.5t179.5 79.5q148 -3 186 -146l14 135h84l-61 -585q-5 -50 13 -86.5t65 -36.5q58 1 103.5 39t73.5 95.5t46 132t25 142.5t6 131q0 241 -117 373.5t-358 132.5q-132 0 -240 -44t-182 -121t-124.5 -183.5t-73.5 -228.5t-23 -260q0 -292 138 -447t421 -155 q229 0 383 118l-7 -86q-158 -108 -380 -108q-322 0 -479.5 178t-157.5 504zM520 507.5q6 -41.5 21 -74t47.5 -52t79.5 -19.5q89 -1 137.5 64t58.5 168l23 199q10 94 -26.5 154.5t-123.5 60.5q-89 0 -138 -60.5t-60 -161.5l-19 -192q-6 -45 0 -86.5z" />
<glyph unicode="A" horiz-adv-x="892" d="M61 0l314 1436h137l319 -1436h-94l-71 317h-447l-72 -317h-86zM233 399h418l-211 928z" />
<glyph unicode="B" horiz-adv-x="774" d="M82 0v1434h301q157 0 225 -76t68 -230v-81q0 -123 -42.5 -192t-146.5 -91q215 -43 215 -307v-125q0 -332 -313 -332h-307zM176 86h213q115 0 167 62t52 186v129q0 136 -61.5 194t-192.5 58h-178v-629zM176 801h160q132 0 189 48t57 179v92q0 118 -45 173t-156 55h-205 v-547z" />
<glyph unicode="C" horiz-adv-x="765" d="M76 350v733q0 165 76 264t233 99t233 -99t76 -264v-118h-90v125q0 124 -52 197t-165 73t-165 -73t-52 -197v-746q0 -124 52 -196t165 -72t165 72t52 196v170h90v-164q0 -165 -76 -263.5t-233 -98.5t-233 98.5t-76 263.5z" />
<glyph unicode="D" horiz-adv-x="788" d="M82 0v1434h315q160 0 239 -96t79 -261v-721q0 -165 -79 -260.5t-239 -95.5h-315zM176 86h219q115 0 170.5 71t55.5 195v729q0 124 -56 195.5t-170 71.5h-219v-1262z" />
<glyph unicode="E" horiz-adv-x="718" d="M82 0v1434h565v-86h-471v-578h391v-86h-391v-598h471v-86h-565z" />
<glyph unicode="F" horiz-adv-x="688" d="M82 0v1434h545v-86h-451v-613h371v-86h-371v-649h-94z" />
<glyph unicode="G" horiz-adv-x="770" d="M76 350v733q0 165 76 264t233 99t233 -99t76 -264v-106h-90v113q0 124 -52 197t-165 73t-165 -73t-52 -197v-746q0 -124 52 -196t165 -72t165 72t52 196v309h-190v86h280v-389q0 -165 -76 -263.5t-233 -98.5t-233 98.5t-76 263.5z" />
<glyph unicode="H" horiz-adv-x="800" d="M82 0v1434h94v-674h447v674h96v-1434h-96v674h-447v-674h-94z" />
<glyph unicode="I" horiz-adv-x="258" d="M82 0v1434h94v-1434h-94z" />
<glyph unicode="J" horiz-adv-x="518" d="M59 0v86q10 -1 23 -1q25 0 61 3q104 8 153.5 68.5t49.5 189.5v1088h94v-1082q0 -181 -74 -263.5t-212 -88.5q-23 -2 -46.5 -2t-48.5 2z" />
<glyph unicode="K" horiz-adv-x="827" d="M82 0v1434h94v-758l467 758h98l-409 -668l436 -766h-98l-396 674l-98 -156v-518h-94z" />
<glyph unicode="L" horiz-adv-x="686" d="M82 0v1434h94v-1348h451v-86h-545z" />
<glyph unicode="M" horiz-adv-x="1034" d="M82 0v1434h135l301 -1268l299 1268h135v-1434h-90v1274l-299 -1272h-94l-303 1268v-1270h-84z" />
<glyph unicode="N" horiz-adv-x="800" d="M82 0v1434h123l430 -1211v1211h86v-1434h-105l-448 1278v-1278h-86z" />
<glyph unicode="O" d="M76 350v733q0 165 78.5 264t234.5 99q159 0 238.5 -99t79.5 -264v-733q0 -165 -79.5 -263.5t-238.5 -98.5q-156 0 -234.5 98.5t-78.5 263.5zM170 344q0 -125 53 -197.5t166 -72.5q115 0 169 73t54 197v746q0 124 -54 197t-169 73q-113 0 -166 -72.5t-53 -197.5v-746z" />
<glyph unicode="P" horiz-adv-x="749" d="M82 0v1434h297q159 0 233 -92t74 -257v-155q0 -171 -81.5 -255.5t-250.5 -84.5h-178v-590h-94zM176 676h178q125 0 181.5 59t56.5 189v168q0 124 -49 190t-164 66h-203v-672z" />
<glyph unicode="Q" horiz-adv-x="835" d="M76 350v733q0 165 78.5 264t236.5 99t237 -99t79 -264v-733q0 -157 -68 -248q33 -57 113 -57h22v-84h-24q-118 0 -170 84q-77 -57 -189 -57q-158 0 -236.5 98.5t-78.5 263.5zM170 344q0 -124 54 -197t167 -73t167 73t54 197v746q0 124 -54 197t-167 73t-167 -73t-54 -197 v-746z" />
<glyph unicode="R" horiz-adv-x="790" d="M82 0v1434h299q307 0 307 -324v-125q0 -249 -207 -297q207 -46 207 -293v-223q0 -119 35 -172h-98q-31 53 -31 172v225q0 135 -68 189.5t-200 54.5h-150v-641h-94zM176 727h152q136 0 201 51.5t65 188.5v135q0 120 -51 183t-164 63h-203v-621z" />
<glyph unicode="S" horiz-adv-x="757" d="M70 346v74h90v-80q0 -123 52 -193.5t165 -70.5t165 70.5t52 193.5q0 70 -28.5 128.5t-74.5 101.5t-101 83.5t-110 83t-101 90t-74.5 115t-28.5 148.5q0 167 75.5 261t229.5 95q105 0 175 -47.5t100 -126t30 -185.5v-30h-90v37q0 122 -51 194t-162 72t-162 -71t-51 -193 q0 -70 28.5 -129.5t74.5 -103t101 -84t110 -83t101 -89.5t74.5 -114t28.5 -147q0 -164 -76 -261t-233 -97t-233 97t-76 261z" />
<glyph unicode="T" horiz-adv-x="755" d="M37 1348v86h678v-86h-291v-1348h-94v1348h-293z" />
<glyph unicode="U" horiz-adv-x="770" d="M78 350v1084h94v-1088q0 -125 51.5 -198.5t163.5 -73.5t163.5 73.5t51.5 198.5v1088h88v-1084q0 -164 -74.5 -263t-230.5 -99t-231.5 99t-75.5 263z" />
<glyph unicode="V" horiz-adv-x="888" d="M61 1434h97l291 -1325l290 1325h88l-311 -1434h-139z" />
<glyph unicode="W" horiz-adv-x="1234" d="M63 1434h93l215 -1307l209 1300h100l201 -1296l206 1303h84l-229 -1434h-123l-192 1174l-201 -1174h-131z" />
<glyph unicode="X" horiz-adv-x="901" d="M63 0l324 743l-301 691h98l271 -617l272 617h90l-301 -691l322 -743h-101l-291 668l-290 -668h-93z" />
<glyph unicode="Y" horiz-adv-x="849" d="M55 1434h99l274 -754l274 754h93l-324 -883v-551h-94v551z" />
<glyph unicode="Z" horiz-adv-x="794" d="M70 0v86l555 1262h-529v86h627v-88l-555 -1260h547v-86h-645z" />
<glyph unicode="[" horiz-adv-x="475" d="M88 0v1436h320v-80h-226v-1276h226v-80h-320z" />
<glyph unicode="\" horiz-adv-x="759" d="M55 1434h84l566 -1434h-84z" />
<glyph unicode="]" horiz-adv-x="475" d="M70 0v80h225v1276h-225v80h319v-1436h-319z" />
<glyph unicode="^" horiz-adv-x="837" d="M68 801l315 633h72l315 -633h-80l-272 545l-271 -545h-79z" />
<glyph unicode="_" horiz-adv-x="1050" d="M53 -20h932v-72h-932v72z" />
<glyph unicode="`" horiz-adv-x="403" d="M84 1737h102l146 -195h-74z" />
<glyph unicode="a" horiz-adv-x="892" d="M61 0l314 1436h137l319 -1436h-94l-71 317h-447l-72 -317h-86zM233 399h418l-211 928z" />
<glyph unicode="b" horiz-adv-x="774" d="M82 0v1434h301q157 0 225 -76t68 -230v-81q0 -123 -42.5 -192t-146.5 -91q215 -43 215 -307v-125q0 -332 -313 -332h-307zM176 86h213q115 0 167 62t52 186v129q0 136 -61.5 194t-192.5 58h-178v-629zM176 801h160q132 0 189 48t57 179v92q0 118 -45 173t-156 55h-205 v-547z" />
<glyph unicode="c" horiz-adv-x="765" d="M76 350v733q0 165 76 264t233 99t233 -99t76 -264v-118h-90v125q0 124 -52 197t-165 73t-165 -73t-52 -197v-746q0 -124 52 -196t165 -72t165 72t52 196v170h90v-164q0 -165 -76 -263.5t-233 -98.5t-233 98.5t-76 263.5z" />
<glyph unicode="d" horiz-adv-x="788" d="M82 0v1434h315q160 0 239 -96t79 -261v-721q0 -165 -79 -260.5t-239 -95.5h-315zM176 86h219q115 0 170.5 71t55.5 195v729q0 124 -56 195.5t-170 71.5h-219v-1262z" />
<glyph unicode="e" horiz-adv-x="718" d="M82 0v1434h565v-86h-471v-578h391v-86h-391v-598h471v-86h-565z" />
<glyph unicode="f" horiz-adv-x="688" d="M82 0v1434h545v-86h-451v-613h371v-86h-371v-649h-94z" />
<glyph unicode="g" horiz-adv-x="770" d="M76 350v733q0 165 76 264t233 99t233 -99t76 -264v-106h-90v113q0 124 -52 197t-165 73t-165 -73t-52 -197v-746q0 -124 52 -196t165 -72t165 72t52 196v309h-190v86h280v-389q0 -165 -76 -263.5t-233 -98.5t-233 98.5t-76 263.5z" />
<glyph unicode="h" horiz-adv-x="800" d="M82 0v1434h94v-674h447v674h96v-1434h-96v674h-447v-674h-94z" />
<glyph unicode="i" horiz-adv-x="258" d="M82 0v1434h94v-1434h-94z" />
<glyph unicode="j" horiz-adv-x="518" d="M59 0v86q10 -1 23 -1q25 0 61 3q104 8 153.5 68.5t49.5 189.5v1088h94v-1082q0 -181 -74 -263.5t-212 -88.5q-23 -2 -46.5 -2t-48.5 2z" />
<glyph unicode="k" horiz-adv-x="827" d="M82 0v1434h94v-758l467 758h98l-409 -668l436 -766h-98l-396 674l-98 -156v-518h-94z" />
<glyph unicode="l" horiz-adv-x="686" d="M82 0v1434h94v-1348h451v-86h-545z" />
<glyph unicode="m" horiz-adv-x="1034" d="M82 0v1434h135l301 -1268l299 1268h135v-1434h-90v1274l-299 -1272h-94l-303 1268v-1270h-84z" />
<glyph unicode="n" horiz-adv-x="800" d="M82 0v1434h123l430 -1211v1211h86v-1434h-105l-448 1278v-1278h-86z" />
<glyph unicode="o" d="M76 350v733q0 165 78.5 264t234.5 99q159 0 238.5 -99t79.5 -264v-733q0 -165 -79.5 -263.5t-238.5 -98.5q-156 0 -234.5 98.5t-78.5 263.5zM170 344q0 -125 53 -197.5t166 -72.5q115 0 169 73t54 197v746q0 124 -54 197t-169 73q-113 0 -166 -72.5t-53 -197.5v-746z" />
<glyph unicode="p" horiz-adv-x="745" d="M82 0v1434h297q159 0 233 -92t74 -257v-155q0 -171 -81.5 -255.5t-250.5 -84.5h-178v-590h-94zM176 676h178q125 0 181.5 59t56.5 189v168q0 124 -49 190t-164 66h-203v-672z" />
<glyph unicode="q" horiz-adv-x="796" d="M76 350v733q0 165 78.5 264t236.5 99t237 -99t79 -264v-733q0 -157 -68 -248q33 -57 113 -57h22v-84h-24q-118 0 -170 84q-77 -57 -189 -57q-158 0 -236.5 98.5t-78.5 263.5zM170 344q0 -124 54 -197t167 -73t167 73t54 197v746q0 124 -54 197t-167 73t-167 -73t-54 -197 v-746z" />
<glyph unicode="r" horiz-adv-x="790" d="M82 0v1434h299q307 0 307 -324v-125q0 -249 -207 -297q207 -46 207 -293v-223q0 -119 35 -172h-98q-31 53 -31 172v225q0 135 -68 189.5t-200 54.5h-150v-641h-94zM176 727h152q136 0 201 51.5t65 188.5v135q0 120 -51 183t-164 63h-203v-621z" />
<glyph unicode="s" horiz-adv-x="757" d="M70 346v74h90v-80q0 -123 52 -193.5t165 -70.5t165 70.5t52 193.5q0 70 -28.5 128.5t-74.5 101.5t-101 83.5t-110 83t-101 90t-74.5 115t-28.5 148.5q0 167 75.5 261t229.5 95q105 0 175 -47.5t100 -126t30 -185.5v-30h-90v37q0 122 -51 194t-162 72t-162 -71t-51 -193 q0 -70 28.5 -129.5t74.5 -103t101 -84t110 -83t101 -89.5t74.5 -114t28.5 -147q0 -164 -76 -261t-233 -97t-233 97t-76 261z" />
<glyph unicode="t" horiz-adv-x="745" d="M33 1348v86h678v-86h-293v-1348h-94v1348h-291z" />
<glyph unicode="u" horiz-adv-x="770" d="M78 350v1084h94v-1088q0 -125 51.5 -198.5t163.5 -73.5t163.5 73.5t51.5 198.5v1088h88v-1084q0 -164 -74.5 -263t-230.5 -99t-231.5 99t-75.5 263z" />
<glyph unicode="v" horiz-adv-x="888" d="M61 1434h97l291 -1325l290 1325h88l-311 -1434h-139z" />
<glyph unicode="w" horiz-adv-x="1234" d="M63 1434h93l215 -1307l209 1300h100l201 -1296l206 1303h84l-229 -1434h-123l-192 1174l-201 -1174h-131z" />
<glyph unicode="x" horiz-adv-x="901" d="M63 0l324 743l-301 691h98l271 -617l272 617h90l-301 -691l322 -743h-101l-291 668l-290 -668h-93z" />
<glyph unicode="y" horiz-adv-x="849" d="M55 1434h99l274 -754l274 754h93l-324 -883v-551h-94v551z" />
<glyph unicode="z" horiz-adv-x="794" d="M70 0v86l555 1262h-529v86h627v-88l-555 -1260h547v-86h-645z" />
<glyph unicode="{" horiz-adv-x="524" d="M61 674v86q79 13 102.5 51t26.5 129l15 283q6 101 48 157t132 56h76v-80h-45q-69 0 -94.5 -41.5t-30.5 -128.5l-12 -258q-2 -41 -7 -69.5t-18.5 -58.5t-40.5 -50.5t-68 -32.5q77 -21 103.5 -72.5t30.5 -138.5l12 -256q5 -88 30 -129t95 -41h45v-80h-76q-90 0 -132 55.5 t-48 157.5l-15 281q-3 91 -26.5 130t-102.5 50z" />
<glyph unicode="|" horiz-adv-x="512" d="M221 -47v1530h78v-1530h-78z" />
<glyph unicode="}" horiz-adv-x="524" d="M63 0v80h48q68 0 92.5 41t29.5 129l15 256q2 43 6.5 71t18 58.5t40.5 50.5t68 31q-41 12 -68 32.5t-40.5 50.5t-18 58t-6.5 70l-15 258q-5 87 -29.5 128.5t-92.5 41.5h-48v80h76q91 0 132 -55.5t48 -157.5l15 -283q5 -92 28 -129.5t103 -50.5v-86q-42 -6 -68 -18.5 t-39 -37.5t-17 -51t-7 -73l-15 -281q-6 -103 -47.5 -158t-132.5 -55h-76z" />
<glyph unicode="~" horiz-adv-x="813" d="M57 674q45 72 92.5 106.5t104.5 34.5q51 2 110 -30.5t113.5 -64.5t95.5 -30q39 1 67 28t65 83l49 -47q-43 -69 -85 -103t-94 -37q-40 -1 -85.5 18.5t-80 44t-78 45t-79.5 19.5q-44 0 -78 -27t-68 -83z" />
<glyph unicode="&#xa1;" horiz-adv-x="258" d="M82 0v668l12 450h70l12 -450v-668h-94zM84 1255v181h90v-181h-90z" />
<glyph unicode="&#xa2;" horiz-adv-x="772" d="M80 446v543q0 99 26 174.5t87 126t153 58.5v96h80v-96q139 -10 204.5 -103t65.5 -246v-65h-90v70q0 260 -217 260q-111 0 -163 -72.5t-52 -196.5v-553q0 -124 52 -197t163 -73q113 0 165 71.5t52 194.5v113h90v-107q0 -155 -66 -250.5t-204 -105.5v-98h-80v98 q-92 8 -153 58.5t-87 125.5t-26 174z" />
<glyph unicode="&#xa3;" horiz-adv-x="790" d="M74 0v84q99 76 159 182t43 226h-176v75h162q-16 54 -47.5 119t-55 112t-42.5 122t-19 161q0 166 74.5 265.5t233.5 99.5q155 0 228 -101.5t73 -267.5v-88h-89v92q0 81 -18.5 140.5t-67 99t-124.5 39.5q-215 0 -215 -275q0 -85 19 -160.5t43 -123t54 -113t45 -121.5h301 v-75h-293q11 -96 -25.5 -191t-143.5 -215h518v-86h-637z" />
<glyph unicode="&#xa4;" horiz-adv-x="714" d="M76 477l96 94q-49 65 -49 146t49 143l-96 96l41 41l98 -96q62 49 141 49q81 0 146 -49l96 96l41 -41l-98 -96q51 -60 51 -143q0 -84 -51 -144l98 -96l-41 -41l-96 94q-59 -47 -146 -47q-81 0 -143 47l-96 -94zM184 717q0 -72 50.5 -122t121.5 -50q72 0 123 50t51 122 t-51 122t-123 50q-71 0 -121.5 -50t-50.5 -122z" />
<glyph unicode="&#xa5;" horiz-adv-x="882" d="M57 1434h101l286 -766l289 766h90l-329 -873h217v-53h-224v-150h224v-53h-224v-305h-94v305h-221v53h221v150h-221v53h213z" />
<glyph unicode="&#xa6;" horiz-adv-x="514" d="M221 -47v643h80v-643h-80zM221 838v643h80v-643h-80z" />
<glyph unicode="&#xa7;" horiz-adv-x="774" d="M80 125v68h88v-58q0 -91 63 -141.5t156 -50.5q85 0 148.5 45.5t66.5 126.5q1 52 -27 91.5t-74 66t-101.5 51t-111.5 52.5t-102.5 62.5t-75 90t-28.5 126.5q0 95 61.5 164.5t155.5 102.5q-50 25 -84 47t-68 54t-51 74.5t-16 94.5q3 119 90 186.5t221 67.5 q132 -2 215.5 -73t83.5 -189v-39h-90v26q0 88 -59 140.5t-148 54.5q-92 0 -154 -44.5t-65 -133.5q-1 -50 27.5 -88.5t74 -65.5t101 -51.5t111.5 -53.5t102 -64t75 -91t29 -127q0 -94 -54 -162.5t-144 -109.5q46 -22 78.5 -44t62.5 -53.5t45 -73t14 -93.5q-3 -112 -91.5 -180 t-215.5 -68q-137 0 -223 69.5t-86 192.5zM172 659q0 -29 8.5 -55t19 -45t33.5 -39t38 -31.5t47.5 -28t46.5 -22.5t49 -22q83 25 136.5 84t53.5 143q0 46 -17 83t-51 65.5t-67 47.5t-82 42q-87 -14 -151 -75t-64 -147z" />
<glyph unicode="&#xa8;" horiz-adv-x="389" d="M139 1526v174h111v-174h-111z" />
<glyph unicode="&#xa9;" horiz-adv-x="1531" d="M68 717q0 203 89 366.5t249 257t360 93.5q149 0 279 -54.5t221.5 -149.5t144.5 -228t53 -285t-53 -285t-144.5 -228t-221.5 -149.5t-279 -54.5q-200 0 -360 93.5t-249 257t-89 366.5zM133 717q0 -184 80.5 -333t226 -235t326.5 -86t326 86t225 235t80 333t-80 333 t-225 234.5t-326 85.5t-326.5 -85.5t-226 -234.5t-80.5 -333zM541 518v395q0 115 53.5 183.5t163.5 68.5q108 0 160.5 -68.5t52.5 -183.5v-49h-66v54q0 184 -147 184q-76 0 -112 -50.5t-36 -133.5v-402q0 -83 36 -133.5t112 -50.5q147 0 147 184v76h66v-74q0 -114 -53 -183 t-160 -69q-110 0 -163.5 69t-53.5 183z" />
<glyph unicode="&#xaa;" horiz-adv-x="559" d="M74 874v7q0 233 342 237v111q0 73 -26.5 114t-92.5 41q-131 0 -131 -161v-25h-62v23q0 105 47.5 164t147.5 59q180 0 180 -223v-533h-55l-4 127q-45 -137 -174 -137q-85 0 -128.5 51t-43.5 145zM78 485v64h401v-64h-401zM139 879q0 -68 32 -105t95 -37q66 0 104 48.5 t46 121.5v160q-55 -1 -101.5 -10t-87.5 -28t-64.5 -55t-23.5 -85v-10z" />
<glyph unicode="&#xab;" horiz-adv-x="583" d="M63 719l136 502h86l-133 -502l133 -512h-86zM301 719l133 502h86l-133 -502l133 -512h-86z" />
<glyph unicode="&#xac;" horiz-adv-x="778" d="M72 682v70h635v-344h-70v274h-565z" />
<glyph unicode="&#xad;" horiz-adv-x="532" d="M78 674v86h377v-86h-377z" />
<glyph unicode="&#xae;" horiz-adv-x="1531" d="M68 717q0 203 89 366.5t249 257t360 93.5q149 0 279 -54.5t221.5 -149.5t144.5 -228t53 -285t-53 -285t-144.5 -228t-221.5 -149.5t-279 -54.5q-200 0 -360 93.5t-249 257t-89 366.5zM133 717q0 -184 80.5 -333t226 -235t326.5 -86t326 86t225 235t80 333t-80 333 t-225 234.5t-326 85.5t-326.5 -85.5t-226 -234.5t-80.5 -333zM563 279v876h211q215 0 215 -227v-27q0 -167 -131 -207q131 -40 131 -202v-95q0 -84 25 -118h-72q-22 40 -22 120v95q0 94 -48 129.5t-141 35.5h-98v-380h-70zM633 725h117q88 0 129 37t41 127v31 q0 85 -34.5 127.5t-115.5 42.5h-137v-365z" />
<glyph unicode="&#xaf;" horiz-adv-x="518" d="M59 1530v69h398v-69h-398z" />
<glyph unicode="&#xb0;" horiz-adv-x="430" d="M63 1300q0 63 44.5 106.5t107.5 43.5t107.5 -43.5t44.5 -106.5t-44.5 -106t-107.5 -43t-107.5 43t-44.5 106zM113 1300q0 -43 29.5 -71.5t72.5 -28.5q42 0 72 29t30 71t-30 71.5t-72 29.5q-43 0 -72.5 -29t-29.5 -72z" />
<glyph unicode="&#xb1;" horiz-adv-x="794" d="M78 383v72h284v241h-284v72h284v279h70v-279h285v-72h-285v-241h285v-72h-639z" />
<glyph unicode="&#xb2;" horiz-adv-x="555" d="M84 719v47q0 65 18.5 122.5t47.5 100.5t64.5 82.5t71 76.5t64.5 74.5t47.5 84t18.5 96.5q0 176 -135 176q-71 0 -103.5 -47.5t-32.5 -126.5v-62h-61v60q0 107 48.5 171t150.5 64t150 -63t48 -170q0 -73 -34 -138.5t-82.5 -117.5l-97 -104t-83.5 -118.5t-37 -140.5v-8h324 v-59h-387z" />
<glyph unicode="&#xb3;" horiz-adv-x="555" d="M80 940v51h61v-55q0 -77 32.5 -122.5t102.5 -45.5q136 0 136 174v70q0 69 -35 109t-98 40h-62v60h64q59 0 96 44t35 107v33q0 174 -136 174q-70 0 -102.5 -46t-32.5 -122v-37h-61v33q0 106 49 168.5t150 62.5q100 0 148 -62.5t48 -168.5v-23q0 -68 -29 -117.5t-86 -70.5 q115 -42 115 -184v-72q0 -106 -48 -168.5t-148 -62.5q-101 0 -150 62.5t-49 168.5z" />
<glyph unicode="&#xb4;" horiz-adv-x="403" d="M72 1542l147 195h96l-172 -195h-71z" />
<glyph unicode="&#xb5;" horiz-adv-x="817" d="M98 -188v1212h95v-674q0 -125 51.5 -197.5t161.5 -72.5t162.5 73t52.5 197v674h94v-1024h-86v186q-27 -91 -88.5 -142.5t-149.5 -51.5q-80 0 -130.5 42t-70.5 113l3 -335h-95z" />
<glyph unicode="&#xb6;" horiz-adv-x="811" d="M49 932v162q0 166 64 252.5t221 87.5h373v-1561h-72v1489h-256v-1489h-72v719q-137 6 -197.5 91t-60.5 249z" />
<glyph unicode="&#xb7;" horiz-adv-x="256" d="M82 647v180h92v-180h-92z" />
<glyph unicode="&#xb8;" horiz-adv-x="505" d="M72 -174h67v-10q0 -40 34.5 -60t78.5 -22q45 0 79 21t34 63q0 78 -117 78h-15v114h48v-90q73 -2 113 -24.5t40 -79.5q0 -67 -52 -96t-130 -27q-75 0 -127.5 29.5t-52.5 91.5v12z" />
<glyph unicode="&#xb9;" horiz-adv-x="364" d="M72 1454v51q108 5 151 123h51v-909h-65v805q-55 -61 -137 -70z" />
<glyph unicode="&#xba;" horiz-adv-x="561" d="M78 903v309q0 105 51 168.5t152 63.5t151.5 -63.5t50.5 -168.5v-309q0 -105 -50.5 -168t-151.5 -63q-102 0 -152.5 63t-50.5 168zM80 487v64h403v-64h-403zM141 899q0 -77 34.5 -122.5t105.5 -45.5q70 0 103.5 45.5t33.5 122.5v318q0 77 -33.5 122t-103.5 45 q-72 0 -106 -45t-34 -122v-318z" />
<glyph unicode="&#xbb;" horiz-adv-x="583" d="M63 207l134 512l-134 502h87l135 -502l-135 -512h-87zM301 207l131 512l-131 502h86l133 -502l-133 -512h-86z" />
<glyph unicode="&#xbc;" horiz-adv-x="1081" d="M100 1311q112 5 152 123h51v-910h-65v805q-54 -60 -136 -69zM231 0l566 1434h59l-565 -1434h-60zM565 197v59l301 653h74v-653h74v-59h-74v-197h-63v197h-312zM627 256h250v530z" />
<glyph unicode="&#xbd;" horiz-adv-x="1173" d="M100 1311q112 5 152 123h51v-910h-65v805q-54 -60 -136 -69zM209 0l565 1434h62l-566 -1434h-61zM700 0v47q0 65 18.5 122.5t48 100.5t65 82.5t71 76.5t65 74.5t48 84t18.5 96.5q0 176 -135 176q-71 0 -104 -47.5t-33 -126.5v-61h-62v59q0 106 49 171t150 65 q103 0 151 -63.5t48 -170.5q0 -53 -18 -102t-47 -88.5t-64 -77.5l-70 -76t-64.5 -78t-48.5 -90t-20 -104v-11h321v-59h-387z" />
<glyph unicode="&#xbe;" horiz-adv-x="1183" d="M80 745v52h61v-56q0 -77 32.5 -122.5t102.5 -45.5t103 47t33 128v69q0 69 -35 109.5t-98 40.5h-62v59h64q59 0 96 44.5t35 107.5v32q0 174 -136 174q-70 0 -102.5 -45.5t-32.5 -121.5v-37h-61v32q0 106 49 169t150 63q100 0 148 -63t48 -169v-22q0 -68 -29 -118t-86 -71 q115 -42 115 -184v-72q0 -106 -48 -168.5t-148 -62.5q-101 0 -150 62.5t-49 168.5zM340 0l565 1434h62l-566 -1434h-61zM668 197v59l301 653h73v-653h74v-59h-74v-197h-65v197h-309zM729 256h248v530z" />
<glyph unicode="&#xbf;" horiz-adv-x="743" d="M63 352q0 89 31 165.5t74.5 133.5t87.5 112t75 125.5t31 149.5q0 43 -8 76h84q13 -41 13 -80q0 -63 -16.5 -119.5t-42.5 -99.5t-57 -84.5t-62 -82.5t-57 -84t-42 -98.5t-16 -117.5q0 -274 215 -274q77 0 126 38.5t68 97.5t19 140v101h90v-95q0 -166 -74.5 -267 t-230.5 -101q-159 0 -233.5 99t-74.5 265zM352 1255v179h92v-179h-92z" />
<glyph unicode="&#xc0;" horiz-adv-x="892" d="M61 0l314 1436h137l319 -1436h-94l-71 317h-447l-72 -317h-86zM233 399h418l-211 928zM276 1704h103l145 -195h-73z" />
<glyph unicode="&#xc1;" horiz-adv-x="892" d="M61 0l314 1436h137l319 -1436h-94l-71 317h-447l-72 -317h-86zM233 399h418l-211 928zM350 1511l146 195h98l-172 -195h-72z" />
<glyph unicode="&#xc2;" horiz-adv-x="892" d="M61 0l314 1436h137l319 -1436h-94l-71 317h-447l-72 -317h-86zM229 1509l172 185h82l174 -185h-90l-125 129l-125 -129h-88zM233 399h418l-211 928z" />
<glyph unicode="&#xc3;" horiz-adv-x="892" d="M61 0l314 1436h137l319 -1436h-94l-71 317h-447l-72 -317h-86zM219 1569q44 95 129 98q41 0 101.5 -35.5t89.5 -34.5q45 3 75 64l52 -35q-44 -96 -119 -96q-40 -2 -100 33t-91 34q-55 0 -86 -61zM233 399h418l-211 928z" />
<glyph unicode="&#xc4;" horiz-adv-x="892" d="M61 0l314 1436h137l319 -1436h-94l-71 317h-447l-72 -317h-86zM233 399h418l-211 928zM301 1509v172h84v-172h-84zM500 1509v172h84v-172h-84z" />
<glyph unicode="&#xc5;" horiz-adv-x="892" d="M61 0l314 1436h137l319 -1436h-94l-71 317h-447l-72 -317h-86zM233 399h418l-211 928zM305 1651q0 57 39.5 96t97.5 39q57 0 97.5 -39t40.5 -96q0 -58 -40.5 -98t-97.5 -40q-58 0 -97.5 39.5t-39.5 98.5zM354 1651q0 -38 25.5 -62t62.5 -24q36 0 62 24.5t26 61.5 q0 36 -26 60t-62 24q-37 0 -62.5 -24t-25.5 -60z" />
<glyph unicode="&#xc6;" horiz-adv-x="1206" d="M55 0l510 1434h568v-86h-418v-578h346v-86h-346v-598h418v-86h-512v322h-359l-117 -322h-90zM287 406h334v911z" />
<glyph unicode="&#xc7;" horiz-adv-x="765" d="M76 350v733q0 165 76 264t233 99t233 -99t76 -264v-118h-90v125q0 124 -52 197t-165 73t-165 -73t-52 -197v-746q0 -124 52 -196t165 -72t165 72t52 196v170h90v-164q0 -159 -70.5 -257t-215.5 -105v-58q72 -2 112.5 -32t40.5 -82q0 -63 -48 -97.5t-134 -33.5 q-85 0 -132.5 34t-47.5 95v12h65v-10q0 -34 30.5 -55.5t84.5 -24.5q55 0 86 22t31 60q0 35 -32.5 55.5t-90.5 20.5h-15v96q-144 7 -213 104.5t-69 255.5z" />
<glyph unicode="&#xc8;" horiz-adv-x="718" d="M82 0v1434h565v-86h-471v-578h391v-86h-391v-598h471v-86h-565zM211 1724h102l146 -194h-76z" />
<glyph unicode="&#xc9;" horiz-adv-x="718" d="M82 0v1434h565v-86h-471v-578h391v-86h-391v-598h471v-86h-565zM289 1516l145 194h98l-172 -194h-71z" />
<glyph unicode="&#xca;" horiz-adv-x="718" d="M82 0v1434h565v-86h-471v-578h391v-86h-391v-598h471v-86h-565zM150 1518l172 184h81l175 -184h-91l-125 131l-124 -131h-88z" />
<glyph unicode="&#xcb;" horiz-adv-x="718" d="M82 0v1434h565v-86h-471v-578h391v-86h-391v-598h471v-86h-565zM223 1516v174h82v-174h-82zM420 1516v174h84v-174h-84z" />
<glyph unicode="&#xcc;" horiz-adv-x="258" d="M-49 1710h100l146 -194h-74zM82 0v1434h94v-1434h-94z" />
<glyph unicode="&#xcd;" horiz-adv-x="258" d="M51 1518l146 194h98l-172 -194h-72zM82 0v1434h94v-1434h-94z" />
<glyph unicode="&#xce;" horiz-adv-x="258" d="M-84 1516l172 184h82l172 -184h-88l-125 131l-125 -131h-88zM82 0v1434h94v-1434h-94z" />
<glyph unicode="&#xcf;" horiz-adv-x="258" d="M-12 1518v172h84v-172h-84zM82 0v1434h94v-1434h-94zM186 1518v172h84v-172h-84z" />
<glyph unicode="&#xd0;" horiz-adv-x="788" d="M-12 678v78h94v678h315q160 0 239 -96t79 -261v-721q0 -165 -79 -260.5t-239 -95.5h-315v678h-94zM176 86h219q115 0 170.5 71t55.5 195v729q0 124 -56 195.5t-170 71.5h-219v-592h182v-78h-182v-592z" />
<glyph unicode="&#xd1;" horiz-adv-x="800" d="M82 0v1434h123l430 -1211v1211h86v-1434h-105l-448 1278v-1278h-86zM180 1585q41 95 127 98q41 1 101.5 -34t89.5 -33q46 0 77 61l50 -35q-39 -93 -119 -96q-39 -1 -99 34t-92 34q-49 0 -86 -62z" />
<glyph unicode="&#xd2;" d="M76 350v733q0 165 78.5 264t234.5 99q159 0 238.5 -99t79.5 -264v-733q0 -165 -79.5 -263.5t-238.5 -98.5q-156 0 -234.5 98.5t-78.5 263.5zM170 344q0 -125 53 -197.5t166 -72.5q115 0 169 73t54 197v746q0 124 -54 197t-169 73q-113 0 -166 -72.5t-53 -197.5v-746z M221 1724h103l145 -194h-76z" />
<glyph unicode="&#xd3;" d="M76 350v733q0 165 78.5 264t234.5 99q159 0 238.5 -99t79.5 -264v-733q0 -165 -79.5 -263.5t-238.5 -98.5q-156 0 -234.5 98.5t-78.5 263.5zM170 344q0 -125 53 -197.5t166 -72.5q115 0 169 73t54 197v746q0 124 -54 197t-169 73q-113 0 -166 -72.5t-53 -197.5v-746z M311 1530l146 194h98l-172 -194h-72z" />
<glyph unicode="&#xd4;" d="M76 350v733q0 165 78.5 264t234.5 99q159 0 238.5 -99t79.5 -264v-733q0 -165 -79.5 -263.5t-238.5 -98.5q-156 0 -234.5 98.5t-78.5 263.5zM170 344q0 -125 53 -197.5t166 -72.5q115 0 169 73t54 197v746q0 124 -54 197t-169 73q-113 0 -166 -72.5t-53 -197.5v-746z M176 1526l172 184h82l172 -184h-88l-125 131l-125 -131h-88z" />
<glyph unicode="&#xd5;" d="M76 350v733q0 165 78.5 264t234.5 99q159 0 238.5 -99t79.5 -264v-733q0 -165 -79.5 -263.5t-238.5 -98.5q-156 0 -234.5 98.5t-78.5 263.5zM170 344q0 -125 53 -197.5t166 -72.5q115 0 169 73t54 197v746q0 124 -54 197t-169 73q-113 0 -166 -72.5t-53 -197.5v-746z M174 1581q46 96 129 96q41 1 102 -33.5t89 -33.5q48 3 75 61l52 -33q-40 -95 -119 -98q-40 -1 -100 34.5t-91 35.5q-55 0 -86 -64z" />
<glyph unicode="&#xd6;" d="M76 350v733q0 165 78.5 264t234.5 99q159 0 238.5 -99t79.5 -264v-733q0 -165 -79.5 -263.5t-238.5 -98.5q-156 0 -234.5 98.5t-78.5 263.5zM170 344q0 -125 53 -197.5t166 -72.5q115 0 169 73t54 197v746q0 124 -54 197t-169 73q-113 0 -166 -72.5t-53 -197.5v-746z M248 1526v174h84v-174h-84zM446 1526v174h84v-174h-84z" />
<glyph unicode="&#xd7;" horiz-adv-x="690" d="M80 500l217 215l-215 215l47 49l217 -215l215 215l47 -47l-215 -217l215 -215l-47 -49l-215 217l-217 -217z" />
<glyph unicode="&#xd8;" d="M76 350v733q0 165 78.5 264t234.5 99q139 0 221 -82l39 100l45 -16l-47 -127q60 -89 60 -238v-733q0 -165 -79.5 -263.5t-238.5 -98.5q-140 0 -219 82l-41 -105l-47 17l51 135q-57 89 -57 233zM170 344q0 -49 10 -104l393 1026q-58 94 -184 94q-113 0 -166 -72.5 t-53 -197.5v-746zM207 170q57 -96 182 -96q115 0 169 73t54 197v746q0 58 -12 110z" />
<glyph unicode="&#xd9;" horiz-adv-x="770" d="M78 350v1084h94v-1088q0 -125 51.5 -198.5t163.5 -73.5t163.5 73.5t51.5 198.5v1088h88v-1084q0 -164 -74.5 -263t-230.5 -99t-231.5 99t-75.5 263zM215 1712h102l146 -194h-76z" />
<glyph unicode="&#xda;" horiz-adv-x="770" d="M78 350v1084h94v-1088q0 -125 51.5 -198.5t163.5 -73.5t163.5 73.5t51.5 198.5v1088h88v-1084q0 -164 -74.5 -263t-230.5 -99t-231.5 99t-75.5 263zM319 1530l146 194h98l-172 -194h-72z" />
<glyph unicode="&#xdb;" horiz-adv-x="770" d="M78 350v1084h94v-1088q0 -125 51.5 -198.5t163.5 -73.5t163.5 73.5t51.5 198.5v1088h88v-1084q0 -164 -74.5 -263t-230.5 -99t-231.5 99t-75.5 263zM174 1526l172 184h82l174 -184h-90l-125 131l-125 -131h-88z" />
<glyph unicode="&#xdc;" horiz-adv-x="770" d="M78 350v1084h94v-1088q0 -125 51.5 -198.5t163.5 -73.5t163.5 73.5t51.5 198.5v1088h88v-1084q0 -164 -74.5 -263t-230.5 -99t-231.5 99t-75.5 263zM244 1522v174h84v-174h-84zM442 1522v174h84v-174h-84z" />
<glyph unicode="&#xdd;" horiz-adv-x="849" d="M55 1434h99l274 -754l274 754h93l-324 -883v-551h-94v551zM358 1516l148 194h96l-172 -194h-72z" />
<glyph unicode="&#xde;" horiz-adv-x="772" d="M82 0v1434h94v-250h203q307 0 307 -348v-156q0 -171 -81.5 -255.5t-250.5 -84.5h-178v-340h-94zM176 426h178q125 0 181.5 59t56.5 189v166q0 125 -49 190.5t-164 65.5h-203v-670z" />
<glyph unicode="&#xdf;" horiz-adv-x="1458" d="M63 346v74h91v-80q0 -123 52 -193.5t165 -70.5q112 0 164.5 71t52.5 193q0 70 -28.5 128.5t-74.5 101.5t-101 83.5t-110 83t-101 90t-74.5 115t-28.5 148.5q0 167 75.5 261t229.5 95q105 0 175 -47.5t100 -126t30 -185.5v-30h-90v37q0 122 -51 194t-162 72t-162 -71 t-51 -193q0 -70 28.5 -129.5t74.5 -103t101 -84t110 -83t101 -89.5t74.5 -114t28.5 -147q0 -164 -76 -261t-233 -97t-233.5 97t-76.5 261zM774 346v74h90v-80q0 -123 52 -193.5t165 -70.5t165 70.5t52 193.5q0 70 -28.5 128.5t-74.5 101.5t-101 83.5t-110 83t-101 90 t-74.5 115t-28.5 148.5q0 167 75.5 261t229.5 95q156 0 231 -97.5t75 -261.5v-30h-91v37q0 122 -51 194t-162 72t-162 -71t-51 -193q0 -70 28.5 -129.5t74.5 -103t101.5 -84t110.5 -83t101 -89.5t74.5 -114t28.5 -147q0 -164 -76.5 -261t-233.5 -97t-233 97t-76 261z" />
<glyph unicode="&#xe0;" horiz-adv-x="892" d="M61 0l314 1436h137l319 -1436h-94l-71 317h-447l-72 -317h-86zM233 399h418l-211 928zM276 1704h103l145 -195h-73z" />
<glyph unicode="&#xe1;" horiz-adv-x="892" d="M61 0l314 1436h137l319 -1436h-94l-71 317h-447l-72 -317h-86zM233 399h418l-211 928zM350 1511l146 195h98l-172 -195h-72z" />
<glyph unicode="&#xe2;" horiz-adv-x="892" d="M61 0l314 1436h137l319 -1436h-94l-71 317h-447l-72 -317h-86zM229 1509l172 185h82l174 -185h-90l-125 129l-125 -129h-88zM233 399h418l-211 928z" />
<glyph unicode="&#xe3;" horiz-adv-x="892" d="M61 0l314 1436h137l319 -1436h-94l-71 317h-447l-72 -317h-86zM219 1569q44 95 129 98q41 0 101.5 -35.5t89.5 -34.5q45 3 75 64l52 -35q-44 -96 -119 -96q-40 -2 -100 33t-91 34q-55 0 -86 -61zM233 399h418l-211 928z" />
<glyph unicode="&#xe4;" horiz-adv-x="892" d="M61 0l314 1436h137l319 -1436h-94l-71 317h-447l-72 -317h-86zM233 399h418l-211 928zM301 1509v172h84v-172h-84zM500 1509v172h84v-172h-84z" />
<glyph unicode="&#xe5;" horiz-adv-x="892" d="M61 0l314 1436h137l319 -1436h-94l-71 317h-447l-72 -317h-86zM233 399h418l-211 928zM305 1651q0 57 39.5 96t97.5 39q57 0 97.5 -39t40.5 -96q0 -58 -40.5 -98t-97.5 -40q-58 0 -97.5 39.5t-39.5 98.5zM354 1651q0 -38 25.5 -62t62.5 -24q36 0 62 24.5t26 61.5 q0 36 -26 60t-62 24q-37 0 -62.5 -24t-25.5 -60z" />
<glyph unicode="&#xe6;" horiz-adv-x="1206" d="M55 0l510 1434h568v-86h-418v-578h346v-86h-346v-598h418v-86h-512v322h-359l-117 -322h-90zM287 406h334v911z" />
<glyph unicode="&#xe7;" horiz-adv-x="765" d="M76 350v733q0 165 76 264t233 99t233 -99t76 -264v-118h-90v125q0 124 -52 197t-165 73t-165 -73t-52 -197v-746q0 -124 52 -196t165 -72t165 72t52 196v170h90v-164q0 -159 -70.5 -257t-215.5 -105v-58q72 -2 112.5 -32t40.5 -82q0 -63 -48 -97.5t-134 -33.5 q-85 0 -132.5 34t-47.5 95v12h65v-10q0 -34 30.5 -55.5t84.5 -24.5q55 0 86 22t31 60q0 35 -32.5 55.5t-90.5 20.5h-15v96q-144 7 -213 104.5t-69 255.5z" />
<glyph unicode="&#xe8;" horiz-adv-x="718" d="M82 0v1434h565v-86h-471v-578h391v-86h-391v-598h471v-86h-565zM211 1724h102l146 -194h-76z" />
<glyph unicode="&#xe9;" horiz-adv-x="718" d="M82 0v1434h565v-86h-471v-578h391v-86h-391v-598h471v-86h-565zM289 1516l145 194h98l-172 -194h-71z" />
<glyph unicode="&#xea;" horiz-adv-x="718" d="M82 0v1434h565v-86h-471v-578h391v-86h-391v-598h471v-86h-565zM150 1518l172 184h81l175 -184h-91l-125 131l-124 -131h-88z" />
<glyph unicode="&#xeb;" horiz-adv-x="718" d="M82 0v1434h565v-86h-471v-578h391v-86h-391v-598h471v-86h-565zM223 1516v174h82v-174h-82zM420 1516v174h84v-174h-84z" />
<glyph unicode="&#xec;" horiz-adv-x="258" d="M-49 1710h100l146 -194h-74zM82 0v1434h94v-1434h-94z" />
<glyph unicode="&#xed;" horiz-adv-x="258" d="M51 1518l146 194h98l-172 -194h-72zM82 0v1434h94v-1434h-94z" />
<glyph unicode="&#xee;" horiz-adv-x="258" d="M-84 1516l172 184h82l172 -184h-88l-125 131l-125 -131h-88zM82 0v1434h94v-1434h-94z" />
<glyph unicode="&#xef;" horiz-adv-x="258" d="M-12 1518v172h84v-172h-84zM82 0v1434h94v-1434h-94zM186 1518v172h84v-172h-84z" />
<glyph unicode="&#xf0;" horiz-adv-x="788" d="M-4 676v78h86v680h315q160 0 239 -96t79 -261v-721q0 -165 -79 -260.5t-239 -95.5h-315v676h-86zM176 86h219q115 0 170.5 71t55.5 195v729q0 124 -56 195.5t-170 71.5h-219v-594h184v-78h-184v-590z" />
<glyph unicode="&#xf1;" horiz-adv-x="800" d="M82 0v1434h123l430 -1211v1211h86v-1434h-105l-448 1278v-1278h-86zM180 1585q41 95 127 98q41 1 101.5 -34t89.5 -33q46 0 77 61l50 -35q-39 -93 -119 -96q-39 -1 -99 34t-92 34q-49 0 -86 -62z" />
<glyph unicode="&#xf2;" d="M76 350v733q0 165 78.5 264t234.5 99q159 0 238.5 -99t79.5 -264v-733q0 -165 -79.5 -263.5t-238.5 -98.5q-156 0 -234.5 98.5t-78.5 263.5zM170 344q0 -125 53 -197.5t166 -72.5q115 0 169 73t54 197v746q0 124 -54 197t-169 73q-113 0 -166 -72.5t-53 -197.5v-746z M221 1724h103l145 -194h-76z" />
<glyph unicode="&#xf3;" d="M76 350v733q0 165 78.5 264t234.5 99q159 0 238.5 -99t79.5 -264v-733q0 -165 -79.5 -263.5t-238.5 -98.5q-156 0 -234.5 98.5t-78.5 263.5zM170 344q0 -125 53 -197.5t166 -72.5q115 0 169 73t54 197v746q0 124 -54 197t-169 73q-113 0 -166 -72.5t-53 -197.5v-746z M311 1530l146 194h98l-172 -194h-72z" />
<glyph unicode="&#xf4;" d="M76 350v733q0 165 78.5 264t234.5 99q159 0 238.5 -99t79.5 -264v-733q0 -165 -79.5 -263.5t-238.5 -98.5q-156 0 -234.5 98.5t-78.5 263.5zM170 344q0 -125 53 -197.5t166 -72.5q115 0 169 73t54 197v746q0 124 -54 197t-169 73q-113 0 -166 -72.5t-53 -197.5v-746z M176 1526l172 184h82l172 -184h-88l-125 131l-125 -131h-88z" />
<glyph unicode="&#xf5;" d="M76 350v733q0 165 78.5 264t234.5 99q159 0 238.5 -99t79.5 -264v-733q0 -165 -79.5 -263.5t-238.5 -98.5q-156 0 -234.5 98.5t-78.5 263.5zM170 344q0 -125 53 -197.5t166 -72.5q115 0 169 73t54 197v746q0 124 -54 197t-169 73q-113 0 -166 -72.5t-53 -197.5v-746z M174 1581q46 96 129 96q41 1 102 -33.5t89 -33.5q48 3 75 61l52 -33q-40 -95 -119 -98q-40 -1 -100 34.5t-91 35.5q-55 0 -86 -64z" />
<glyph unicode="&#xf6;" d="M76 350v733q0 165 78.5 264t234.5 99q159 0 238.5 -99t79.5 -264v-733q0 -165 -79.5 -263.5t-238.5 -98.5q-156 0 -234.5 98.5t-78.5 263.5zM170 344q0 -125 53 -197.5t166 -72.5q115 0 169 73t54 197v746q0 124 -54 197t-169 73q-113 0 -166 -72.5t-53 -197.5v-746z M248 1526v174h84v-174h-84zM446 1526v174h84v-174h-84z" />
<glyph unicode="&#xf7;" horiz-adv-x="624" d="M72 682v70h483v-70h-483zM266 412v180h90v-180h-90zM266 842v180h90v-180h-90z" />
<glyph unicode="&#xf8;" d="M76 350v733q0 165 78.5 264t234.5 99q139 0 221 -82l39 100l45 -16l-47 -127q60 -89 60 -238v-733q0 -165 -79.5 -263.5t-238.5 -98.5q-140 0 -219 82l-41 -105l-47 17l51 135q-57 89 -57 233zM170 344q0 -49 10 -104l393 1026q-58 94 -184 94q-113 0 -166 -72.5 t-53 -197.5v-746zM207 170q57 -96 182 -96q115 0 169 73t54 197v746q0 58 -12 110z" />
<glyph unicode="&#xf9;" horiz-adv-x="770" d="M78 350v1084h94v-1088q0 -125 51.5 -198.5t163.5 -73.5t163.5 73.5t51.5 198.5v1088h88v-1084q0 -164 -74.5 -263t-230.5 -99t-231.5 99t-75.5 263zM215 1712h102l146 -194h-76z" />
<glyph unicode="&#xfa;" horiz-adv-x="770" d="M78 350v1084h94v-1088q0 -125 51.5 -198.5t163.5 -73.5t163.5 73.5t51.5 198.5v1088h88v-1084q0 -164 -74.5 -263t-230.5 -99t-231.5 99t-75.5 263zM319 1530l146 194h98l-172 -194h-72z" />
<glyph unicode="&#xfb;" horiz-adv-x="770" d="M78 350v1084h94v-1088q0 -125 51.5 -198.5t163.5 -73.5t163.5 73.5t51.5 198.5v1088h88v-1084q0 -164 -74.5 -263t-230.5 -99t-231.5 99t-75.5 263zM174 1526l172 184h82l174 -184h-90l-125 131l-125 -131h-88z" />
<glyph unicode="&#xfc;" horiz-adv-x="770" d="M78 350v1084h94v-1088q0 -125 51.5 -198.5t163.5 -73.5t163.5 73.5t51.5 198.5v1088h88v-1084q0 -164 -74.5 -263t-230.5 -99t-231.5 99t-75.5 263zM244 1522v174h84v-174h-84zM442 1522v174h84v-174h-84z" />
<glyph unicode="&#xfd;" horiz-adv-x="849" d="M55 1434h99l274 -754l274 754h93l-324 -883v-551h-94v551zM358 1516l148 194h96l-172 -194h-72z" />
<glyph unicode="&#xfe;" horiz-adv-x="772" d="M82 0v1434h94v-250h203q307 0 307 -348v-156q0 -171 -81.5 -255.5t-250.5 -84.5h-178v-340h-94zM176 426h178q125 0 181.5 59t56.5 189v166q0 125 -49 190.5t-164 65.5h-203v-670z" />
<glyph unicode="&#xff;" horiz-adv-x="849" d="M55 1434h99l274 -754l274 754h93l-324 -883v-551h-94v551zM285 1518v172h84v-172h-84zM483 1518v172h84v-172h-84z" />
<glyph unicode="&#x152;" horiz-adv-x="1163" d="M74 356v721q0 77 17 140t51.5 112.5t93.5 77t137 27.5h717v-86h-420v-578h348v-86h-348v-598h420v-86h-717q-153 0 -226 98t-73 258zM168 352q0 -119 50 -192.5t157 -73.5h200v1262h-200q-107 0 -157 -74t-50 -193v-729z" />
<glyph unicode="&#x153;" horiz-adv-x="1163" d="M74 356v721q0 77 17 140t51.5 112.5t93.5 77t137 27.5h717v-86h-420v-578h348v-86h-348v-598h420v-86h-717q-153 0 -226 98t-73 258zM168 352q0 -119 50 -192.5t157 -73.5h200v1262h-200q-107 0 -157 -74t-50 -193v-729z" />
<glyph unicode="&#x178;" horiz-adv-x="849" d="M55 1434h99l274 -754l274 754h93l-324 -883v-551h-94v551zM285 1518v172h84v-172h-84zM483 1518v172h84v-172h-84z" />
<glyph unicode="&#x2c6;" horiz-adv-x="512" d="M43 1552l172 185h82l172 -185h-88l-125 129l-125 -129h-88z" />
<glyph unicode="&#x2dc;" horiz-adv-x="536" d="M45 1579q46 96 129 96q41 1 102 -33.5t89 -33.5q44 0 75 61l52 -33q-42 -95 -119 -98q-40 -1 -100.5 34t-90.5 34q-54 0 -86 -62z" />
<glyph unicode="&#x2000;" horiz-adv-x="893" />
<glyph unicode="&#x2001;" horiz-adv-x="1786" />
<glyph unicode="&#x2002;" horiz-adv-x="893" />
<glyph unicode="&#x2003;" horiz-adv-x="1786" />
<glyph unicode="&#x2004;" horiz-adv-x="595" />
<glyph unicode="&#x2005;" horiz-adv-x="446" />
<glyph unicode="&#x2006;" horiz-adv-x="297" />
<glyph unicode="&#x2007;" horiz-adv-x="297" />
<glyph unicode="&#x2008;" horiz-adv-x="223" />
<glyph unicode="&#x2009;" horiz-adv-x="357" />
<glyph unicode="&#x200a;" horiz-adv-x="99" />
<glyph unicode="&#x2010;" horiz-adv-x="532" d="M78 674v86h377v-86h-377z" />
<glyph unicode="&#x2011;" horiz-adv-x="532" d="M78 674v86h377v-86h-377z" />
<glyph unicode="&#x2012;" horiz-adv-x="532" d="M78 674v86h377v-86h-377z" />
<glyph unicode="&#x2013;" horiz-adv-x="854" d="M53 678v78h750v-78h-750z" />
<glyph unicode="&#x2014;" horiz-adv-x="1372" d="M53 678v78h1268v-78h-1268z" />
<glyph unicode="&#x2018;" horiz-adv-x="274" d="M82 1098v172l59 164h41l-41 -156h33v-180h-92z" />
<glyph unicode="&#x2019;" horiz-adv-x="274" d="M92 1098l41 155h-31v181h91v-172l-60 -164h-41z" />
<glyph unicode="&#x201a;" horiz-adv-x="274" d="M92 -156l41 156h-31v180h91v-172l-60 -164h-41z" />
<glyph unicode="&#x201c;" horiz-adv-x="434" d="M82 1098v172l59 164h41l-41 -156h33v-180h-92zM242 1098v172l59 164h43l-43 -156h33v-180h-92z" />
<glyph unicode="&#x201d;" horiz-adv-x="434" d="M82 1098l43 155h-33v181h92v-172l-59 -164h-43zM244 1098l41 155h-33v181h92v-172l-59 -164h-41z" />
<glyph unicode="&#x201e;" horiz-adv-x="444" d="M92 -156l41 156h-31v180h91v-172l-60 -164h-41zM262 -156l43 156h-33v180h90v-172l-57 -164h-43z" />
<glyph unicode="&#x2022;" horiz-adv-x="538" d="M123 717q0 61 42.5 104t102.5 43q62 0 105 -43t43 -104t-43 -104.5t-105 -43.5q-60 0 -102.5 43.5t-42.5 104.5z" />
<glyph unicode="&#x2026;" horiz-adv-x="579" d="M82 0v180h92v-180h-92zM244 0v180h90v-180h-90zM408 0v180h90v-180h-90z" />
<glyph unicode="&#x202f;" horiz-adv-x="357" />
<glyph unicode="&#x2039;" horiz-adv-x="350" d="M63 717l134 508h90l-131 -508l131 -518h-90z" />
<glyph unicode="&#x203a;" horiz-adv-x="350" d="M63 201l132 518l-132 508h91l133 -508l-133 -518h-91z" />
<glyph unicode="&#x205f;" horiz-adv-x="446" />
<glyph unicode="&#x20ac;" horiz-adv-x="813" d="M53 584v53h82v168h-82v55h82v223q0 164 74 263.5t229 99.5t229 -99.5t74 -263.5v-77h-90v84q0 123 -50 196.5t-161 73.5q-109 0 -160 -73.5t-51 -196.5v-230h396v-55h-396v-168h396v-53h-396v-240q0 -123 50 -195.5t161 -72.5t161 72.5t50 195.5v94h90v-88 q0 -164 -74 -263t-229 -99t-229 99t-74 263v234h-82z" />
<glyph unicode="&#x2122;" horiz-adv-x="1187" d="M29 1374v60h432v-60h-182v-669h-66v669h-184zM557 705v729h90l191 -623l188 623h90v-729h-61v628l-187 -620h-63l-189 620v-628h-59z" />
<glyph unicode="&#x25fc;" horiz-adv-x="1433" d="M0 0v1434h1434v-1434h-1434z" />
</font>
</defs>
</svg>
