<?xml version="1.0" standalone="no"?>
<!DOCTYPE svg PUBLIC "-//W3C//DTD SVG 1.1//EN" "http://www.w3.org/Graphics/SVG/1.1/DTD/svg11.dtd" >
<svg xmlns="http://www.w3.org/2000/svg">
<metadata></metadata>
<defs>
<font id="bebas_neuelight" horiz-adv-x="770" >
<font-face units-per-em="2048" ascent="1536" descent="-512" />
<missing-glyph horiz-adv-x="317" />
<glyph horiz-adv-x="2048" />
<glyph horiz-adv-x="2048" />
<glyph unicode="&#xd;" horiz-adv-x="2048" />
<glyph unicode=" "  horiz-adv-x="317" />
<glyph unicode="&#x09;" horiz-adv-x="317" />
<glyph unicode="&#xa0;" horiz-adv-x="317" />
<glyph unicode="!" horiz-adv-x="208" d="M82 0v164h45v-164h-45zM82 631v805h45v-805l-6 -314h-33z" />
<glyph unicode="&#x22;" horiz-adv-x="329" d="M82 1436h45l-4 -330h-37zM205 1436h43l-4 -330h-35z" />
<glyph unicode="#" horiz-adv-x="849" d="M76 473l2 35h149l52 500h-150l2 34h152l39 394h40l-40 -394h280l41 394h41l-41 -394h131l-2 -34h-133l-51 -500h131l-2 -35h-133l-49 -473h-41l51 473h-283l-49 -473h-41l51 473h-147zM266 508h281l53 500h-283z" />
<glyph unicode="$" horiz-adv-x="757" d="M80 348v72h45v-74q0 -142 60.5 -226.5t193.5 -84.5q134 0 195 84.5t61 226.5q0 73 -30.5 133.5t-78.5 103t-106.5 82t-117.5 80t-107 85.5t-78.5 111t-30.5 146q0 159 67 252.5t209 102.5v129h39v-129q74 -4 128.5 -33.5t86.5 -79t47 -110.5t15 -134v-26h-43v28 q0 139 -60.5 225.5t-191.5 86.5t-191.5 -85t-60.5 -224q0 -75 30.5 -136.5t78.5 -104.5t106.5 -82.5t117.5 -80t107 -85.5t78.5 -109.5t30.5 -143.5q0 -100 -26.5 -175.5t-90.5 -125.5t-162 -55v-117h-39v117q-146 6 -214 103t-68 253z" />
<glyph unicode="%" horiz-adv-x="1222" d="M80 780v422q0 102 44 168t140 66q97 0 142 -66t45 -168v-422q0 -102 -45 -167.5t-142 -65.5q-96 0 -140 65.5t-44 167.5zM115 778q0 -86 34 -142t115 -56t115.5 56t34.5 142v424q0 41 -7.5 75t-23.5 63.5t-46.5 46t-72.5 16.5q-55 0 -90 -30t-47 -72.5t-12 -98.5v-424z M309 0l565 1436h35l-565 -1436h-35zM772 233v416q0 65 16.5 115t60 84.5t109.5 34.5q50 0 87 -19t58 -53t30.5 -74t9.5 -88v-416q0 -103 -44 -169t-141 -66t-141.5 66t-44.5 169zM809 231q0 -86 34 -142t115 -56t115.5 56t34.5 142v418q0 87 -34.5 143t-115.5 56 q-149 0 -149 -199v-418z" />
<glyph unicode="&#x26;" horiz-adv-x="817" d="M82 322v131q0 104 51.5 185.5t147.5 111.5q-98 24 -148.5 103.5t-50.5 184.5v39q0 173 87 265t259 92h182v-43h-182q-301 0 -301 -312v-47q0 -106 58.5 -181.5t160.5 -82.5h266v160h45v-160h86v-41h-86v-532q0 -47 1.5 -71.5t11 -59.5t28.5 -64h-49q-35 61 -35 145 q-31 -76 -98.5 -115.5t-153.5 -39.5q-142 0 -211 90.5t-69 241.5zM127 324q0 -133 60 -213t186 -80q105 0 172 62.5t67 166.5v467h-254q-108 -9 -169.5 -84t-61.5 -188v-131z" />
<glyph unicode="'" horiz-adv-x="206" d="M82 1436h43l-4 -330h-37z" />
<glyph unicode="(" horiz-adv-x="458" d="M84 319v797q0 156 57.5 238t204.5 82h37v-41h-35q-66 0 -110 -20t-67.5 -59t-32.5 -86.5t-9 -113.5v-797q0 -67 9 -114t32 -86t67.5 -58.5t110.5 -19.5h35v-41h-37q-148 0 -205 81t-57 238z" />
<glyph unicode=")" horiz-adv-x="458" d="M76 0v41h35q126 0 172.5 70t46.5 208v797q0 66 -9.5 113.5t-33 86.5t-67.5 59t-109 20h-35v41h35q147 0 205.5 -82t58.5 -238v-797q0 -76 -12 -131t-40.5 -99t-81.5 -66.5t-130 -22.5h-35z" />
<glyph unicode="*" horiz-adv-x="804" d="M90 1169l12 39l287 -92l-8 303h41l-6 -303l286 86l13 -39l-293 -71l178 -244l-31 -23l-168 250l-165 -248l-33 21l178 244z" />
<glyph unicode="+" horiz-adv-x="788" d="M78 698v37h299v301h37v-301h297v-37h-297v-305h-37v305h-299z" />
<glyph unicode="," horiz-adv-x="235" d="M86 -137l23 137v166h45v-164l-45 -139h-23z" />
<glyph unicode="-" horiz-adv-x="524" d="M80 696v41h364v-41h-364z" />
<glyph unicode="." horiz-adv-x="208" d="M82 0v166h45v-166h-45z" />
<glyph unicode="/" horiz-adv-x="753" d="M74 0l565 1434h41l-565 -1434h-41z" />
<glyph unicode="0" d="M80 352v729q0 163 74.5 263t230.5 100t230.5 -100t74.5 -263v-729q0 -105 -29.5 -184t-100 -128.5t-175.5 -49.5t-175.5 49.5t-100 128.5t-29.5 184zM125 352q0 -69 14.5 -125.5t44 -101.5t81 -69.5t120.5 -24.5t120.5 24.5t81 69.5t44 101.5t14.5 125.5v731 q0 143 -63 231.5t-197 88.5t-197 -88.5t-63 -231.5v-731z" />
<glyph unicode="1" horiz-adv-x="487" d="M98 1188v41q175 17 242 207h43v-1436h-45v1348q-71 -142 -240 -160z" />
<glyph unicode="2" horiz-adv-x="757" d="M82 0v31q0 109 30.5 206t79.5 169.5t107.5 139t117.5 127t108 120.5t79.5 132t30.5 150q0 328 -256 328q-70 0 -121 -26.5t-79 -73.5t-41 -103.5t-13 -124.5v-78h-43v76q0 78 16 142.5t50 117t93.5 82t139.5 29.5q66 0 117.5 -19t85 -51.5t55.5 -79.5t31.5 -100.5 t9.5 -116.5q0 -81 -30 -156t-78.5 -136.5t-106.5 -122.5t-117 -126t-108 -134.5t-80 -160t-33 -190.5v-8h545v-43h-590z" />
<glyph unicode="3" horiz-adv-x="759" d="M80 352v68h45v-68q0 -69 13.5 -125t42 -101t79 -70t119.5 -25t120 25t80 70t42.5 101.5t13.5 126.5v109q0 118 -62 188t-176 76h-104v41h106q107 9 171.5 85t64.5 187v41q0 70 -13.5 126t-42.5 101t-80 70t-120 25t-119.5 -25t-79 -69.5t-42 -100.5t-13.5 -125v-43h-45 v41q0 163 73 263t228 100q80 0 139 -28t93 -78.5t50.5 -114.5t16.5 -142v-34q0 -104 -55 -185.5t-150 -111.5q100 -26 152.5 -102.5t52.5 -184.5v-111q0 -163 -72 -262.5t-227 -99.5t-228 99.5t-73 262.5z" />
<glyph unicode="4" horiz-adv-x="831" d="M76 338v45l499 1053h56v-1055h125v-43h-125v-338h-45v338h-510zM119 381h467v975z" />
<glyph unicode="5" horiz-adv-x="759" d="M80 352v62h45v-62q0 -143 61 -231t193 -88q69 0 120 25t80 70t42.5 100.5t13.5 123.5v215q0 67 -13.5 122.5t-42.5 100.5t-80 70t-120 25q-87 0 -147.5 -44.5t-90.5 -127.5v-17h-43l37 740h518v-43h-477l-29 -592q79 127 244 127q77 0 134 -28t90 -78.5t49 -113.5 t16 -139v-217q0 -77 -16.5 -141t-51 -114.5t-93.5 -78.5t-138 -28t-138 28t-94 78.5t-52 114.5t-17 141z" />
<glyph unicode="6" horiz-adv-x="772" d="M80 352v729q0 164 75 263.5t232 99.5q105 0 173.5 -47.5t97 -124.5t28.5 -182v-11h-43v13q0 142 -61 226.5t-195 84.5q-93 0 -153 -44.5t-84.5 -114.5t-24.5 -165v-395q43 91 105.5 130.5t166.5 39.5q151 0 223 -98.5t72 -259.5v-144q0 -105 -29.5 -184t-100 -128.5 t-175.5 -49.5q-157 0 -232 100t-75 262zM125 352q0 -69 14 -125t44 -100.5t82 -69t122 -24.5q135 0 197.5 87.5t62.5 231.5v142q0 142 -63 229.5t-197 87.5q-70 0 -122 -25.5t-82 -70.5t-44 -100t-14 -121v-142z" />
<glyph unicode="7" horiz-adv-x="759" d="M80 1393v43h600v-43l-428 -1393h-47l428 1393h-553z" />
<glyph unicode="8" horiz-adv-x="788" d="M78 342v96q0 127 49 206.5t164 105.5q-213 48 -213 305v47q0 158 80.5 250t234.5 92q156 0 236 -91.5t80 -250.5v-47q0 -120 -50 -200.5t-157 -104.5q207 -47 207 -312v-96q0 -161 -79.5 -256.5t-236.5 -95.5t-236 95.5t-79 256.5zM123 342q0 -143 67.5 -227t202.5 -84 q136 0 203.5 84t67.5 227v100q0 285 -271 285q-270 0 -270 -285v-100zM123 1051q0 -138 68 -210.5t202 -72.5q135 0 203 72.5t68 210.5v51q0 139 -69 220t-202 81t-201.5 -81t-68.5 -220v-51z" />
<glyph unicode="9" horiz-adv-x="772" d="M80 348v10h43v-12q0 -142 63.5 -228.5t198.5 -86.5t197.5 89t62.5 236v400q-58 -174 -270 -174q-151 0 -223 98.5t-72 259.5v141q0 78 17.5 143t52.5 115.5t95 78.5t140 28t140 -28t95 -78.5t52.5 -115.5t17.5 -143v-727q0 -79 -17 -143t-52 -114.5t-95.5 -78.5 t-140.5 -28q-155 0 -230 98t-75 260zM125 942q0 -143 63 -231t197 -88t197 88t63 231v141q0 143 -63 231.5t-197 88.5t-197 -88.5t-63 -231.5v-141z" />
<glyph unicode=":" horiz-adv-x="208" d="M82 0v166h45v-166h-45zM82 780v166h45v-166h-45z" />
<glyph unicode=";" horiz-adv-x="235" d="M86 -137l23 137v166h45v-164l-45 -139h-23zM109 780v166h45v-166h-45z" />
<glyph unicode="&#x3c;" horiz-adv-x="739" d="M80 698v37l577 285v-41l-530 -262l530 -262v-41z" />
<glyph unicode="=" horiz-adv-x="555" d="M80 629v35h395v-35h-395zM80 848v35h395v-35h-395z" />
<glyph unicode="&#x3e;" horiz-adv-x="739" d="M82 414v41l530 262l-530 262v41l577 -285v-37z" />
<glyph unicode="?" horiz-adv-x="745" d="M78 997v76q0 61 9.5 114.5t31 101t55 81.5t84.5 54t115 20q82 0 140.5 -28.5t91.5 -80.5t48 -115.5t15 -142.5q0 -61 -17 -116.5t-44.5 -99t-61 -85.5t-67 -83.5t-61 -84.5t-44.5 -98t-17 -115q0 -31 11 -73h-41q-11 46 -11 75q0 73 23 138.5t57 112t74 98t74 96.5 t57 107t23 130q0 324 -250 324q-56 0 -100 -18t-72 -48.5t-46.5 -73t-26 -89t-7.5 -99.5v-78h-43zM322 0v164h45v-164h-45z" />
<glyph unicode="@" horiz-adv-x="1409" d="M78 582q0 142 24.5 271t80.5 245.5t137.5 202t204 136t272.5 50.5q272 0 404 -149.5t132 -419.5q0 -76 -10 -155t-35 -162.5t-62 -148t-96 -105.5t-131 -42q-61 0 -93 41.5t-34 104.5q-68 -168 -229 -168q-63 1 -107 28t-64 71.5t-28.5 100t0.5 113.5l21 201 q13 130 78.5 211.5t183.5 81.5q155 -3 193 -152l14 139h43l-62 -581q-5 -61 16 -105.5t77 -44.5q66 1 118.5 42.5t83 103.5t50.5 141.5t27.5 149t6.5 132.5q0 256 -123 394.5t-376 138.5q-142 0 -257 -48t-192 -129.5t-129 -193.5t-75 -236t-23 -261q0 -305 145 -466 t445 -161q225 0 366 113l-2 -48q-152 -104 -366 -104q-318 0 -473.5 172.5t-155.5 495.5zM485 496.5q7 -47.5 23 -86t54 -62.5t93 -24t98 23t69 62.5t41 86t20 100.5l22 199q7 48 0 93.5t-24.5 81t-55 56.5t-90.5 21q-72 0 -122 -36.5t-74 -91t-33 -126.5l-21 -201 q-7 -48 0 -95.5z" />
<glyph unicode="A" horiz-adv-x="915" d="M76 0l346 1436h63l355 -1436h-45l-84 338h-510l-84 -338h-41zM209 379h493l-249 1003z" />
<glyph unicode="B" horiz-adv-x="751" d="M82 0v1434h287q151 0 213.5 -73t62.5 -224v-93q0 -127 -44.5 -194.5t-160.5 -85.5q234 -34 234 -307v-127q0 -330 -303 -330h-289zM127 43h244q136 0 197 73t61 214v129q0 152 -71.5 217t-223.5 65h-207v-698zM127 782h186q157 0 222 52.5t65 203.5v97q0 132 -50.5 194 t-180.5 62h-242v-609z" />
<glyph unicode="C" horiz-adv-x="757" d="M80 352v729q0 77 16.5 141t51 114.5t93.5 79t138 28.5q80 0 139 -28.5t94 -79t51.5 -114.5t16.5 -141v-110h-45v112q0 143 -61 231.5t-193 88.5q-69 0 -120 -25t-80 -70t-42.5 -101t-13.5 -124v-733q0 -68 13.5 -123.5t42.5 -100t80 -69t120 -24.5q68 0 118.5 24.5 t79.5 69t42.5 100t13.5 123.5v158h45v-156q0 -77 -16.5 -141t-51.5 -114.5t-94 -78.5t-139 -28q-79 0 -138 28t-93.5 78.5t-51 114.5t-16.5 141z" />
<glyph unicode="D" d="M82 0v1434h299q157 0 234 -98t77 -261v-719q0 -161 -76.5 -258.5t-232.5 -97.5h-301zM127 43h254q138 0 202 84t64 227v723q0 144 -65 229t-201 85h-254v-1348z" />
<glyph unicode="E" horiz-adv-x="706" d="M82 0v1434h547v-43h-502v-643h422v-41h-422v-664h502v-43h-547z" />
<glyph unicode="F" horiz-adv-x="681" d="M82 0v1434h526v-43h-481v-678h401v-43h-401v-670h-45z" />
<glyph unicode="G" horiz-adv-x="759" d="M80 352v729q0 77 16.5 141t51 114.5t93.5 79t138 28.5q80 0 139 -28.5t94 -79t51.5 -114.5t16.5 -141v-94h-45v96q0 143 -61 231.5t-193 88.5q-69 0 -120 -25t-80 -70t-42.5 -101t-13.5 -124v-733q0 -68 13.5 -123.5t42.5 -100t80 -69t120 -24.5q68 0 118.5 24.5t79.5 69 t42.5 100t13.5 123.5v326h-223v41h268v-365q0 -77 -16.5 -141t-51.5 -114.5t-94 -78.5t-139 -28q-79 0 -138 28t-93.5 78.5t-51 114.5t-16.5 141z" />
<glyph unicode="H" horiz-adv-x="772" d="M82 0v1434h45v-697h518v697h45v-1434h-45v696h-518v-696h-45z" />
<glyph unicode="I" horiz-adv-x="208" d="M82 0v1434h45v-1434h-45z" />
<glyph unicode="J" horiz-adv-x="516" d="M74 0v43q11 -1 24 -1q26 0 62 3q121 11 176 82t55 221v1086h45v-1084q0 -173 -68.5 -256t-203.5 -92q-39 -3 -66 -3q-13 0 -24 1z" />
<glyph unicode="K" horiz-adv-x="821" d="M82 0v1434h45v-809l532 809h50l-445 -678l481 -756h-49l-460 713l-109 -164v-549h-45z" />
<glyph unicode="L" horiz-adv-x="681" d="M82 0v1434h45v-1391h481v-43h-526z" />
<glyph unicode="M" horiz-adv-x="1007" d="M82 0v1434h70l352 -1360l352 1360h70v-1434h-45v1366l-353 -1362h-51l-354 1362v-1366h-41z" />
<glyph unicode="N" horiz-adv-x="774" d="M82 0v1434h63l504 -1342v1342h43v-1434h-55l-512 1368v-1368h-43z" />
<glyph unicode="O" d="M80 352v729q0 179 77 271t226 92q152 0 229.5 -92t77.5 -271v-729q0 -179 -77.5 -270.5t-229.5 -91.5q-149 0 -226 92t-77 270zM125 350q0 -319 258 -319q129 0 195.5 80.5t66.5 238.5v733q0 158 -66.5 239t-195.5 81q-128 0 -193 -81t-65 -239v-733z" />
<glyph unicode="P" horiz-adv-x="737" d="M82 0v1434h283q297 0 297 -347v-143q0 -171 -80.5 -253.5t-249.5 -82.5h-205v-608h-45zM127 651h205q150 0 217 69t67 222v148q0 143 -57 222t-194 79h-238v-740z" />
<glyph unicode="Q" horiz-adv-x="843" d="M80 352v729q0 78 17.5 142t52.5 114.5t95 78.5t140 28t140 -28t96 -78.5t53.5 -114.5t17.5 -142v-729q0 -167 -78 -264q41 -68 131 -68h23v-40h-23q-110 0 -159 79q-75 -69 -201 -69q-105 0 -175.5 49.5t-100 128.5t-29.5 184zM125 350q0 -143 63 -231t197 -88 q91 0 151.5 44t85.5 113.5t25 161.5v733q0 68 -14.5 124.5t-45 101t-82 69.5t-120.5 25q-134 0 -197 -88.5t-63 -231.5v-733z" />
<glyph unicode="R" horiz-adv-x="778" d="M82 0v1434h285q295 0 295 -322v-129q0 -133 -55 -206t-173 -95q228 -36 228 -287v-225q0 -118 38 -170h-49q-35 54 -35 170v225q0 149 -80.5 208t-232.5 59h-176v-662h-45zM127 705h176q79 0 133.5 11.5t97 41t62.5 84t20 135.5v131q0 137 -59 210t-192 73h-238v-686z " />
<glyph unicode="S" horiz-adv-x="755" d="M78 346v70h43v-72q0 -141 61.5 -226t194.5 -85t194.5 85t61.5 226q0 73 -30.5 134t-78.5 104t-106.5 82.5t-117.5 80.5t-107 87t-78.5 112t-30.5 146q0 164 72.5 258.5t222.5 95.5q79 0 137.5 -27.5t92.5 -77.5t50.5 -112.5t16.5 -139.5v-26h-45v29q0 67 -13.5 121.5 t-41.5 98.5t-78 68.5t-117 24.5q-132 0 -192 -85.5t-60 -225.5q0 -74 30.5 -135.5t78.5 -105.5t106.5 -83.5t117.5 -80.5t107 -86.5t78.5 -110.5t30.5 -144q0 -161 -73 -258.5t-228 -97.5q-154 0 -226.5 97.5t-72.5 258.5z" />
<glyph unicode="T" horiz-adv-x="765" d="M45 1391v43h672v-43h-314v-1391h-45v1391h-313z" />
<glyph unicode="U" horiz-adv-x="751" d="M80 354v1080h45v-1082q0 -68 13 -123.5t41.5 -101t78.5 -71t119 -25.5t119 25.5t78.5 71t41.5 101t13 123.5v1082h43v-1080q0 -61 -9.5 -113.5t-32 -99.5t-56 -80t-84 -52t-113.5 -19q-79 0 -138 28.5t-93 80t-50 115t-16 140.5z" />
<glyph unicode="V" horiz-adv-x="913" d="M76 1434h47l336 -1383l336 1383h43l-344 -1434h-68z" />
<glyph unicode="W" horiz-adv-x="1265" d="M76 1434h45l250 -1373l247 1364h56l233 -1355l242 1364h41l-254 -1434h-59l-232 1327l-246 -1327h-65z" />
<glyph unicode="X" horiz-adv-x="909" d="M76 0l350 745l-326 689h47l310 -650l309 650h45l-326 -689l349 -745h-50l-331 705l-330 -705h-47z" />
<glyph unicode="Y" horiz-adv-x="864" d="M74 1434h45l313 -793l313 793h48l-340 -854v-580h-45v580z" />
<glyph unicode="Z" horiz-adv-x="808" d="M78 0v43l602 1348h-574v43h623v-45l-604 -1346h594v-43h-641z" />
<glyph unicode="[" horiz-adv-x="460" d="M84 0v1436h301v-41h-256v-1354h256v-41h-301z" />
<glyph unicode="\" horiz-adv-x="753" d="M74 1434h41l565 -1434h-41z" />
<glyph unicode="]" horiz-adv-x="460" d="M78 0v41h256v1354h-256v41h301v-1436h-301z" />
<glyph unicode="^" horiz-adv-x="847" d="M78 801l325 633h41l326 -633h-43l-303 588l-303 -588h-43z" />
<glyph unicode="_" horiz-adv-x="1060" d="M72 -20h899v-37h-899v37z" />
<glyph unicode="`" horiz-adv-x="362" d="M82 1737h53l150 -183h-43z" />
<glyph unicode="a" horiz-adv-x="915" d="M76 0l346 1436h63l355 -1436h-45l-84 338h-510l-84 -338h-41zM209 379h493l-249 1003z" />
<glyph unicode="b" horiz-adv-x="751" d="M82 0v1434h287q151 0 213.5 -73t62.5 -224v-93q0 -127 -44.5 -194.5t-160.5 -85.5q234 -34 234 -307v-127q0 -330 -303 -330h-289zM127 43h244q136 0 197 73t61 214v129q0 152 -71.5 217t-223.5 65h-207v-698zM127 782h186q157 0 222 52.5t65 203.5v97q0 132 -50.5 194 t-180.5 62h-242v-609z" />
<glyph unicode="c" horiz-adv-x="757" d="M80 352v729q0 77 16.5 141t51 114.5t93.5 79t138 28.5q80 0 139 -28.5t94 -79t51.5 -114.5t16.5 -141v-110h-45v112q0 143 -61 231.5t-193 88.5q-69 0 -120 -25t-80 -70t-42.5 -101t-13.5 -124v-733q0 -68 13.5 -123.5t42.5 -100t80 -69t120 -24.5q68 0 118.5 24.5 t79.5 69t42.5 100t13.5 123.5v158h45v-156q0 -77 -16.5 -141t-51.5 -114.5t-94 -78.5t-139 -28q-79 0 -138 28t-93.5 78.5t-51 114.5t-16.5 141z" />
<glyph unicode="d" d="M82 0v1434h299q157 0 234 -98t77 -261v-719q0 -161 -76.5 -258.5t-232.5 -97.5h-301zM127 43h254q138 0 202 84t64 227v723q0 144 -65 229t-201 85h-254v-1348z" />
<glyph unicode="e" horiz-adv-x="706" d="M82 0v1434h547v-43h-502v-643h422v-41h-422v-664h502v-43h-547z" />
<glyph unicode="f" horiz-adv-x="681" d="M82 0v1434h526v-43h-481v-678h401v-43h-401v-670h-45z" />
<glyph unicode="g" horiz-adv-x="759" d="M80 352v729q0 77 16.5 141t51 114.5t93.5 79t138 28.5q80 0 139 -28.5t94 -79t51.5 -114.5t16.5 -141v-94h-45v96q0 143 -61 231.5t-193 88.5q-69 0 -120 -25t-80 -70t-42.5 -101t-13.5 -124v-733q0 -68 13.5 -123.5t42.5 -100t80 -69t120 -24.5q68 0 118.5 24.5t79.5 69 t42.5 100t13.5 123.5v326h-223v41h268v-365q0 -77 -16.5 -141t-51.5 -114.5t-94 -78.5t-139 -28q-79 0 -138 28t-93.5 78.5t-51 114.5t-16.5 141z" />
<glyph unicode="h" horiz-adv-x="772" d="M82 0v1434h45v-697h518v697h45v-1434h-45v696h-518v-696h-45z" />
<glyph unicode="i" horiz-adv-x="208" d="M82 0v1434h45v-1434h-45z" />
<glyph unicode="j" horiz-adv-x="516" d="M74 0v43q11 -1 24 -1q26 0 62 3q121 11 176 82t55 221v1086h45v-1084q0 -173 -68.5 -256t-203.5 -92q-39 -3 -66 -3q-13 0 -24 1z" />
<glyph unicode="k" horiz-adv-x="821" d="M82 0v1434h45v-809l532 809h50l-445 -678l481 -756h-49l-460 713l-109 -164v-549h-45z" />
<glyph unicode="l" horiz-adv-x="681" d="M82 0v1434h45v-1391h481v-43h-526z" />
<glyph unicode="m" horiz-adv-x="1007" d="M82 0v1434h70l352 -1360l352 1360h70v-1434h-45v1366l-353 -1362h-51l-354 1362v-1366h-41z" />
<glyph unicode="n" horiz-adv-x="774" d="M82 0v1434h63l504 -1342v1342h43v-1434h-55l-512 1368v-1368h-43z" />
<glyph unicode="o" d="M80 352v729q0 162 74.5 262.5t228.5 100.5q80 0 140.5 -28t96 -78.5t53 -114.5t17.5 -142v-729q0 -162 -75 -262t-232 -100q-154 0 -228.5 100t-74.5 262zM125 350q0 -144 62 -231.5t196 -87.5q136 0 199 87.5t63 231.5v733q0 144 -63 232t-199 88q-134 0 -196 -88 t-62 -232v-733z" />
<glyph unicode="p" horiz-adv-x="735" d="M82 0v1434h283q297 0 297 -347v-143q0 -171 -80.5 -253.5t-249.5 -82.5h-205v-608h-45zM127 651h205q150 0 217 69t67 222v148q0 143 -57 222t-194 79h-238v-740z" />
<glyph unicode="q" horiz-adv-x="790" d="M80 352v729q0 78 17.5 142t52.5 114.5t95 78.5t140 28t140 -28t96 -78.5t53.5 -114.5t17.5 -142v-729q0 -167 -78 -264q41 -68 131 -68h23v-40h-23q-110 0 -159 79q-75 -69 -201 -69q-105 0 -175.5 49.5t-100 128.5t-29.5 184zM125 350q0 -143 63 -231t197 -88 q91 0 151.5 44t85.5 113.5t25 161.5v733q0 68 -14.5 124.5t-45 101t-82 69.5t-120.5 25q-134 0 -197 -88.5t-63 -231.5v-733z" />
<glyph unicode="r" horiz-adv-x="778" d="M82 0v1434h285q295 0 295 -322v-129q0 -133 -55 -206t-173 -95q228 -36 228 -287v-225q0 -118 38 -170h-49q-35 54 -35 170v225q0 149 -80.5 208t-232.5 59h-176v-662h-45zM127 705h176q79 0 133.5 11.5t97 41t62.5 84t20 135.5v131q0 137 -59 210t-192 73h-238v-686z " />
<glyph unicode="s" horiz-adv-x="755" d="M78 346v70h43v-72q0 -141 61.5 -226t194.5 -85t194.5 85t61.5 226q0 73 -30.5 134t-78.5 104t-106.5 82.5t-117.5 80.5t-107 87t-78.5 112t-30.5 146q0 164 72.5 258.5t222.5 95.5q79 0 137.5 -27.5t92.5 -77.5t50.5 -112.5t16.5 -139.5v-26h-45v29q0 67 -13.5 121.5 t-41.5 98.5t-78 68.5t-117 24.5q-132 0 -192 -85.5t-60 -225.5q0 -74 30.5 -135.5t78.5 -105.5t106.5 -83.5t117.5 -80.5t107 -86.5t78.5 -110.5t30.5 -144q0 -161 -73 -258.5t-228 -97.5q-154 0 -226.5 97.5t-72.5 258.5z" />
<glyph unicode="t" horiz-adv-x="751" d="M39 1391v43h670v-43h-314v-1391h-45v1391h-311z" />
<glyph unicode="u" horiz-adv-x="751" d="M80 354v1080h45v-1082q0 -68 13 -123.5t41.5 -101t78.5 -71t119 -25.5t119 25.5t78.5 71t41.5 101t13 123.5v1082h43v-1080q0 -61 -9.5 -113.5t-32 -99.5t-56 -80t-84 -52t-113.5 -19q-79 0 -138 28.5t-93 80t-50 115t-16 140.5z" />
<glyph unicode="v" horiz-adv-x="913" d="M76 1434h47l336 -1383l336 1383h43l-344 -1434h-68z" />
<glyph unicode="w" horiz-adv-x="1265" d="M76 1434h45l250 -1373l247 1364h56l233 -1355l242 1364h41l-254 -1434h-59l-232 1327l-246 -1327h-65z" />
<glyph unicode="x" horiz-adv-x="909" d="M76 0l350 745l-326 689h47l310 -650l309 650h45l-326 -689l349 -745h-50l-331 705l-330 -705h-47z" />
<glyph unicode="y" horiz-adv-x="864" d="M74 1434h45l313 -793l313 793h48l-340 -854v-580h-45v580z" />
<glyph unicode="z" horiz-adv-x="808" d="M78 0v43l602 1348h-574v43h623v-45l-604 -1346h594v-43h-641z" />
<glyph unicode="{" horiz-adv-x="524" d="M76 692v49q36 7 60.5 20t39 28t22 41.5t10 49.5t3.5 64l14 285q2 47 10 81t25 64t49 46t78 16h62v-41h-52q-32 0 -55 -9.5t-36 -24t-21.5 -40t-11.5 -48t-5 -56.5l-14 -279q-2 -46 -6.5 -75t-17.5 -60.5t-40 -52t-69 -33.5q42 -12 69 -32.5t40 -52t17.5 -60.5t6.5 -76 l14 -277q2 -35 5 -57.5t11.5 -47.5t21.5 -39.5t36 -24t55 -9.5h52v-41h-62q-46 0 -78 15.5t-49 45.5t-25 64.5t-10 81.5l-14 285q-1 40 -3.5 62.5t-10.5 49t-21.5 41.5t-38.5 27.5t-61 19.5z" />
<glyph unicode="|" horiz-adv-x="321" d="M141 -16v1468h41v-1468h-41z" />
<glyph unicode="}" horiz-adv-x="524" d="M76 0v41h51q32 0 55 9.5t36 24t21.5 39.5t11.5 47.5t5 57.5l14 277q2 47 6.5 76t17.5 60.5t40 52t69 32.5q-42 13 -69 33.5t-40 52t-17.5 60.5t-6.5 75l-14 279q-2 34 -5 56.5t-11.5 48t-21.5 40t-36 24t-55 9.5h-51v41h61q38 0 66 -11t45 -29t28.5 -45.5t16 -56 t6.5 -65.5l14 -285q3 -99 27.5 -142.5t110.5 -60.5v-49q-86 -16 -110.5 -59t-27.5 -141l-14 -285q-2 -48 -10 -82t-25 -64t-48.5 -45.5t-78.5 -15.5h-61z" />
<glyph unicode="~" horiz-adv-x="813" d="M74 672q76 125 178 125q42 1 89.5 -18.5t83 -44t79 -44t78.5 -18.5q40 1 69.5 29.5t59.5 78.5l28 -22q-69 -120 -155 -125q-40 -2 -86.5 17.5t-82 44.5t-81 45.5t-84.5 19.5q-84 0 -150 -109z" />
<glyph unicode="&#xa1;" horiz-adv-x="208" d="M82 0v694l6 424h33l6 -424v-694h-45zM82 1270v166h45v-166h-45z" />
<glyph unicode="&#xa2;" horiz-adv-x="757" d="M82 455v528q0 155 66.5 254t209.5 106v95h41v-95q145 -6 212 -99.5t67 -248.5v-51h-43v53q0 141 -60.5 223.5t-195.5 82.5q-68 0 -118 -25t-78.5 -70t-42 -100.5t-13.5 -122.5v-532q0 -67 13.5 -122t42 -100t78.5 -70.5t118 -25.5q134 0 195 86t61 228v92h43v-90 q0 -156 -67.5 -253.5t-211.5 -103.5v-98h-41v98q-143 6 -209.5 105.5t-66.5 255.5z" />
<glyph unicode="&#xa3;" horiz-adv-x="784" d="M80 0v41q246 259 203 473h-179v39h172q-17 59 -49.5 126.5t-58 115t-45 122.5t-19.5 160q0 79 15.5 143t49 115.5t92.5 80t140 28.5q80 0 138.5 -30t90.5 -83.5t47 -117.5t15 -142v-65h-43v67q0 68 -12 124t-39 104t-77 75t-120 27q-251 0 -251 -324q0 -84 20 -159 t45 -123.5t56.5 -116.5t47.5 -127h322v-39h-313q19 -100 -22 -210.5t-169 -260.5h565v-43h-622z" />
<glyph unicode="&#xa4;" horiz-adv-x="679" d="M80 481l90 88q-53 66 -53 148t53 145l-90 90l22 23l93 -90q61 55 143 55q86 0 147 -55l90 90l25 -23l-92 -90q55 -61 55 -145q0 -85 -55 -146l92 -90l-25 -22l-90 88q-63 -53 -147 -53q-80 0 -143 53l-93 -88zM150 717q0 -78 55.5 -133.5t132.5 -55.5q79 0 134.5 55.5 t55.5 133.5t-55.5 133t-134.5 55q-77 0 -132.5 -55t-55.5 -133z" />
<glyph unicode="&#xa5;" horiz-adv-x="909" d="M74 1434h49l332 -818l336 818h43l-355 -871h234v-31h-236v-170h236v-30h-236v-332h-45v332h-235v30h235v170h-235v31h231z" />
<glyph unicode="&#xa6;" horiz-adv-x="323" d="M141 -16v612h43v-612h-43zM141 838v612h43v-612h-43z" />
<glyph unicode="&#xa7;" horiz-adv-x="759" d="M82 123v55h43v-51q0 -105 75 -162t183 -57q96 0 173 51t81 141q1 58 -28.5 103.5t-78.5 75t-108 55.5t-118 54t-108 62t-79.5 88t-30.5 124q0 100 71 170.5t175 99.5q-48 23 -77 38t-66 41t-57.5 51.5t-34.5 62t-13 79.5q3 117 90 178.5t213 61.5q121 -2 203 -71.5 t82 -184.5v-25h-43v21q0 99 -70 159t-172 62q-105 0 -180 -51.5t-78 -151.5q-1 -55 28.5 -98.5t78 -73t107 -55.5t117.5 -55t108 -64t79.5 -89.5t30.5 -123.5q0 -99 -60.5 -168.5t-158.5 -109.5q51 -24 86.5 -45.5t69 -53t50 -73.5t15.5 -93q-3 -108 -92 -170.5t-205 -62.5 q-128 0 -214.5 67.5t-86.5 188.5zM129 662q0 -32 9.5 -60.5t21 -49.5t37.5 -43.5t42 -35t52.5 -31.5t50.5 -25.5t54 -23.5q4 -2 6.5 -3t5.5 -2.5t6 -2.5q97 32 159 96.5t62 159.5q0 52 -20 94t-60 74t-77 53t-95 47q-101 -16 -177.5 -82.5t-76.5 -164.5z" />
<glyph unicode="&#xa8;" horiz-adv-x="342" d="M111 1532v166h41v-166h-41zM190 1532v166h43v-166h-43z" />
<glyph unicode="&#xa9;" horiz-adv-x="1540" d="M78 717q0 200 87.5 362t246.5 255t358 93q149 0 278 -54.5t219.5 -149t142.5 -226t52 -280.5q0 -200 -88 -362t-247 -255.5t-357 -93.5q-199 0 -358 93.5t-246.5 255.5t-87.5 362zM113 717q0 -189 83 -343.5t234 -244.5t340 -90t340 90t234 244.5t83 343.5q0 141 -49 266 t-134.5 215t-208.5 142.5t-265 52.5t-265 -52.5t-208.5 -142.5t-134.5 -215t-49 -266zM551 520v393q0 113 51.5 182.5t159.5 69.5q106 0 156.5 -69.5t50.5 -182.5v-39h-35v41q0 97 -40.5 156t-131.5 59t-132.5 -59.5t-41.5 -155.5v-397q0 -96 41.5 -156.5t132.5 -60.5 t131.5 60t40.5 157v60h35v-58q0 -113 -50.5 -183.5t-156.5 -70.5q-108 0 -159.5 70.5t-51.5 183.5z" />
<glyph unicode="&#xaa;" horiz-adv-x="555" d="M80 872v7q0 226 358 231v115q0 57 -10 95t-42 64.5t-87 26.5q-156 0 -156 -188v-19h-32v19q0 221 188 221q174 0 174 -221v-533h-31l-2 137q-23 -68 -69.5 -107.5t-114.5 -39.5q-87 0 -131.5 51t-44.5 141zM84 500v35h389v-35h-389zM115 874q0 -76 37 -118.5t110 -42.5 q54 0 93.5 31.5t58.5 75.5t24 98v161q-323 -5 -323 -196v-9z" />
<glyph unicode="&#xab;" horiz-adv-x="530" d="M76 719l137 491h41l-135 -491l135 -494h-41zM276 719l136 491h43l-136 -491l136 -494h-43z" />
<glyph unicode="&#xac;" horiz-adv-x="765" d="M78 700v35h610v-309h-37v274h-573z" />
<glyph unicode="&#xad;" horiz-adv-x="524" d="M80 696v41h364v-41h-364z" />
<glyph unicode="&#xae;" horiz-adv-x="1540" d="M78 717q0 200 87.5 362t246.5 255t358 93q149 0 278 -54.5t219.5 -149t142.5 -226t52 -280.5q0 -200 -88 -362t-247 -255.5t-357 -93.5q-199 0 -358 93.5t-246.5 255.5t-87.5 362zM113 717q0 -189 83 -343.5t234 -244.5t340 -90t340 90t234 244.5t83 343.5q0 141 -49 266 t-134.5 215t-208.5 142.5t-265 52.5t-265 -52.5t-208.5 -142.5t-134.5 -215t-49 -266zM578 279v876h198q209 0 209 -227v-29q0 -173 -139 -209q141 -38 141 -198v-95q0 -87 27 -118h-41q-23 45 -23 118v95q0 105 -56.5 143.5t-164.5 38.5h-115v-395h-36zM614 709h138 q101 0 148.5 43t47.5 143v31q0 95 -40 144.5t-132 49.5h-162v-411z" />
<glyph unicode="&#xaf;" horiz-adv-x="520" d="M74 1534v35h370v-35h-370z" />
<glyph unicode="&#xb0;" horiz-adv-x="415" d="M76 1321q0 55 38.5 92t94.5 37q55 0 93 -37t38 -92t-38.5 -93t-92.5 -38q-56 0 -94.5 38t-38.5 93zM106 1321q0 -44 30 -72t73 -28q42 0 72 28.5t30 71.5q0 42 -30 70t-72 28q-43 0 -73 -28t-30 -70z" />
<glyph unicode="&#xb1;" horiz-adv-x="788" d="M80 393v39h297v270h-297v39h297v295h37v-295h295v-39h-295v-270h295v-39h-629z" />
<glyph unicode="&#xb2;" horiz-adv-x="548" d="M82 719v22q0 94 36.5 174t88 136.5t103 108t88 113t36.5 128.5q0 205 -160 205q-157 0 -157 -207v-49h-35v49q0 106 46.5 172.5t147.5 66.5t147 -64.5t46 -170.5q0 -52 -19 -99.5t-49 -86.5t-67 -77.5t-74.5 -79t-68.5 -83.5t-51.5 -99.5t-22.5 -119.5v-6h344v-33h-379z " />
<glyph unicode="&#xb3;" horiz-adv-x="548" d="M82 942v43h33v-45q0 -90 37.5 -144.5t121.5 -54.5q158 0 158 201v70q0 71 -39.5 117.5t-107.5 46.5h-66v32h66q65 0 107 51.5t40 118.5v27q0 90 -37 145.5t-121 55.5q-83 0 -121 -55.5t-38 -143.5v-29h-33v27q0 105 46 169t146 64q99 0 146 -64.5t47 -168.5v-23 q0 -65 -31.5 -116t-89.5 -72q61 -20 91 -68t30 -114v-70q0 -104 -47 -168.5t-146 -64.5q-100 0 -146 64t-46 169z" />
<glyph unicode="&#xb4;" horiz-adv-x="362" d="M78 1554l149 183h52l-158 -183h-43z" />
<glyph unicode="&#xb5;" horiz-adv-x="819" d="M111 -186v1210h45v-666q0 -69 13.5 -124.5t42 -100.5t78 -69.5t116.5 -24.5q130 0 190.5 88t60.5 231v666h45v-1024h-43l3 217q-25 -103 -92 -161t-169 -58q-100 0 -163 54.5t-84 146.5l2 -385h-45z" />
<glyph unicode="&#xb6;" horiz-adv-x="811" d="M55 946v154q0 80 11.5 136.5t39.5 103t82 70t134 24.5h376v-1559h-36v1522h-312v-1522h-37v735q-143 7 -200.5 88t-57.5 248z" />
<glyph unicode="&#xb7;" horiz-adv-x="208" d="M82 662v165h45v-165h-45z" />
<glyph unicode="&#xb8;" horiz-adv-x="503" d="M78 -180h37v-6q0 -49 42.5 -73t96.5 -26q51 0 93 24.5t42 72.5q0 52 -37.5 70t-97.5 18h-10v104h28v-84q71 -2 112.5 -25t41.5 -83q0 -62 -52 -92.5t-120 -28.5q-69 0 -122.5 30t-53.5 91v8z" />
<glyph unicode="&#xb9;" horiz-adv-x="346" d="M78 1501q110 8 149 127h35v-909h-35v848q-53 -85 -147 -97z" />
<glyph unicode="&#xba;" horiz-adv-x="555" d="M80 905v305q0 104 49.5 169t149.5 65t148 -65t48 -169v-305q0 -104 -48 -168.5t-148 -64.5t-149.5 64.5t-49.5 168.5zM84 502v35h391v-35h-391zM115 903q0 -89 39.5 -143.5t124.5 -54.5q84 0 122.5 54.5t38.5 143.5v309q0 89 -38.5 144t-122.5 55q-85 0 -124.5 -55 t-39.5 -144v-309z" />
<glyph unicode="&#xbb;" horiz-adv-x="530" d="M76 225l135 494l-135 491h43l135 -491l-135 -494h-43zM276 225l136 494l-136 491h43l136 -491l-136 -494h-43z" />
<glyph unicode="&#xbc;" horiz-adv-x="1005" d="M88 1307q111 9 150 127h34v-910h-36v848q-49 -84 -146 -96zM195 0l565 1434h33l-566 -1434h-32zM492 209v33l317 667h43v-667h76v-33h-76v-209h-35v209h-325zM528 242h289v604z" />
<glyph unicode="&#xbd;" horiz-adv-x="1130" d="M88 1307q111 9 150 127h34v-910h-36v848q-49 -84 -146 -96zM186 0l566 1434h34l-565 -1434h-35zM666 0v23q0 69 19.5 130t50 107t68 88t75 80t68 75.5t50 83.5t19.5 95q0 205 -158 205q-85 0 -122.5 -57.5t-37.5 -149.5v-49h-32v49q0 107 46 173.5t146 66.5 q102 0 147.5 -65t45.5 -171q0 -51 -19 -99t-49.5 -86.5t-67 -77t-74 -79.5t-68.5 -84t-51 -99.5t-22 -119.5v-6h342v-33h-376z" />
<glyph unicode="&#xbe;" horiz-adv-x="1144" d="M82 748v43h33v-46q0 -90 37.5 -144t121.5 -54q158 0 158 201v69q0 71 -39.5 117.5t-107.5 46.5h-66v33h66q65 0 107 51.5t40 118.5v26q0 90 -37 145.5t-121 55.5q-83 0 -121 -55.5t-38 -143.5v-28h-33v26q0 105 46 169.5t146 64.5q99 0 146 -65t47 -169v-22 q0 -65 -31.5 -116.5t-89.5 -72.5q61 -20 91 -68t30 -114v-69q0 -104 -47 -169t-146 -65q-100 0 -146 64.5t-46 169.5zM338 0l565 1434h33l-565 -1434h-33zM633 209v33l317 667h41v-667h78v-33h-78v-209h-35v209h-323zM670 242h286v604z" />
<glyph unicode="&#xbf;" horiz-adv-x="745" d="M76 356q0 70 23 134.5t57.5 110.5t75 97.5t75 97.5t57.5 109.5t23 132.5q0 36 -10 74h43q10 -42 10 -76q-1 -86 -33 -161t-77 -131.5t-90.5 -112t-77 -126.5t-31.5 -151q0 -323 252 -323q70 0 120.5 26.5t78.5 74t40.5 103t12.5 123.5v78h43v-76q0 -77 -16 -141.5 t-49 -117t-92 -82t-138 -29.5q-82 0 -141 28.5t-92.5 80t-48.5 115t-15 142.5zM379 1270v164h43v-164h-43z" />
<glyph unicode="&#xc0;" horiz-adv-x="915" d="M76 0l346 1436h63l355 -1436h-45l-84 338h-510l-84 -338h-41zM209 379h493l-249 1003zM317 1692h54l147 -183h-41z" />
<glyph unicode="&#xc1;" horiz-adv-x="915" d="M76 0l346 1436h63l355 -1436h-45l-84 338h-510l-84 -338h-41zM209 379h493l-249 1003zM371 1511l147 183h53l-159 -183h-41z" />
<glyph unicode="&#xc2;" horiz-adv-x="915" d="M76 0l346 1436h63l355 -1436h-45l-84 338h-510l-84 -338h-41zM209 379h493l-249 1003zM266 1509l168 168h37l170 -168h-51l-137 136l-138 -136h-49z" />
<glyph unicode="&#xc3;" horiz-adv-x="915" d="M76 0l346 1436h63l355 -1436h-45l-84 338h-510l-84 -338h-41zM209 379h493l-249 1003zM250 1567q42 79 110 82q39 0 101 -39t92 -37q45 3 72 63l30 -18q-43 -80 -98 -82q-37 -2 -99.5 37.5t-95.5 38.5q-50 0 -83 -64z" />
<glyph unicode="&#xc4;" horiz-adv-x="915" d="M76 0l346 1436h63l355 -1436h-45l-84 338h-510l-84 -338h-41zM209 379h493l-249 1003zM354 1509v164h41v-164h-41zM510 1509v164h43v-164h-43z" />
<glyph unicode="&#xc5;" horiz-adv-x="915" d="M76 0l346 1436h63l355 -1436h-45l-84 338h-510l-84 -338h-41zM209 379h493l-249 1003zM324 1645q0 52 37.5 87t91.5 35q53 0 90 -35t37 -87q0 -55 -37 -91t-90 -36q-55 0 -92 36t-37 91zM354 1645q0 -42 28.5 -69.5t70.5 -27.5q39 0 67.5 27.5t28.5 69.5q0 39 -28.5 65.5 t-67.5 26.5q-42 0 -70.5 -26.5t-28.5 -65.5z" />
<glyph unicode="&#xc6;" horiz-adv-x="1212" d="M74 0l557 1434h504v-43h-430v-643h360v-41h-360v-664h430v-43h-476v344h-407l-135 -344h-43zM266 387h393v993z" />
<glyph unicode="&#xc7;" horiz-adv-x="757" d="M80 352v729q0 77 16.5 141t51 114.5t93.5 79t138 28.5q80 0 139 -28.5t94 -79t51.5 -114.5t16.5 -141v-110h-45v112q0 143 -61 231.5t-193 88.5q-69 0 -120 -25t-80 -70t-42.5 -101t-13.5 -124v-733q0 -68 13.5 -123.5t42.5 -100t80 -69t120 -24.5q68 0 118.5 24.5 t79.5 69t42.5 100t13.5 123.5v158h45v-156q0 -75 -16 -137.5t-49.5 -113t-90 -80t-131.5 -31.5v-70q71 -2 112.5 -25t41.5 -83q0 -62 -52 -92.5t-120 -28.5q-69 0 -121.5 30t-52.5 91v8h35v-6q0 -49 42.5 -73t96.5 -26q51 0 93 24.5t42 72.5q0 52 -37.5 70t-97.5 18h-10v90 q-75 3 -131.5 32.5t-89 79.5t-48.5 112.5t-16 137.5z" />
<glyph unicode="&#xc8;" horiz-adv-x="706" d="M82 0v1434h547v-43h-502v-643h422v-41h-422v-664h502v-43h-547zM238 1720h53l149 -182h-43z" />
<glyph unicode="&#xc9;" horiz-adv-x="706" d="M82 0v1434h547v-43h-502v-643h422v-41h-422v-664h502v-43h-547zM297 1518l147 182h54l-160 -182h-41z" />
<glyph unicode="&#xca;" horiz-adv-x="706" d="M82 0v1434h547v-43h-502v-643h422v-41h-422v-664h502v-43h-547zM168 1522l168 168h37l170 -168h-51l-138 137l-139 -137h-47z" />
<glyph unicode="&#xcb;" horiz-adv-x="706" d="M82 0v1434h547v-43h-502v-643h422v-41h-422v-664h502v-43h-547zM256 1518v165h41v-165h-41zM412 1518v165h41v-165h-41z" />
<glyph unicode="&#xcc;" horiz-adv-x="208" d="M-49 1700h53l148 -182h-43zM82 0v1434h45v-1434h-45z" />
<glyph unicode="&#xcd;" horiz-adv-x="208" d="M41 1520l149 182h52l-158 -182h-43zM82 0v1434h45v-1434h-45z" />
<glyph unicode="&#xce;" horiz-adv-x="208" d="M-82 1518l168 168h37l168 -168h-49l-138 137l-139 -137h-47zM82 0v1434h45v-1434h-45z" />
<glyph unicode="&#xcf;" horiz-adv-x="208" d="M6 1520v163h41v-163h-41zM82 0v1434h45v-1434h-45zM162 1520v163h41v-163h-41z" />
<glyph unicode="&#xd0;" d="M-20 698v39h102v697h299q157 0 234 -98t77 -261v-719q0 -161 -76.5 -258.5t-232.5 -97.5h-301v698h-102zM127 43h254q138 0 202 84t64 227v723q0 144 -65 229t-201 85h-254v-654h199v-39h-199v-655z" />
<glyph unicode="&#xd1;" horiz-adv-x="774" d="M82 0v1434h63l504 -1342v1342h43v-1434h-55l-512 1368v-1368h-43zM186 1589q42 79 111 82q39 1 102.5 -37.5t92.5 -36.5q37 0 71 62l29 -19q-36 -76 -98 -79q-37 -2 -99 36t-94 37q-50 0 -86 -63z" />
<glyph unicode="&#xd2;" d="M80 352v729q0 162 74.5 262.5t228.5 100.5q80 0 140.5 -28t96 -78.5t53 -114.5t17.5 -142v-729q0 -162 -75 -262t-232 -100q-154 0 -228.5 100t-74.5 262zM125 350q0 -144 62 -231.5t196 -87.5q136 0 199 87.5t63 231.5v733q0 144 -63 232t-199 88q-134 0 -196 -88 t-62 -232v-733zM246 1718h53l147 -182h-43z" />
<glyph unicode="&#xd3;" d="M80 352v729q0 162 74.5 262.5t228.5 100.5q80 0 140.5 -28t96 -78.5t53 -114.5t17.5 -142v-729q0 -162 -75 -262t-232 -100q-154 0 -228.5 100t-74.5 262zM125 350q0 -144 62 -231.5t196 -87.5q136 0 199 87.5t63 231.5v733q0 144 -63 232t-199 88q-134 0 -196 -88 t-62 -232v-733zM322 1536l147 182h51l-158 -182h-40z" />
<glyph unicode="&#xd4;" d="M80 352v729q0 162 74.5 262.5t228.5 100.5q80 0 140.5 -28t96 -78.5t53 -114.5t17.5 -142v-729q0 -162 -75 -262t-232 -100q-154 0 -228.5 100t-74.5 262zM125 350q0 -144 62 -231.5t196 -87.5q136 0 199 87.5t63 231.5v733q0 144 -63 232t-199 88q-134 0 -196 -88 t-62 -232v-733zM197 1532l168 168h36l170 -168h-51l-137 137l-137 -137h-49z" />
<glyph unicode="&#xd5;" d="M80 352v729q0 162 74.5 262.5t228.5 100.5q80 0 140.5 -28t96 -78.5t53 -114.5t17.5 -142v-729q0 -162 -75 -262t-232 -100q-154 0 -228.5 100t-74.5 262zM125 350q0 -144 62 -231.5t196 -87.5q136 0 199 87.5t63 231.5v733q0 144 -63 232t-199 88q-134 0 -196 -88 t-62 -232v-733zM193 1583q44 80 110 80q39 1 101.5 -37.5t91.5 -36.5q43 2 71 64l31 -19q-37 -79 -98 -82q-37 -2 -99.5 37t-95.5 39q-52 0 -84 -63z" />
<glyph unicode="&#xd6;" d="M80 352v729q0 162 74.5 262.5t228.5 100.5q80 0 140.5 -28t96 -78.5t53 -114.5t17.5 -142v-729q0 -162 -75 -262t-232 -100q-154 0 -228.5 100t-74.5 262zM125 350q0 -144 62 -231.5t196 -87.5q136 0 199 87.5t63 231.5v733q0 144 -63 232t-199 88q-134 0 -196 -88 t-62 -232v-733zM285 1532v166h41v-166h-41zM440 1532v166h43v-166h-43z" />
<glyph unicode="&#xd7;" horiz-adv-x="645" d="M82 500l215 215l-215 215l24 26l218 -215l215 215l24 -26l-215 -215l215 -215l-24 -27l-215 217l-218 -217z" />
<glyph unicode="&#xd8;" d="M80 352v729q0 179 77 271t226 92q152 0 229 -92l35 90l33 -10l-43 -113q53 -89 53 -238v-729q0 -179 -77.5 -270.5t-229.5 -91.5q-148 0 -227 94l-39 -98l-33 10l47 123q-51 88 -51 233zM125 350q0 -100 29 -176l440 1129q-66 100 -211 100q-128 0 -193 -81t-65 -239 v-733zM174 133q64 -102 209 -102q129 0 195.5 80.5t66.5 238.5v733q0 105 -31 181z" />
<glyph unicode="&#xd9;" horiz-adv-x="751" d="M80 354v1080h45v-1082q0 -68 13 -123.5t41.5 -101t78.5 -71t119 -25.5t119 25.5t78.5 71t41.5 101t13 123.5v1082h43v-1080q0 -61 -9.5 -113.5t-32 -99.5t-56 -80t-84 -52t-113.5 -19q-79 0 -138 28.5t-93 80t-50 115t-16 140.5zM236 1702h53l147 -182h-43z" />
<glyph unicode="&#xda;" horiz-adv-x="751" d="M80 354v1080h45v-1082q0 -68 13 -123.5t41.5 -101t78.5 -71t119 -25.5t119 25.5t78.5 71t41.5 101t13 123.5v1082h43v-1080q0 -61 -9.5 -113.5t-32 -99.5t-56 -80t-84 -52t-113.5 -19q-79 0 -138 28.5t-93 80t-50 115t-16 140.5zM330 1536l149 182h51l-157 -182h-43z" />
<glyph unicode="&#xdb;" horiz-adv-x="751" d="M80 354v1080h45v-1082q0 -68 13 -123.5t41.5 -101t78.5 -71t119 -25.5t119 25.5t78.5 71t41.5 101t13 123.5v1082h43v-1080q0 -61 -9.5 -113.5t-32 -99.5t-56 -80t-84 -52t-113.5 -19q-79 0 -138 28.5t-93 80t-50 115t-16 140.5zM193 1532l167 168h37l170 -168h-51 l-137 137l-139 -137h-47z" />
<glyph unicode="&#xdc;" horiz-adv-x="751" d="M80 354v1080h45v-1082q0 -68 13 -123.5t41.5 -101t78.5 -71t119 -25.5t119 25.5t78.5 71t41.5 101t13 123.5v1082h43v-1080q0 -61 -9.5 -113.5t-32 -99.5t-56 -80t-84 -52t-113.5 -19q-79 0 -138 28.5t-93 80t-50 115t-16 140.5zM276 1528v164h41v-164h-41zM432 1528v164 h43v-164h-43z" />
<glyph unicode="&#xdd;" horiz-adv-x="864" d="M74 1434h45l313 -793l313 793h48l-340 -854v-580h-45v580zM383 1518l149 182h52l-160 -182h-41z" />
<glyph unicode="&#xde;" horiz-adv-x="772" d="M82 0v1434h45v-283h238q297 0 297 -346v-143q0 -171 -80.5 -253.5t-249.5 -82.5h-205v-326h-45zM127 369h205q150 0 217 68.5t67 221.5v148q0 143 -57 222t-194 79h-238v-739z" />
<glyph unicode="&#xdf;" horiz-adv-x="1429" d="M70 346v70h43v-72q0 -142 61 -226.5t195 -84.5q133 0 193.5 84.5t60.5 226.5q0 58 -18.5 107.5t-50.5 87t-73 71.5t-86 64.5t-90.5 61t-86.5 66.5t-73 76t-50.5 94.5t-18.5 117.5q0 164 72 258.5t223 95.5q152 0 223.5 -98.5t71.5 -258.5v-26h-43v29q0 140 -60 226.5 t-192 86.5q-68 0 -117.5 -24t-77.5 -68t-41.5 -98t-13.5 -121q0 -74 30 -135.5t78.5 -105.5t106.5 -83.5t116.5 -80.5t107 -86.5t78.5 -110.5t30 -144q0 -161 -72.5 -258.5t-226.5 -97.5t-226.5 97.5t-72.5 258.5zM760 346v70h43v-72q0 -142 61 -226.5t195 -84.5 q133 0 193.5 84.5t60.5 226.5q0 58 -18.5 107.5t-50.5 87t-73 71.5t-86 64.5t-90.5 61t-86.5 66.5t-73 76t-50.5 94.5t-18.5 117.5q0 164 72 258.5t223 95.5q152 0 223.5 -98.5t71.5 -258.5v-26h-43v29q0 140 -60 226.5t-192 86.5q-68 0 -117.5 -24t-77.5 -68t-41.5 -98 t-13.5 -121q0 -74 30 -135.5t78.5 -105.5t106.5 -83.5t116.5 -80.5t107 -86.5t78.5 -110.5t30 -144q0 -161 -72.5 -258.5t-226.5 -97.5t-226.5 97.5t-72.5 258.5z" />
<glyph unicode="&#xe0;" horiz-adv-x="915" d="M76 0l346 1436h63l355 -1436h-45l-84 338h-510l-84 -338h-41zM209 379h493l-249 1003zM317 1692h54l147 -183h-41z" />
<glyph unicode="&#xe1;" horiz-adv-x="915" d="M76 0l346 1436h63l355 -1436h-45l-84 338h-510l-84 -338h-41zM209 379h493l-249 1003zM371 1511l147 183h53l-159 -183h-41z" />
<glyph unicode="&#xe2;" horiz-adv-x="915" d="M76 0l346 1436h63l355 -1436h-45l-84 338h-510l-84 -338h-41zM209 379h493l-249 1003zM266 1509l168 168h37l170 -168h-51l-137 136l-138 -136h-49z" />
<glyph unicode="&#xe3;" horiz-adv-x="915" d="M76 0l346 1436h63l355 -1436h-45l-84 338h-510l-84 -338h-41zM209 379h493l-249 1003zM250 1567q42 79 110 82q39 0 102 -39t93 -37q46 3 72 61l28 -16q-43 -80 -98 -82q-37 -2 -100.5 37.5t-96.5 38.5q-52 0 -84 -62z" />
<glyph unicode="&#xe4;" horiz-adv-x="915" d="M76 0l346 1436h63l355 -1436h-45l-84 338h-510l-84 -338h-41zM209 379h493l-249 1003zM354 1509v164h41v-164h-41zM510 1509v164h43v-164h-43z" />
<glyph unicode="&#xe5;" horiz-adv-x="915" d="M76 0l346 1436h63l355 -1436h-45l-84 338h-510l-84 -338h-41zM209 379h493l-249 1003zM324 1645q0 52 37.5 87t91.5 35q53 0 90 -35t37 -87q0 -55 -37 -91t-90 -36q-55 0 -92 36t-37 91zM354 1645q0 -42 28.5 -69.5t70.5 -27.5q39 0 67.5 27.5t28.5 69.5q0 39 -28.5 65.5 t-67.5 26.5q-42 0 -70.5 -26.5t-28.5 -65.5z" />
<glyph unicode="&#xe6;" horiz-adv-x="1212" d="M74 0l557 1434h504v-43h-430v-643h360v-41h-360v-664h430v-43h-476v344h-407l-135 -344h-43zM266 387h393v993z" />
<glyph unicode="&#xe7;" horiz-adv-x="757" d="M80 352v729q0 77 16.5 141t51 114.5t93.5 79t138 28.5q80 0 139 -28.5t94 -79t51.5 -114.5t16.5 -141v-110h-45v112q0 143 -61 231.5t-193 88.5q-69 0 -120 -25t-80 -70t-42.5 -101t-13.5 -124v-733q0 -68 13.5 -123.5t42.5 -100t80 -69t120 -24.5q68 0 118.5 24.5 t79.5 69t42.5 100t13.5 123.5v158h45v-156q0 -75 -16 -137.5t-49.5 -113t-90 -80t-131.5 -31.5v-62q66 -2 110 -30t44 -86q0 -63 -52 -95t-120 -30q-68 0 -121 32t-53 93v8h32v-6q0 -34 24 -56.5t54 -31t64 -9.5q51 0 93 23.5t42 71.5q0 52 -37.5 70t-97.5 18h-10v90 q-75 3 -131.5 32.5t-89 79.5t-48.5 112.5t-16 137.5z" />
<glyph unicode="&#xe8;" horiz-adv-x="706" d="M82 0v1434h547v-43h-502v-643h422v-41h-422v-664h502v-43h-547zM238 1720h53l149 -182h-43z" />
<glyph unicode="&#xe9;" horiz-adv-x="706" d="M82 0v1434h547v-43h-502v-643h422v-41h-422v-664h502v-43h-547zM297 1518l147 182h54l-160 -182h-41z" />
<glyph unicode="&#xea;" horiz-adv-x="706" d="M82 0v1434h547v-43h-502v-643h422v-41h-422v-664h502v-43h-547zM168 1522l168 168h37l170 -168h-51l-138 137l-139 -137h-47z" />
<glyph unicode="&#xeb;" horiz-adv-x="706" d="M82 0v1434h547v-43h-502v-643h422v-41h-422v-664h502v-43h-547zM256 1518v165h41v-165h-41zM412 1518v165h41v-165h-41z" />
<glyph unicode="&#xec;" horiz-adv-x="208" d="M-49 1700h53l148 -182h-43zM82 0v1434h45v-1434h-45z" />
<glyph unicode="&#xed;" horiz-adv-x="208" d="M41 1520l149 182h52l-158 -182h-43zM82 0v1434h45v-1434h-45z" />
<glyph unicode="&#xee;" horiz-adv-x="208" d="M-82 1518l168 168h37l168 -168h-49l-138 137l-139 -137h-47zM82 0v1434h45v-1434h-45z" />
<glyph unicode="&#xef;" horiz-adv-x="208" d="M6 1520v163h41v-163h-41zM82 0v1434h45v-1434h-45zM162 1520v163h41v-163h-41z" />
<glyph unicode="&#xf0;" d="M-10 694v39h92v701h299q157 0 234 -98t77 -261v-719q0 -161 -76.5 -258.5t-232.5 -97.5h-301v694h-92zM127 43h254q138 0 202 84t64 227v723q0 144 -65 229t-201 85h-254v-658h201v-39h-201v-651z" />
<glyph unicode="&#xf1;" horiz-adv-x="774" d="M82 0v1434h63l504 -1342v1342h43v-1434h-55l-512 1368v-1368h-43zM186 1589q42 79 111 82q39 1 102.5 -37.5t92.5 -36.5q37 0 71 62l29 -19q-36 -76 -98 -79q-37 -2 -99 36t-94 37q-50 0 -86 -63z" />
<glyph unicode="&#xf2;" d="M80 352v729q0 162 74.5 262.5t228.5 100.5q80 0 140.5 -28t96 -78.5t53 -114.5t17.5 -142v-729q0 -162 -75 -262t-232 -100q-154 0 -228.5 100t-74.5 262zM125 350q0 -144 62 -231.5t196 -87.5q136 0 199 87.5t63 231.5v733q0 144 -63 232t-199 88q-134 0 -196 -88 t-62 -232v-733zM246 1718h53l147 -182h-43z" />
<glyph unicode="&#xf3;" d="M80 352v729q0 162 74.5 262.5t228.5 100.5q80 0 140.5 -28t96 -78.5t53 -114.5t17.5 -142v-729q0 -162 -75 -262t-232 -100q-154 0 -228.5 100t-74.5 262zM125 350q0 -144 62 -231.5t196 -87.5q136 0 199 87.5t63 231.5v733q0 144 -63 232t-199 88q-134 0 -196 -88 t-62 -232v-733zM322 1536l147 182h51l-158 -182h-40z" />
<glyph unicode="&#xf4;" d="M80 352v729q0 162 74.5 262.5t228.5 100.5q80 0 140.5 -28t96 -78.5t53 -114.5t17.5 -142v-729q0 -162 -75 -262t-232 -100q-154 0 -228.5 100t-74.5 262zM125 350q0 -144 62 -231.5t196 -87.5q136 0 199 87.5t63 231.5v733q0 144 -63 232t-199 88q-134 0 -196 -88 t-62 -232v-733zM197 1532l168 168h36l170 -168h-51l-137 137l-137 -137h-49z" />
<glyph unicode="&#xf5;" d="M80 352v729q0 162 74.5 262.5t228.5 100.5q80 0 140.5 -28t96 -78.5t53 -114.5t17.5 -142v-729q0 -162 -75 -262t-232 -100q-154 0 -228.5 100t-74.5 262zM125 350q0 -144 62 -231.5t196 -87.5q136 0 199 87.5t63 231.5v733q0 144 -63 232t-199 88q-134 0 -196 -88 t-62 -232v-733zM193 1583q44 80 110 80q39 1 101.5 -37.5t91.5 -36.5q43 2 71 64l31 -19q-37 -79 -98 -82q-37 -2 -99.5 37t-95.5 39q-52 0 -84 -63z" />
<glyph unicode="&#xf6;" d="M80 352v729q0 162 74.5 262.5t228.5 100.5q80 0 140.5 -28t96 -78.5t53 -114.5t17.5 -142v-729q0 -162 -75 -262t-232 -100q-154 0 -228.5 100t-74.5 262zM125 350q0 -144 62 -231.5t196 -87.5q136 0 199 87.5t63 231.5v733q0 144 -63 232t-199 88q-134 0 -196 -88 t-62 -232v-733zM285 1532v166h41v-166h-41zM440 1532v166h43v-166h-43z" />
<glyph unicode="&#xf7;" horiz-adv-x="555" d="M78 700v35h399v-35h-399zM254 455v168h43v-168h-43zM254 813v166h43v-166h-43z" />
<glyph unicode="&#xf8;" d="M80 352v729q0 179 77 271t226 92q152 0 229 -92l35 90l33 -10l-43 -113q53 -89 53 -238v-729q0 -179 -77.5 -270.5t-229.5 -91.5q-148 0 -227 94l-39 -98l-33 10l47 123q-51 88 -51 233zM125 350q0 -100 29 -176l440 1129q-66 100 -211 100q-128 0 -193 -81t-65 -239 v-733zM174 133q64 -102 209 -102q129 0 195.5 80.5t66.5 238.5v733q0 105 -31 181z" />
<glyph unicode="&#xf9;" horiz-adv-x="751" d="M80 354v1080h45v-1082q0 -68 13 -123.5t41.5 -101t78.5 -71t119 -25.5t119 25.5t78.5 71t41.5 101t13 123.5v1082h43v-1080q0 -61 -9.5 -113.5t-32 -99.5t-56 -80t-84 -52t-113.5 -19q-79 0 -138 28.5t-93 80t-50 115t-16 140.5zM236 1702h53l147 -182h-43z" />
<glyph unicode="&#xfa;" horiz-adv-x="751" d="M80 354v1080h45v-1082q0 -68 13 -123.5t41.5 -101t78.5 -71t119 -25.5t119 25.5t78.5 71t41.5 101t13 123.5v1082h43v-1080q0 -61 -9.5 -113.5t-32 -99.5t-56 -80t-84 -52t-113.5 -19q-79 0 -138 28.5t-93 80t-50 115t-16 140.5zM330 1536l149 182h51l-157 -182h-43z" />
<glyph unicode="&#xfb;" horiz-adv-x="751" d="M80 354v1080h45v-1082q0 -68 13 -123.5t41.5 -101t78.5 -71t119 -25.5t119 25.5t78.5 71t41.5 101t13 123.5v1082h43v-1080q0 -61 -9.5 -113.5t-32 -99.5t-56 -80t-84 -52t-113.5 -19q-79 0 -138 28.5t-93 80t-50 115t-16 140.5zM193 1532l167 168h37l170 -168h-51 l-137 137l-139 -137h-47z" />
<glyph unicode="&#xfc;" horiz-adv-x="751" d="M80 354v1080h45v-1082q0 -68 13 -123.5t41.5 -101t78.5 -71t119 -25.5t119 25.5t78.5 71t41.5 101t13 123.5v1082h43v-1080q0 -61 -9.5 -113.5t-32 -99.5t-56 -80t-84 -52t-113.5 -19q-79 0 -138 28.5t-93 80t-50 115t-16 140.5zM276 1528v164h41v-164h-41zM432 1528v164 h43v-164h-43z" />
<glyph unicode="&#xfd;" horiz-adv-x="864" d="M74 1434h45l313 -793l313 793h48l-340 -854v-580h-45v580zM383 1518l149 182h52l-160 -182h-41z" />
<glyph unicode="&#xfe;" horiz-adv-x="772" d="M82 0v1434h45v-283h238q297 0 297 -346v-143q0 -171 -80.5 -253.5t-249.5 -82.5h-205v-326h-45zM127 369h205q150 0 217 68.5t67 221.5v148q0 143 -57 222t-194 79h-238v-739z" />
<glyph unicode="&#xff;" horiz-adv-x="864" d="M74 1434h45l313 -793l313 793h48l-340 -854v-580h-45v580zM332 1520v163h43v-163h-43zM489 1520v163h41v-163h-41z" />
<glyph unicode="&#x152;" horiz-adv-x="1148" d="M80 358v717q0 74 15 136t46.5 113.5t88 80.5t132.5 29h709v-43h-432v-643h362v-41h-362v-664h432v-43h-709q-76 0 -132.5 29t-88 80t-46.5 113t-15 136zM125 356q0 -64 12.5 -117.5t39 -99t74.5 -71t114 -25.5h229v1348h-229q-66 0 -114 -25.5t-74.5 -71t-39 -99.5 t-12.5 -118v-721z" />
<glyph unicode="&#x153;" horiz-adv-x="1148" d="M80 358v717q0 74 15 136t46.5 113.5t88 80.5t132.5 29h709v-43h-432v-643h362v-41h-362v-664h432v-43h-709q-76 0 -132.5 29t-88 80t-46.5 113t-15 136zM125 356q0 -64 12.5 -117.5t39 -99t74.5 -71t114 -25.5h229v1348h-229q-66 0 -114 -25.5t-74.5 -71t-39 -99.5 t-12.5 -118v-721z" />
<glyph unicode="&#x178;" horiz-adv-x="864" d="M74 1434h45l313 -793l313 793h48l-340 -854v-580h-45v580zM332 1520v163h43v-163h-43zM489 1520v163h41v-163h-41z" />
<glyph unicode="&#x2c6;" horiz-adv-x="512" d="M70 1569l168 168h36l168 -168h-49l-137 135l-139 -135h-47z" />
<glyph unicode="&#x2dc;" horiz-adv-x="544" d="M70 1579q42 79 110 82q40 1 103 -38t92 -38q37 2 71 64l29 -19q-37 -79 -98 -82q-37 -1 -99 38t-94 38q-50 0 -86 -63z" />
<glyph unicode="&#x2000;" horiz-adv-x="883" />
<glyph unicode="&#x2001;" horiz-adv-x="1767" />
<glyph unicode="&#x2002;" horiz-adv-x="883" />
<glyph unicode="&#x2003;" horiz-adv-x="1767" />
<glyph unicode="&#x2004;" horiz-adv-x="589" />
<glyph unicode="&#x2005;" horiz-adv-x="441" />
<glyph unicode="&#x2006;" horiz-adv-x="294" />
<glyph unicode="&#x2007;" horiz-adv-x="294" />
<glyph unicode="&#x2008;" horiz-adv-x="220" />
<glyph unicode="&#x2009;" horiz-adv-x="353" />
<glyph unicode="&#x200a;" horiz-adv-x="98" />
<glyph unicode="&#x2010;" horiz-adv-x="524" d="M80 696v41h364v-41h-364z" />
<glyph unicode="&#x2011;" horiz-adv-x="524" d="M80 696v41h364v-41h-364z" />
<glyph unicode="&#x2012;" horiz-adv-x="524" d="M80 696v41h364v-41h-364z" />
<glyph unicode="&#x2013;" horiz-adv-x="790" d="M72 698v39h647v-39h-647z" />
<glyph unicode="&#x2014;" horiz-adv-x="1120" d="M72 698v39h977v-39h-977z" />
<glyph unicode="&#x2018;" horiz-adv-x="235" d="M82 1130v164l45 140h23l-23 -138v-166h-45z" />
<glyph unicode="&#x2019;" horiz-adv-x="235" d="M86 1130l23 138v166h45v-164l-45 -140h-23z" />
<glyph unicode="&#x201a;" horiz-adv-x="235" d="M86 -137l23 137v166h45v-164l-45 -139h-23z" />
<glyph unicode="&#x201c;" horiz-adv-x="342" d="M82 1130v164l45 140h23l-23 -138v-166h-45zM190 1130v164l43 140h25l-25 -138v-166h-43z" />
<glyph unicode="&#x201d;" horiz-adv-x="342" d="M82 1130l24 138v166h44v-164l-44 -140h-24zM190 1130l23 138v166h45v-164l-45 -140h-23z" />
<glyph unicode="&#x201e;" horiz-adv-x="356" d="M86 -137l23 137v166h45v-164l-45 -139h-23zM207 -137l24 137v166h43v-164l-43 -139h-24z" />
<glyph unicode="&#x2022;" horiz-adv-x="436" d="M123 717q0 40 28 68t66 28q40 0 68 -28t28 -68t-28 -68t-68 -28q-38 0 -66 28t-28 68z" />
<glyph unicode="&#x2026;" horiz-adv-x="430" d="M82 0v166h45v-166h-45zM193 0v166h43v-166h-43zM305 0v166h43v-166h-43z" />
<glyph unicode="&#x202f;" horiz-adv-x="353" />
<glyph unicode="&#x2039;" horiz-adv-x="331" d="M76 717l135 493h45l-135 -493l135 -496h-45z" />
<glyph unicode="&#x203a;" horiz-adv-x="331" d="M76 223l135 496l-135 493h43l137 -493l-137 -496h-43z" />
<glyph unicode="&#x205f;" horiz-adv-x="441" />
<glyph unicode="&#x20ac;" horiz-adv-x="815" d="M59 594v33h91v188h-91v33h91v233q0 77 16 140.5t49.5 114.5t91.5 79.5t137 28.5q77 0 134.5 -28.5t91 -79.5t49.5 -114.5t16 -140.5v-67h-43v69q0 67 -13 122.5t-41 101t-77.5 71t-116.5 25.5q-54 0 -97 -17t-71 -46.5t-46.5 -70.5t-26.5 -87t-8 -99v-235h423v-33h-423 v-188h423v-33h-423v-244q0 -67 13 -122t40.5 -100t77.5 -70t118 -25q130 0 189 88t59 229v82h43v-80q0 -60 -9.5 -112.5t-31.5 -99t-55 -79.5t-83 -52t-112 -19q-79 0 -137 28.5t-91.5 80t-49.5 114.5t-16 139v242h-91z" />
<glyph unicode="&#x2122;" horiz-adv-x="1181" d="M33 1401v33h426v-33h-195v-696h-35v696h-196zM561 705v729h49l221 -666l224 666h49v-729h-35v671l-219 -659h-37l-219 659v-671h-33z" />
<glyph unicode="&#x25fc;" horiz-adv-x="1433" d="M0 0v1434h1434v-1434h-1434z" />
</font>
</defs>
</svg>
