<?xml version="1.0" standalone="no"?>
<!DOCTYPE svg PUBLIC "-//W3C//DTD SVG 1.1//EN" "http://www.w3.org/Graphics/SVG/1.1/DTD/svg11.dtd" >
<svg xmlns="http://www.w3.org/2000/svg">
<metadata></metadata>
<defs>
<font id="bebas_neue_regularregular" horiz-adv-x="796" >
<font-face units-per-em="2048" ascent="1536" descent="-512" />
<missing-glyph horiz-adv-x="317" />
<glyph horiz-adv-x="2048" />
<glyph horiz-adv-x="2048" />
<glyph unicode="&#xd;" horiz-adv-x="2048" />
<glyph unicode=" "  horiz-adv-x="317" />
<glyph unicode="&#x09;" horiz-adv-x="317" />
<glyph unicode="&#xa0;" horiz-adv-x="317" />
<glyph unicode="!" horiz-adv-x="323" d="M82 760v674h160v-674l-21 -443h-119zM84 0v199h154v-199h-154z" />
<glyph unicode="&#x22;" horiz-adv-x="542" d="M82 1434h154l-23 -387h-111zM307 1434h154l-23 -387h-110z" />
<glyph unicode="#" horiz-adv-x="843" d="M47 432l12 115h117l45 420h-121l13 114h118l37 353h131l-37 -353h189l37 353h131l-37 -353h115l-13 -114h-114l-43 -420h114l-12 -115h-115l-45 -432h-131l45 432h-186l-47 -432h-131l47 432h-119zM307 547h189l43 420h-187z" />
<glyph unicode="$" horiz-adv-x="792" d="M74 358v88h149v-98q0 -203 168 -203t168 203q0 64 -26.5 118.5t-68.5 95t-93.5 79t-102.5 80t-93 89t-68.5 115.5t-26.5 150q0 151 62.5 241.5t189.5 110.5v115h131v-115q127 -18 190.5 -110.5t63.5 -241.5v-39h-150v49q0 205 -166 205q-163 0 -163 -205q0 -65 26.5 -120 t69 -95t93.5 -78.5t102.5 -80t94 -88.5t69 -115t26.5 -150q0 -149 -64.5 -242.5t-191.5 -111.5v-108h-131v108q-130 18 -194 110.5t-64 243.5z" />
<glyph unicode="%" horiz-adv-x="1261" d="M74 758v452q0 107 52 169.5t153 62.5t152.5 -62.5t51.5 -169.5v-452q0 -108 -51.5 -170t-152.5 -62t-153 62t-52 170zM176 750q0 -129 103 -129q102 0 102 129v467q0 131 -102 131q-103 0 -103 -131v-467zM295 0l565 1434h96l-565 -1434h-96zM778 225v451q0 106 52 167.5 t153 61.5q102 0 153.5 -61t51.5 -168v-451q0 -108 -51 -169.5t-154 -61.5q-101 0 -153 61.5t-52 169.5zM881 217q0 -131 102 -131t102 131v465q0 129 -102 129t-102 -129v-465z" />
<glyph unicode="&#x26;" horiz-adv-x="835" d="M84 315v140q0 110 42 188t128 111q-85 30 -127.5 106t-42.5 187v32q0 172 85 263.5t253 91.5h231v-146h-227q-184 0 -184 -203v-71q0 -91 43.5 -141.5t122.5 -53.5h161v160h158v-160h70v-143h-70v-494q0 -64 5.5 -104t25.5 -78h-162q-25 54 -27 125q-62 -139 -225 -139 q-130 0 -195 86.5t-65 242.5zM242 328q0 -197 166 -197q71 0 114.5 41.5t46.5 122.5v381h-149q-178 -6 -178 -217v-131z" />
<glyph unicode="'" horiz-adv-x="309" d="M78 1434h153l-22 -387h-111z" />
<glyph unicode="(" horiz-adv-x="493" d="M92 315v803q0 165 67 240.5t228 75.5h57v-131h-47q-81 0 -114 -44t-33 -141v-803q0 -97 32.5 -140.5t114.5 -43.5h47v-131h-57q-161 0 -228 75t-67 240z" />
<glyph unicode=")" horiz-adv-x="493" d="M49 0v131h47q82 0 115 43.5t33 140.5v803q0 96 -33.5 140.5t-114.5 44.5h-47v131h57q161 0 228 -75.5t67 -240.5v-803q0 -165 -67 -240t-228 -75h-57z" />
<glyph unicode="*" horiz-adv-x="808" d="M37 1110l39 125l299 -131l-37 323h131l-35 -323l299 129l39 -125l-319 -64l217 -239l-105 -78l-162 285l-159 -285l-105 78l215 239z" />
<glyph unicode="+" horiz-adv-x="802" d="M61 659v115h283v285h115v-285h282v-115h-282v-288h-115v288h-283z" />
<glyph unicode="," horiz-adv-x="327" d="M92 0v199h154v-185l-80 -194h-66l52 180h-60z" />
<glyph unicode="-" horiz-adv-x="542" d="M76 645v143h391v-143h-391z" />
<glyph unicode="." horiz-adv-x="317" d="M82 0v199h154v-199h-154z" />
<glyph unicode="/" horiz-adv-x="770" d="M33 0l565 1434h139l-565 -1434h-139z" />
<glyph unicode="0" d="M70 348v739q0 169 83 265t244 96q162 0 246 -96t84 -265v-739q0 -169 -84 -265.5t-246 -96.5q-160 0 -243.5 96.5t-83.5 265.5zM227 338q0 -99 42.5 -153t127.5 -54q86 0 128 54t42 153v758q0 209 -170 209q-85 0 -127.5 -54.5t-42.5 -154.5v-758z" />
<glyph unicode="1" horiz-adv-x="692" d="M176 1112v131q56 2 98 17.5t70 43.5t45 58t33 72h110v-1434h-157v1174q-90 -56 -199 -62z" />
<glyph unicode="2" horiz-adv-x="792" d="M82 0v123q0 94 26.5 177t69.5 145.5t94.5 120.5t103.5 114t95 113.5t69.5 131t26.5 154.5q0 113 -40.5 169.5t-127.5 56.5q-85 0 -126.5 -56t-41.5 -155v-127h-149v116q0 170 80 267.5t241 97.5q162 0 243 -96.5t81 -266.5q0 -88 -27 -169t-69.5 -144.5t-94.5 -124 t-103.5 -117t-94.5 -111.5t-70.5 -119.5t-27.5 -131.5v-23h471v-145h-629z" />
<glyph unicode="3" horiz-adv-x="792" d="M74 348v98h149v-108q0 -99 42 -153t126 -54q168 0 168 221v111q0 105 -44.5 157.5t-135.5 55.5h-86v143h94q81 3 126.5 54t45.5 143v65q0 224 -168 224q-84 0 -126 -55t-42 -154v-74h-149v65q0 169 80.5 265t240.5 96q161 0 242.5 -96t81.5 -265v-36q0 -111 -44 -187 t-130 -108q174 -65 174 -297v-111q0 -170 -81.5 -266t-242.5 -96q-160 0 -240.5 96t-80.5 266z" />
<glyph unicode="4" horiz-adv-x="819" d="M45 289v145l444 1000h175v-1000h114v-145h-114v-289h-156v289h-463zM193 434h315v701z" />
<glyph unicode="5" horiz-adv-x="792" d="M76 348v96h149v-106q0 -99 42 -153t126 -54t126 54t42 153v278q0 99 -42 153t-126 54q-141 0 -162 -153v-33h-149l39 797h565v-144h-422l-22 -440q69 119 213 119q134 0 200 -90t66 -250v-281q0 -169 -82 -265.5t-242 -96.5t-240.5 96t-80.5 266z" />
<glyph unicode="6" d="M72 348v731q0 176 81.5 272.5t247.5 96.5q162 0 243 -94.5t81 -263.5v-27h-150v37q0 205 -169 205q-90 0 -132.5 -57.5t-42.5 -174.5v-321q61 153 232 153q134 0 200 -89.5t66 -250.5v-217q0 -169 -83.5 -265.5t-244.5 -96.5q-162 0 -245.5 96.5t-83.5 265.5zM231 338 q0 -99 42 -153t128 -54q85 0 127.5 54t42.5 153v215q0 99 -42.5 153t-127.5 54q-86 0 -128 -54t-42 -153v-215z" />
<glyph unicode="7" horiz-adv-x="792" d="M72 1290v144h649v-140l-369 -1294h-159l366 1290h-487z" />
<glyph unicode="8" horiz-adv-x="802" d="M63 344v107q0 236 166 303q-166 64 -166 295v45q0 168 87 261t251 93t251 -93t87 -261v-45q0 -233 -164 -295q164 -65 164 -303v-107q0 -169 -86.5 -263.5t-251.5 -94.5t-251.5 94.5t-86.5 263.5zM221 348q0 -217 180 -217q178 0 181 217v121q0 207 -181 207 q-180 0 -180 -207v-121zM221 1020q0 -201 180 -201q181 0 181 201v70q0 108 -47 161.5t-134 53.5t-133.5 -53.5t-46.5 -161.5v-70z" />
<glyph unicode="9" d="M68 868v219q0 169 82.5 265t244.5 96t246 -96t84 -265v-731q0 -176 -82.5 -273t-249.5 -97q-160 0 -241.5 95.5t-81.5 264.5v27h149v-37q0 -99 42.5 -152t127.5 -53q91 0 133.5 56.5t42.5 172.5v322q-60 -152 -231 -152q-134 0 -200 89t-66 249zM225 881q0 -99 42.5 -153 t127.5 -54q86 0 128 54t42 153v215q0 207 -170 207q-85 0 -127.5 -53.5t-42.5 -153.5v-215z" />
<glyph unicode=":" horiz-adv-x="317" d="M82 0v199h154v-199h-154zM82 780v199h154v-199h-154z" />
<glyph unicode=";" horiz-adv-x="327" d="M92 0v199h154v-185l-80 -194h-66l52 180h-60zM92 780v199h154v-199h-154z" />
<glyph unicode="&#x3c;" horiz-adv-x="784" d="M68 659v115l634 260v-116l-485 -201l485 -201v-117z" />
<glyph unicode="=" horiz-adv-x="716" d="M76 528v115h565v-115h-565zM76 819v115h565v-115h-565z" />
<glyph unicode="&#x3e;" horiz-adv-x="784" d="M82 399v117l485 201l-485 201v116l635 -260v-115z" />
<glyph unicode="?" horiz-adv-x="739" d="M55 967v116q0 169 79.5 267t238.5 98q161 0 240 -96.5t79 -266.5q0 -96 -29.5 -176.5t-71 -138t-83 -111t-71 -120.5t-29.5 -142q0 -36 10 -78h-144q-10 42 -10 82q0 86 27.5 158.5t67 126.5t79 109t67 131.5t27.5 167.5q0 211 -163 211q-164 0 -164 -211v-127h-150z M268 0v199h152v-199h-152z" />
<glyph unicode="@" horiz-adv-x="1411" d="M59 590q0 148 28 282t87.5 250.5t145.5 201t209.5 133t271.5 48.5q121 0 216 -29t159 -81t105.5 -126.5t60 -162t18.5 -191.5q0 -147 -32 -270t-84.5 -202.5t-119.5 -123t-139 -43.5q-74 0 -116 36.5t-46 103.5q-65 -143 -211 -140q-111 1 -156.5 85.5t-31.5 228.5 l22 205q14 143 78.5 222.5t175.5 76.5q137 0 177 -136l14 127h139l-61 -587q-5 -39 9 -63.5t50 -24.5q56 0 99 49t66 127t34 161t10 164q0 222 -108.5 345.5t-331.5 123.5q-121 0 -219.5 -39t-169 -109.5t-118 -170.5t-70.5 -220t-23 -259q0 -272 128.5 -420t389.5 -148 q237 0 403 129l-12 -141q-161 -111 -399 -111q-166 0 -291 49.5t-202.5 142t-116 219.5t-38.5 288zM565 596q-9 -83 19.5 -133t97.5 -51t109 47.5t49 134.5l20 197q8 74 -22.5 118.5t-96.5 44.5q-69 1 -108.5 -44t-48.5 -130z" />
<glyph unicode="A" horiz-adv-x="864" d="M41 0l274 1434h232l274 -1434h-159l-56 289h-362l-56 -289h-147zM264 426h320l-162 827z" />
<glyph unicode="B" horiz-adv-x="802" d="M82 0v1434h321q164 0 238 -78.5t74 -239.5v-67q0 -118 -38.5 -187.5t-129.5 -97.5q192 -54 192 -307v-121q0 -164 -81 -250t-246 -86h-330zM242 145h170q88 0 129 47.5t41 147.5v127q0 117 -47.5 165t-153.5 48h-139v-535zM242 825h123q100 0 146 41.5t46 149.5v84 q0 97 -36.5 142.5t-121.5 45.5h-157v-463z" />
<glyph unicode="C" horiz-adv-x="778" d="M70 346v741q0 168 80.5 264.5t240.5 96.5q161 0 242.5 -96.5t81.5 -264.5v-129h-152v138q0 207 -168 207q-84 0 -126 -54t-42 -153v-758q0 -99 42 -153t126 -54q168 0 168 207v186h152v-178q0 -168 -81.5 -264t-242.5 -96q-160 0 -240.5 96t-80.5 264z" />
<glyph unicode="D" horiz-adv-x="811" d="M82 0v1434h336q163 0 244 -93.5t81 -263.5v-723q0 -169 -81 -261.5t-244 -92.5h-336zM242 145h174q170 0 170 203v737q0 203 -172 203h-172v-1143z" />
<glyph unicode="E" horiz-adv-x="737" d="M82 0v1434h590v-146h-430v-489h350v-144h-350v-510h430v-145h-590z" />
<glyph unicode="F" horiz-adv-x="696" d="M82 0v1434h569v-146h-409v-522h329v-145h-329v-621h-160z" />
<glyph unicode="G" horiz-adv-x="784" d="M70 346v741q0 168 80.5 264.5t240.5 96.5q161 0 242.5 -96.5t81.5 -264.5v-122h-152v131q0 207 -168 207q-84 0 -126 -54t-42 -153v-758q0 -99 42 -153t126 -54q168 0 168 207v287h-147v143h299v-422q0 -168 -81.5 -264t-242.5 -96q-160 0 -240.5 96t-80.5 264z" />
<glyph unicode="H" horiz-adv-x="835" d="M82 0v1434h160v-646h352v646h160v-1434h-160v645h-352v-645h-160z" />
<glyph unicode="I" horiz-adv-x="323" d="M82 0v1434h160v-1434h-160z" />
<glyph unicode="J" horiz-adv-x="522" d="M41 0v145q27 -2 80 -2q83 5 125.5 51t42.5 150v1090h157v-1080q0 -349 -305 -356q-82 0 -100 2z" />
<glyph unicode="K" horiz-adv-x="837" d="M82 0v1434h160v-693l381 693h161l-362 -654l375 -780h-164l-307 623l-84 -142v-481h-160z" />
<glyph unicode="L" horiz-adv-x="690" d="M82 0v1434h160v-1289h409v-145h-569z" />
<glyph unicode="M" horiz-adv-x="1071" d="M80 0v1434h223l236 -1145l227 1145h223v-1434h-151v1153l-228 -1151h-153l-238 1141v-1143h-139z" />
<glyph unicode="N" horiz-adv-x="837" d="M80 0v1434h203l331 -1037v1037h142v-1434h-166l-367 1159v-1159h-143z" />
<glyph unicode="O" d="M70 346v741q0 169 83 265t244 96q162 0 246 -96t84 -265v-741q0 -167 -84 -263.5t-246 -96.5q-160 0 -243.5 96.5t-83.5 263.5zM227 338q0 -100 42.5 -153.5t127.5 -53.5q170 0 170 207v758q0 99 -42 153t-128 54q-85 0 -127.5 -54t-42.5 -153v-758z" />
<glyph unicode="P" horiz-adv-x="765" d="M82 0v1434h313q164 0 243 -91.5t79 -259.5v-172q0 -346 -334 -346h-141v-565h-160zM242 709h141q91 0 133.5 45.5t42.5 146.5v191q0 100 -39 148t-125 48h-153v-579z" />
<glyph unicode="Q" horiz-adv-x="823" d="M70 346v741q0 169 83 265t244 96q162 0 246 -96t84 -265v-741q0 -138 -55 -223q12 -25 32.5 -35t55.5 -10h20v-141h-26q-132 0 -183 92q-72 -43 -174 -43q-160 0 -243.5 96.5t-83.5 263.5zM227 338q0 -100 42.5 -153.5t127.5 -53.5q170 0 170 207v758q0 99 -42 153 t-128 54q-85 0 -127.5 -54t-42.5 -153v-758z" />
<glyph unicode="R" horiz-adv-x="806" d="M82 0v1434h319q166 0 243 -82.5t77 -245.5v-117q0 -239 -178 -295q95 -28 137.5 -103.5t42.5 -195.5v-223q0 -119 29 -172h-162q-27 62 -27 174v225q0 117 -52 165t-157 48h-112v-612h-160zM242 758h118q102 0 152.5 42.5t50.5 153.5v138q0 99 -39.5 147.5t-126.5 48.5 h-155v-530z" />
<glyph unicode="S" horiz-adv-x="761" d="M59 344v82h150v-90q0 -205 168 -205t168 205q0 64 -26.5 120t-68.5 99t-93.5 84.5t-102.5 86t-93 94t-68.5 119t-26.5 151.5q0 170 79.5 264t237.5 94q159 0 239 -95t80 -263v-39h-151v47q0 205 -164 205t-164 -203q0 -65 26.5 -121.5t69 -99.5t94 -84.5t103 -86t94 -94 t69 -119t26.5 -151.5q0 -167 -82 -262.5t-242 -95.5t-241 95t-81 263z" />
<glyph unicode="T" horiz-adv-x="743" d="M27 1288v146h688v-146h-264v-1288h-160v1288h-264z" />
<glyph unicode="U" horiz-adv-x="792" d="M76 346v1088h157v-1096q0 -207 168 -207q166 0 166 207v1096h150v-1088q0 -169 -80.5 -265.5t-241.5 -96.5q-159 0 -239 96.5t-80 265.5z" />
<glyph unicode="V" horiz-adv-x="856" d="M41 1434h162l233 -1248l232 1248h147l-268 -1434h-236z" />
<glyph unicode="W" horiz-adv-x="1193" d="M47 1434h156l168 -1221l159 1219h158l158 -1221l162 1223h139l-195 -1434h-211l-137 973l-141 -973h-219z" />
<glyph unicode="X" horiz-adv-x="890" d="M47 0l289 739l-270 695h165l222 -574l223 574h149l-268 -695l287 -739h-168l-238 618l-239 -618h-152z" />
<glyph unicode="Y" horiz-adv-x="831" d="M33 1434h166l223 -705l225 705h152l-305 -920v-514h-158v514z" />
<glyph unicode="Z" horiz-adv-x="776" d="M59 0v143l492 1145h-469v146h633v-144l-494 -1145h490v-145h-652z" />
<glyph unicode="[" horiz-adv-x="495" d="M92 0v1434h346v-131h-188v-1172h188v-131h-346z" />
<glyph unicode="\" horiz-adv-x="770" d="M33 1434h139l565 -1434h-139z" />
<glyph unicode="]" horiz-adv-x="495" d="M57 0v131h187v1172h-187v131h346v-1434h-346z" />
<glyph unicode="^" horiz-adv-x="825" d="M55 799l299 635h117l299 -635h-129l-229 489l-228 -489h-129z" />
<glyph unicode="_" horiz-adv-x="1038" d="M27 -20h977v-117h-977v117z" />
<glyph unicode="`" horiz-adv-x="456" d="M88 1737h166l141 -211h-116z" />
<glyph unicode="a" horiz-adv-x="864" d="M41 0l274 1434h232l274 -1434h-159l-56 289h-362l-56 -289h-147zM264 426h320l-162 827z" />
<glyph unicode="b" horiz-adv-x="802" d="M82 0v1434h321q164 0 238 -78.5t74 -239.5v-67q0 -118 -38.5 -187.5t-129.5 -97.5q192 -54 192 -307v-121q0 -164 -81 -250t-246 -86h-330zM242 145h170q88 0 129 47.5t41 147.5v127q0 117 -47.5 165t-153.5 48h-139v-535zM242 825h123q100 0 146 41.5t46 149.5v84 q0 97 -36.5 142.5t-121.5 45.5h-157v-463z" />
<glyph unicode="c" horiz-adv-x="778" d="M70 346v741q0 168 80.5 264.5t240.5 96.5q161 0 242.5 -96.5t81.5 -264.5v-129h-152v138q0 207 -168 207q-84 0 -126 -54t-42 -153v-758q0 -99 42 -153t126 -54q168 0 168 207v186h152v-178q0 -168 -81.5 -264t-242.5 -96q-160 0 -240.5 96t-80.5 264z" />
<glyph unicode="d" horiz-adv-x="811" d="M82 0v1434h336q163 0 244 -93.5t81 -263.5v-723q0 -169 -81 -261.5t-244 -92.5h-336zM242 145h174q170 0 170 203v737q0 203 -172 203h-172v-1143z" />
<glyph unicode="e" horiz-adv-x="737" d="M82 0v1434h590v-146h-430v-489h350v-144h-350v-510h430v-145h-590z" />
<glyph unicode="f" horiz-adv-x="696" d="M82 0v1434h569v-146h-409v-522h329v-145h-329v-621h-160z" />
<glyph unicode="g" horiz-adv-x="784" d="M70 346v741q0 168 80.5 264.5t240.5 96.5q161 0 242.5 -96.5t81.5 -264.5v-122h-152v131q0 207 -168 207q-84 0 -126 -54t-42 -153v-758q0 -99 42 -153t126 -54q168 0 168 207v287h-147v143h299v-422q0 -168 -81.5 -264t-242.5 -96q-160 0 -240.5 96t-80.5 264z" />
<glyph unicode="h" horiz-adv-x="835" d="M82 0v1434h160v-646h352v646h160v-1434h-160v645h-352v-645h-160z" />
<glyph unicode="i" horiz-adv-x="323" d="M82 0v1434h160v-1434h-160z" />
<glyph unicode="j" horiz-adv-x="522" d="M41 0v145q27 -2 80 -2q83 5 125.5 51t42.5 150v1090h157v-1080q0 -349 -305 -356q-82 0 -100 2z" />
<glyph unicode="k" horiz-adv-x="837" d="M82 0v1434h160v-693l381 693h161l-362 -654l375 -780h-164l-307 623l-84 -142v-481h-160z" />
<glyph unicode="l" horiz-adv-x="690" d="M82 0v1434h160v-1289h409v-145h-569z" />
<glyph unicode="m" horiz-adv-x="1071" d="M80 0v1434h223l236 -1145l227 1145h223v-1434h-151v1153l-228 -1151h-153l-238 1141v-1143h-139z" />
<glyph unicode="n" horiz-adv-x="837" d="M80 0v1434h203l331 -1037v1037h142v-1434h-166l-367 1159v-1159h-143z" />
<glyph unicode="o" d="M70 346v741q0 169 83 265t244 96q162 0 246 -96t84 -265v-741q0 -167 -84 -263.5t-246 -96.5q-160 0 -243.5 96.5t-83.5 263.5zM227 338q0 -100 42.5 -153.5t127.5 -53.5q170 0 170 207v758q0 99 -42 153t-128 54q-85 0 -127.5 -54t-42.5 -153v-758z" />
<glyph unicode="p" horiz-adv-x="759" d="M82 0v1434h313q164 0 243 -91.5t79 -259.5v-172q0 -346 -334 -346h-141v-565h-160zM242 709h141q91 0 133.5 45.5t42.5 146.5v191q0 100 -39 148t-125 48h-153v-579z" />
<glyph unicode="q" horiz-adv-x="802" d="M70 346v741q0 169 83 265t244 96q162 0 246 -96t84 -265v-741q0 -138 -55 -223q12 -25 32.5 -35t55.5 -10h20v-141h-26q-132 0 -183 92q-72 -43 -174 -43q-160 0 -243.5 96.5t-83.5 263.5zM227 338q0 -100 42.5 -153.5t127.5 -53.5q170 0 170 207v758q0 99 -42 153 t-128 54q-85 0 -127.5 -54t-42.5 -153v-758z" />
<glyph unicode="r" horiz-adv-x="806" d="M82 0v1434h319q166 0 243 -82.5t77 -245.5v-117q0 -239 -178 -295q95 -28 137.5 -103.5t42.5 -195.5v-223q0 -119 29 -172h-162q-27 62 -27 174v225q0 117 -52 165t-157 48h-112v-612h-160zM242 758h118q102 0 152.5 42.5t50.5 153.5v138q0 99 -39.5 147.5t-126.5 48.5 h-155v-530z" />
<glyph unicode="s" horiz-adv-x="761" d="M59 344v82h150v-90q0 -205 168 -205t168 205q0 64 -26.5 120t-68.5 99t-93.5 84.5t-102.5 86t-93 94t-68.5 119t-26.5 151.5q0 170 79.5 264t237.5 94q159 0 239 -95t80 -263v-39h-151v47q0 205 -164 205t-164 -203q0 -65 26.5 -121.5t69 -99.5t94 -84.5t103 -86t94 -94 t69 -119t26.5 -151.5q0 -167 -82 -262.5t-242 -95.5t-241 95t-81 263z" />
<glyph unicode="t" horiz-adv-x="737" d="M25 1288v146h686v-146h-265v-1288h-157v1288h-264z" />
<glyph unicode="u" horiz-adv-x="792" d="M76 346v1088h157v-1096q0 -207 168 -207q166 0 166 207v1096h150v-1088q0 -169 -80.5 -265.5t-241.5 -96.5q-159 0 -239 96.5t-80 265.5z" />
<glyph unicode="v" horiz-adv-x="856" d="M41 1434h162l233 -1248l232 1248h147l-268 -1434h-236z" />
<glyph unicode="w" horiz-adv-x="1193" d="M47 1434h156l168 -1221l159 1219h158l158 -1221l162 1223h139l-195 -1434h-211l-137 973l-141 -973h-219z" />
<glyph unicode="x" horiz-adv-x="890" d="M47 0l289 739l-270 695h165l222 -574l223 574h149l-268 -695l287 -739h-168l-238 618l-239 -618h-152z" />
<glyph unicode="y" horiz-adv-x="831" d="M33 1434h166l223 -705l225 705h152l-305 -920v-514h-158v514z" />
<glyph unicode="z" horiz-adv-x="776" d="M59 0v143l492 1145h-469v146h633v-144l-494 -1145h490v-145h-652z" />
<glyph unicode="{" horiz-adv-x="526" d="M41 649v135q71 6 94.5 38.5t28.5 113.5l14 278q16 220 205 220h94v-131h-39q-62 0 -86.5 -36.5t-29.5 -121.5l-13 -232q-2 -36 -7.5 -63.5t-19 -55t-40.5 -47.5t-66 -30q74 -20 101.5 -70t31.5 -127l13 -231q5 -85 29.5 -121.5t86.5 -36.5h39v-131h-94q-189 0 -205 219 l-14 279q-5 80 -28.5 112.5t-94.5 38.5z" />
<glyph unicode="|" horiz-adv-x="763" d="M324 -90v1614h131v-1614h-131z" />
<glyph unicode="}" horiz-adv-x="526" d="M49 0v131h39q62 0 87 36.5t30 121.5l12 231q2 37 7.5 64t18.5 55t40 48t67 30q-32 8 -56 23.5t-38 33t-22.5 42t-12 46.5t-4.5 51l-12 232q-5 85 -30 121.5t-87 36.5h-39v131h94q94 0 145.5 -57t57.5 -163l16 -278q5 -81 27.5 -113.5t93.5 -38.5v-135q-71 -6 -93.5 -38 t-27.5 -113l-16 -279q-6 -106 -57.5 -162.5t-145.5 -56.5h-94z" />
<glyph unicode="~" horiz-adv-x="811" d="M37 678q59 88 109.5 125t109.5 37q39 1 84 -19t78.5 -43.5t73.5 -43.5t71 -19q36 0 63.5 25t69.5 87l78 -77q-56 -86 -104.5 -121t-106.5 -37q-39 -1 -83 19t-77.5 44t-74 44t-72.5 20q-39 0 -68.5 -25.5t-72.5 -89.5z" />
<glyph unicode="&#xa1;" horiz-adv-x="323" d="M82 0v633l20 483h119l21 -483v-633h-160zM84 1237v197h154v-197h-154z" />
<glyph unicode="&#xa2;" horiz-adv-x="792" d="M76 436v561q0 150 63.5 243.5t190.5 111.5v102h131v-100q130 -17 195 -108.5t65 -241.5v-82h-150v90q0 202 -168 202q-167 0 -167 -206v-582q0 -205 167 -205q168 0 168 205v137h150v-127q0 -152 -65 -244.5t-195 -109.5v-102h-131v102q-127 18 -190.5 111.5t-63.5 242.5 z" />
<glyph unicode="&#xa3;" horiz-adv-x="800" d="M68 0v139q90 36 147.5 121.5t50.5 200.5h-170v125h150q-15 48 -45 110t-52.5 107.5t-40.5 120.5t-18 161q0 170 79.5 266.5t240.5 96.5q159 0 238 -98t79 -267v-114h-152v123q0 211 -161 211q-164 0 -164 -209q0 -86 17.5 -162t39.5 -122t50 -109.5t42 -114.5h275v-125 h-264q2 -85 -31.5 -160t-110.5 -156h453v-145h-653z" />
<glyph unicode="&#xa4;" horiz-adv-x="761" d="M72 471l104 104q-45 61 -45 142q0 82 45 139l-104 107l63 63l107 -104q61 45 139 45q77 0 141 -45l105 104l65 -63l-106 -107q45 -61 45 -139q0 -81 -45 -142l106 -104l-65 -63l-105 102q-62 -43 -141 -43q-76 0 -141 43l-105 -102zM229 717q0 -63 44.5 -107.5 t107.5 -44.5t108.5 44.5t45.5 107.5t-45.5 107t-108.5 44t-107.5 -44t-44.5 -107z" />
<glyph unicode="&#xa5;" horiz-adv-x="847" d="M37 1434h166l227 -701l229 701h152l-297 -875h195v-84h-205v-121h205v-82h-205v-272h-160v272h-205v82h205v121h-205v84h193z" />
<glyph unicode="&#xa6;" horiz-adv-x="765" d="M324 -90v684h131v-684h-131zM324 840v684h131v-684h-131z" />
<glyph unicode="&#xa7;" horiz-adv-x="792" d="M76 127v84h151v-64q0 -73 46.5 -115t119.5 -42q69 0 116 37.5t48 105.5q1 43 -25 76t-68.5 56.5t-94 45.5t-103 50.5t-94 64t-68.5 92.5t-26 131q0 87 48.5 154t129.5 104q-85 49 -132.5 110t-47.5 159q2 124 88 198t233 74q146 0 231 -73.5t85 -196.5v-56h-152v35 q0 71 -44.5 114.5t-115.5 43.5q-73 0 -119 -37.5t-46 -108.5q-1 -42 25 -75t68.5 -56t93.5 -45.5t102.5 -51t94 -64.5t69 -94t26.5 -132q0 -86 -45.5 -153.5t-124.5 -106.5q81 -44 127 -106t45 -158q-2 -120 -90 -195t-230 -75q-149 0 -235 72.5t-86 197.5zM229 655 q-1 -40 13.5 -71.5t45 -55.5t56.5 -39t68 -34q66 15 108.5 67.5t42.5 124.5q0 70 -45 114.5t-127 82.5q-68 -11 -115 -64t-47 -125z" />
<glyph unicode="&#xa8;" horiz-adv-x="448" d="M72 1518v184h139v-184h-139zM238 1518v184h139v-184h-139z" />
<glyph unicode="&#xa9;" horiz-adv-x="1519" d="M55 717q0 206 91 372t252.5 259.5t361.5 93.5q150 0 281 -55t223.5 -150.5t146 -230.5t53.5 -289t-53.5 -289t-146 -230.5t-223.5 -150.5t-281 -55q-200 0 -361.5 93.5t-252.5 259.5t-91 372zM160 717q0 -176 77.5 -318.5t215 -223.5t307.5 -81t307.5 81t215 223.5 t77.5 318.5t-77.5 318t-215 223t-307.5 81t-307.5 -81t-215 -223t-77.5 -318zM528 518v395q0 119 56 186.5t168 67.5q111 0 167 -67.5t56 -186.5v-61h-107v70q0 141 -114 141q-57 0 -86 -37t-29 -104v-410q0 -67 29 -104t86 -37q114 0 114 141v100h107v-94q0 -118 -56 -185 t-167 -67q-112 0 -168 67t-56 185z" />
<glyph unicode="&#xaa;" horiz-adv-x="563" d="M68 877v8q0 57 17.5 100t46 69.5t70.5 43.5t85.5 24t97.5 8v103q0 117 -88 117q-102 0 -102 -125v-37h-97v31q0 106 50 165.5t153 59.5q186 0 186 -225v-535h-88l-6 113q-40 -123 -160 -123q-82 0 -123.5 52.5t-41.5 150.5zM70 465v102h417v-102h-417zM172 885 q0 -115 100 -115q51 0 79 32t34 89v162q-101 -5 -157 -44t-56 -110v-14z" />
<glyph unicode="&#xab;" horiz-adv-x="655" d="M49 719l129 514h146l-129 -514l129 -535h-146zM332 719l131 514h143l-129 -514l129 -535h-143z" />
<glyph unicode="&#xac;" horiz-adv-x="794" d="M61 659v115h672v-391h-115v276h-557z" />
<glyph unicode="&#xad;" horiz-adv-x="542" d="M76 645v143h391v-143h-391z" />
<glyph unicode="&#xae;" horiz-adv-x="1519" d="M55 717q0 206 91 372t252.5 259.5t361.5 93.5q150 0 281 -55t223.5 -150.5t146 -230.5t53.5 -289t-53.5 -289t-146 -230.5t-223.5 -150.5t-281 -55q-200 0 -361.5 93.5t-252.5 259.5t-91 372zM160 717q0 -176 77.5 -318.5t215 -223.5t307.5 -81t307.5 81t215 223.5 t77.5 318.5t-77.5 318t-215 223t-307.5 81t-307.5 -81t-215 -223t-77.5 -318zM547 279v876h223q115 0 169 -57.5t54 -171.5v-21q0 -163 -119 -207q119 -40 119 -204v-95q0 -80 23 -120h-117q-16 39 -16 120v95q0 82 -37.5 114.5t-112.5 32.5h-76v-362h-110zM657 745h93 q66 0 98.5 31t32.5 105v32q0 70 -27 105t-90 35h-107v-308z" />
<glyph unicode="&#xaf;" horiz-adv-x="514" d="M41 1524v114h434v-114h-434z" />
<glyph unicode="&#xb0;" horiz-adv-x="448" d="M47 1274q0 73 52 124.5t124 51.5q74 0 126 -51.5t52 -124.5t-52 -124.5t-126 -51.5q-72 0 -124 51.5t-52 124.5zM123 1274q0 -41 29.5 -70.5t70.5 -29.5q42 0 72.5 29.5t30.5 70.5q0 42 -30.5 71t-72.5 29t-71 -29t-29 -71z" />
<glyph unicode="&#xb1;" horiz-adv-x="802" d="M76 371v114h268v203h-268v115h268v256h115v-256h268v-115h-268v-203h268v-114h-651z" />
<glyph unicode="&#xb2;" horiz-adv-x="563" d="M84 719v78q0 68 23 128.5t57 102.5t74.5 87t74.5 84t57 93.5t23 114.5q0 139 -106 139q-105 0 -105 -133v-78h-98v72q0 108 51.5 170.5t155.5 62.5q103 0 154 -61.5t51 -169.5q0 -65 -22.5 -124.5t-57 -102.5t-74 -88.5t-74 -83.5t-58 -87t-24.5 -98v-12h299v-94h-401z " />
<glyph unicode="&#xb3;" horiz-adv-x="563" d="M76 940v61h98v-69q0 -129 105 -129q106 0 106 139v70q0 133 -113 133h-55v94h59q50 0 79.5 33.5t29.5 91.5v41q0 139 -106 139q-105 0 -105 -129v-47h-98v39q0 109 52 170t155 61q102 0 153 -61t51 -170v-23q0 -143 -106 -186q106 -40 106 -188v-70q0 -109 -51 -170 t-153 -61q-103 0 -155 61t-52 170z" />
<glyph unicode="&#xb4;" horiz-adv-x="456" d="M63 1526l144 211h158l-191 -211h-111z" />
<glyph unicode="&#xb5;" horiz-adv-x="815" d="M80 -188v1212h160v-684q0 -99 41.5 -153t124.5 -54t124 54t41 153v684h160v-1024h-145v147q-28 -74 -84 -117.5t-123 -43.5q-52 0 -87.5 25.5t-51.5 68.5v-268h-160z" />
<glyph unicode="&#xb6;" horiz-adv-x="811" d="M39 911v176q0 347 309 347h369v-1563h-117v1446h-184v-1446h-117l2 696q-131 3 -196.5 93.5t-65.5 250.5z" />
<glyph unicode="&#xb7;" horiz-adv-x="317" d="M82 627v198h154v-198h-154z" />
<glyph unicode="&#xb8;" horiz-adv-x="509" d="M63 -168h109v-14q0 -31 23.5 -45.5t56.5 -16.5q35 0 58.5 17t23.5 51q0 65 -96 65h-17v129h72v-98q74 0 112.5 -22.5t38.5 -77.5q0 -38 -15 -63.5t-43 -38.5t-59.5 -18t-74.5 -5q-84 0 -136.5 28.5t-52.5 92.5v16z" />
<glyph unicode="&#xb9;" horiz-adv-x="387" d="M61 1434v75q67 1 100.5 31.5t55.5 87.5h72v-909h-103v751q-52 -30 -125 -36z" />
<glyph unicode="&#xba;" horiz-adv-x="567" d="M74 901v313q0 106 53 168t156 62t157 -62t54 -168v-313q0 -106 -54 -167.5t-157 -61.5t-156 61.5t-53 167.5zM76 467v102h418v-102h-418zM176 895q0 -129 107 -129q106 0 106 129v326q0 129 -106 129q-107 0 -107 -129v-326z" />
<glyph unicode="&#xbb;" horiz-adv-x="655" d="M49 184l129 535l-129 514h144l131 -514l-131 -535h-144zM332 184l129 535l-129 514h143l131 -514l-131 -535h-143z" />
<glyph unicode="&#xbc;" horiz-adv-x="1181" d="M117 1239v76q67 1 99.5 31.5t55.5 87.5h72v-910h-102v752q-54 -31 -125 -37zM279 0l565 1434h96l-565 -1434h-96zM662 180v96l280 633h115v-633h69v-96h-69v-180h-103v180h-292zM756 276h198v435z" />
<glyph unicode="&#xbd;" horiz-adv-x="1226" d="M117 1239v76q67 1 99.5 31.5t55.5 87.5h72v-910h-102v752q-54 -31 -125 -37zM238 0l565 1434h96l-565 -1434h-96zM748 0v78q0 68 23 128.5t57 102.5t74.5 87t74.5 84t57 93.5t23 114.5q0 139 -107 139q-104 0 -104 -133v-78h-98v72q0 109 51 171.5t155 62.5 q103 0 154 -62t51 -170q0 -76 -31.5 -144t-76.5 -119t-90 -99t-77.5 -104.5t-33.5 -114.5v-15h299v-94h-401z" />
<glyph unicode="&#xbe;" horiz-adv-x="1232" d="M76 745v62h98v-70q0 -129 105 -129q106 0 106 140v69q0 133 -113 133h-55v94h59q50 0 79.5 33.5t29.5 91.5v41q0 140 -106 140q-105 0 -105 -129v-47h-98v38q0 109 52 170.5t155 61.5q102 0 153 -61.5t51 -170.5v-22q0 -143 -106 -186q106 -40 106 -189v-70 q0 -109 -51 -170t-153 -61q-103 0 -155 61t-52 170zM344 0l565 1434h97l-566 -1434h-96zM713 180v96l280 633h115v-633h70v-96h-70v-180h-102v180h-293zM807 276h199v435z" />
<glyph unicode="&#xbf;" horiz-adv-x="739" d="M49 348q0 81 21 152t52.5 119.5t68 99.5t68 93.5t52.5 101t21 122.5q0 45 -8 78h141q12 -38 12 -82q0 -73 -20.5 -137t-50.5 -108t-65 -94t-64.5 -95.5t-49.5 -112.5t-20 -145q0 -211 164 -211t164 211v127h151v-117q0 -169 -79.5 -266.5t-239.5 -97.5q-161 0 -239.5 96 t-78.5 266zM319 1235v199h154v-199h-154z" />
<glyph unicode="&#xc0;" horiz-adv-x="864" d="M41 0l274 1434h232l274 -1434h-159l-56 289h-362l-56 -289h-147zM225 1720h164l143 -211h-116zM264 426h320l-162 827z" />
<glyph unicode="&#xc1;" horiz-adv-x="864" d="M41 0l274 1434h232l274 -1434h-159l-56 289h-362l-56 -289h-147zM264 426h320l-162 827zM324 1509l143 211h158l-189 -211h-112z" />
<glyph unicode="&#xc2;" horiz-adv-x="864" d="M41 0l274 1434h232l274 -1434h-159l-56 289h-362l-56 -289h-147zM182 1509l176 205h144l176 -205h-139l-109 121l-108 -121h-140zM264 426h320l-162 827z" />
<glyph unicode="&#xc3;" horiz-adv-x="864" d="M41 0l274 1434h232l274 -1434h-159l-56 289h-362l-56 -289h-147zM180 1573q45 116 150 119q45 0 102.5 -31t85.5 -31q55 3 82 62l80 -56q-48 -116 -145 -116q-44 -1 -102 29t-87 30t-49 -13.5t-37 -47.5zM264 426h320l-162 827z" />
<glyph unicode="&#xc4;" horiz-adv-x="864" d="M41 0l274 1434h232l274 -1434h-159l-56 289h-362l-56 -289h-147zM233 1509v185h140v-185h-140zM264 426h320l-162 827zM487 1509v185h140v-185h-140z" />
<glyph unicode="&#xc5;" horiz-adv-x="864" d="M41 0l274 1434h232l274 -1434h-159l-56 289h-362l-56 -289h-147zM264 426h320l-162 827zM279 1659q0 63 43.5 106t107.5 43q63 0 106.5 -43t43.5 -106q0 -64 -43.5 -107t-106.5 -43q-65 0 -108 43t-43 107zM354 1659q0 -32 22 -53t54 -21q31 0 52.5 21t21.5 53 q0 31 -21.5 52.5t-52.5 21.5q-32 0 -54 -21.5t-22 -52.5z" />
<glyph unicode="&#xc6;" horiz-adv-x="1198" d="M33 0l446 1434h654v-146h-406v-489h330v-144h-330v-510h406v-145h-564v291h-293l-92 -291h-151zM313 430h256v803z" />
<glyph unicode="&#xc7;" horiz-adv-x="778" d="M70 346v741q0 168 80.5 264.5t240.5 96.5q161 0 242.5 -96.5t81.5 -264.5v-129h-152v138q0 207 -168 207q-84 0 -126 -54t-42 -153v-758q0 -99 42 -153t126 -54q168 0 168 207v186h152v-178q0 -159 -72.5 -254t-216.5 -104v-64q72 0 112 -27.5t40 -76.5 q0 -62 -51.5 -96.5t-143.5 -34.5q-89 0 -138.5 33.5t-49.5 93.5v16h104v-14q0 -25 22 -41t62 -19q41 0 64.5 17.5t23.5 48.5q0 29 -26.5 45t-73.5 16h-19v103q-141 10 -211.5 105t-70.5 253z" />
<glyph unicode="&#xc8;" horiz-adv-x="737" d="M82 0v1434h590v-146h-430v-489h350v-144h-350v-510h430v-145h-590zM176 1731h166l141 -211h-116z" />
<glyph unicode="&#xc9;" horiz-adv-x="737" d="M82 0v1434h590v-146h-430v-489h350v-144h-350v-510h430v-145h-590zM279 1513l143 211h158l-191 -211h-110z" />
<glyph unicode="&#xca;" horiz-adv-x="737" d="M82 0v1434h590v-146h-430v-489h350v-144h-350v-510h430v-145h-590zM127 1513l176 207h141l179 -207h-140l-110 123l-107 -123h-139z" />
<glyph unicode="&#xcb;" horiz-adv-x="737" d="M82 0v1434h590v-146h-430v-489h350v-144h-350v-510h430v-145h-590zM178 1513v185h139v-185h-139zM432 1513v185h139v-185h-139z" />
<glyph unicode="&#xcc;" horiz-adv-x="323" d="M-51 1724h166l143 -211h-119zM82 0v1434h160v-1434h-160z" />
<glyph unicode="&#xcd;" horiz-adv-x="323" d="M63 1513l142 211h160l-191 -211h-111zM82 0v1434h160v-1434h-160z" />
<glyph unicode="&#xce;" horiz-adv-x="323" d="M-86 1513l176 205h141l179 -205h-140l-108 121l-109 -121h-139zM82 0v1434h160v-1434h-160z" />
<glyph unicode="&#xcf;" horiz-adv-x="323" d="M-35 1513v185h139v-185h-139zM82 0v1434h160v-1434h-160zM219 1513v185h139v-185h-139z" />
<glyph unicode="&#xd0;" horiz-adv-x="811" d="M-2 651v131h84v652h336q163 0 244 -93.5t81 -263.5v-723q0 -169 -81 -261.5t-244 -92.5h-336v651h-84zM242 145h174q170 0 170 203v737q0 203 -172 203h-172v-506h159v-131h-159v-506z" />
<glyph unicode="&#xd1;" horiz-adv-x="837" d="M80 0v1434h203l331 -1037v1037h142v-1434h-166l-367 1159v-1159h-143zM170 1581q47 119 152 119q43 0 100.5 -30.5t85.5 -29.5q54 0 82 60l80 -53q-48 -119 -146 -119q-43 -1 -101 29.5t-87 29.5q-56 0 -86 -59z" />
<glyph unicode="&#xd2;" d="M70 346v741q0 169 83 265t244 96q162 0 246 -96t84 -265v-741q0 -167 -84 -263.5t-246 -96.5q-160 0 -243.5 96.5t-83.5 263.5zM190 1731h166l142 -211h-117zM227 338q0 -100 42.5 -153.5t127.5 -53.5q170 0 170 207v758q0 99 -42 153t-128 54q-85 0 -127.5 -54 t-42.5 -153v-758z" />
<glyph unicode="&#xd3;" d="M70 346v741q0 169 83 265t244 96q162 0 246 -96t84 -265v-741q0 -167 -84 -263.5t-246 -96.5q-160 0 -243.5 96.5t-83.5 263.5zM227 338q0 -100 42.5 -153.5t127.5 -53.5q170 0 170 207v758q0 99 -42 153t-128 54q-85 0 -127.5 -54t-42.5 -153v-758zM299 1520l143 211 h158l-190 -211h-111z" />
<glyph unicode="&#xd4;" d="M70 346v741q0 169 83 265t244 96q162 0 246 -96t84 -265v-741q0 -167 -84 -263.5t-246 -96.5q-160 0 -243.5 96.5t-83.5 263.5zM150 1518l176 206h141l178 -206h-139l-111 120l-106 -120h-139zM227 338q0 -100 42.5 -153.5t127.5 -53.5q170 0 170 207v758q0 99 -42 153 t-128 54q-85 0 -127.5 -54t-42.5 -153v-758z" />
<glyph unicode="&#xd5;" d="M70 346v741q0 169 83 265t244 96q162 0 246 -96t84 -265v-741q0 -167 -84 -263.5t-246 -96.5q-160 0 -243.5 96.5t-83.5 263.5zM152 1579q48 116 151 119q44 0 102.5 -31t86.5 -31q26 2 45 16t36 46l78 -56q-44 -116 -145 -116q-42 -1 -101 29t-88 30q-55 0 -86 -61z M227 338q0 -100 42.5 -153.5t127.5 -53.5q170 0 170 207v758q0 99 -42 153t-128 54q-85 0 -127.5 -54t-42.5 -153v-758z" />
<glyph unicode="&#xd6;" d="M70 346v741q0 169 83 265t244 96q162 0 246 -96t84 -265v-741q0 -167 -84 -263.5t-246 -96.5q-160 0 -243.5 96.5t-83.5 263.5zM201 1518v184h139v-184h-139zM227 338q0 -100 42.5 -153.5t127.5 -53.5q170 0 170 207v758q0 99 -42 153t-128 54q-85 0 -127.5 -54 t-42.5 -153v-758zM455 1518v184h139v-184h-139z" />
<glyph unicode="&#xd7;" horiz-adv-x="749" d="M80 500l215 217l-215 215l78 78l217 -215l217 215l78 -78l-217 -215l217 -217l-78 -78l-217 217l-217 -217z" />
<glyph unicode="&#xd8;" d="M70 346v741q0 169 83 265t244 96q128 0 211 -64l37 101l72 -27l-51 -135q61 -91 61 -236v-741q0 -167 -84 -263.5t-246 -96.5q-131 0 -209 63l-38 -102l-70 26l51 138q-61 91 -61 235zM227 369l318 848q-42 86 -148 86q-85 0 -127.5 -54t-42.5 -153v-727zM250 215 q43 -84 147 -84q170 0 170 207v723z" />
<glyph unicode="&#xd9;" horiz-adv-x="792" d="M76 346v1088h157v-1096q0 -207 168 -207q166 0 166 207v1096h150v-1088q0 -169 -80.5 -265.5t-241.5 -96.5q-159 0 -239 96.5t-80 265.5zM188 1724h166l144 -211h-119z" />
<glyph unicode="&#xda;" horiz-adv-x="792" d="M76 346v1088h157v-1096q0 -207 168 -207q166 0 166 207v1096h150v-1088q0 -169 -80.5 -265.5t-241.5 -96.5q-159 0 -239 96.5t-80 265.5zM305 1520l144 211h157l-190 -211h-111z" />
<glyph unicode="&#xdb;" horiz-adv-x="792" d="M76 346v1088h157v-1096q0 -207 168 -207q166 0 166 207v1096h150v-1088q0 -169 -80.5 -265.5t-241.5 -96.5q-159 0 -239 96.5t-80 265.5zM152 1518l176 206h141l178 -206h-139l-111 120l-106 -120h-139z" />
<glyph unicode="&#xdc;" horiz-adv-x="792" d="M76 346v1088h157v-1096q0 -207 168 -207q166 0 166 207v1096h150v-1088q0 -169 -80.5 -265.5t-241.5 -96.5q-159 0 -239 96.5t-80 265.5zM201 1516v184h141v-184h-141zM457 1516v184h139v-184h-139z" />
<glyph unicode="&#xdd;" horiz-adv-x="831" d="M33 1434h166l223 -705l225 705h152l-305 -920v-514h-158v514zM328 1513l143 211h158l-191 -211h-110z" />
<glyph unicode="&#xde;" horiz-adv-x="772" d="M82 0v1434h160v-207h153q164 0 243 -91.5t79 -261.5v-169q0 -349 -334 -349h-141v-356h-160zM242 502h141q91 0 133.5 44.5t42.5 147.5v191q0 99 -39 147.5t-125 48.5h-153v-579z" />
<glyph unicode="&#xdf;" horiz-adv-x="1492" d="M55 344v82h150v-90q0 -205 168 -205t168 205q0 64 -26.5 120t-69 99t-93.5 84t-102 86t-93.5 94.5t-69 119t-26.5 151.5q0 170 80 264t238 94q160 0 239.5 -95t79.5 -263v-39h-151v47q0 205 -164 205t-164 -203q0 -65 26.5 -121.5t69 -99.5t93.5 -84.5t102.5 -86t94 -94 t69 -119t26.5 -151.5q0 -168 -81 -263t-242 -95q-160 0 -241 95t-81 263zM793 344v82h151v-90q0 -205 168 -205t168 205q0 64 -26.5 120t-69 99t-94 84t-102.5 86t-93.5 94.5t-69 119t-26.5 151.5q0 170 80.5 264t238.5 94t238 -95t80 -263v-39h-150v47q0 205 -164 205 t-164 -203q0 -65 26.5 -121.5t69 -99.5t93.5 -84.5t102 -86t93.5 -94t69 -119t26.5 -151.5q0 -168 -81 -263t-241 -95q-161 0 -242 95t-81 263z" />
<glyph unicode="&#xe0;" horiz-adv-x="864" d="M41 0l274 1434h232l274 -1434h-159l-56 289h-362l-56 -289h-147zM225 1720h164l143 -211h-116zM264 426h320l-162 827z" />
<glyph unicode="&#xe1;" horiz-adv-x="864" d="M41 0l274 1434h232l274 -1434h-159l-56 289h-362l-56 -289h-147zM264 426h320l-162 827zM324 1509l143 211h158l-189 -211h-112z" />
<glyph unicode="&#xe2;" horiz-adv-x="864" d="M41 0l274 1434h232l274 -1434h-159l-56 289h-362l-56 -289h-147zM182 1509l176 205h144l176 -205h-139l-109 121l-108 -121h-140zM264 426h320l-162 827z" />
<glyph unicode="&#xe3;" horiz-adv-x="864" d="M41 0l274 1434h232l274 -1434h-159l-56 289h-362l-56 -289h-147zM180 1573q45 116 150 119q45 0 102.5 -31t85.5 -31q55 3 82 62l80 -56q-48 -116 -145 -116q-44 -1 -102 29t-87 30t-49 -13.5t-37 -47.5zM264 426h320l-162 827z" />
<glyph unicode="&#xe4;" horiz-adv-x="864" d="M41 0l274 1434h232l274 -1434h-159l-56 289h-362l-56 -289h-147zM233 1509v185h140v-185h-140zM264 426h320l-162 827zM487 1509v185h140v-185h-140z" />
<glyph unicode="&#xe5;" horiz-adv-x="864" d="M41 0l274 1434h232l274 -1434h-159l-56 289h-362l-56 -289h-147zM264 426h320l-162 827zM279 1659q0 63 43.5 106t107.5 43q63 0 106.5 -43t43.5 -106q0 -64 -43.5 -107t-106.5 -43q-65 0 -108 43t-43 107zM354 1659q0 -32 22 -53t54 -21q31 0 52.5 21t21.5 53 q0 31 -21.5 52.5t-52.5 21.5q-32 0 -54 -21.5t-22 -52.5z" />
<glyph unicode="&#xe6;" horiz-adv-x="1198" d="M33 0l446 1434h654v-146h-406v-489h330v-144h-330v-510h406v-145h-564v291h-293l-92 -291h-151zM313 430h256v803z" />
<glyph unicode="&#xe7;" horiz-adv-x="778" d="M70 346v741q0 168 80.5 264.5t240.5 96.5q161 0 242.5 -96.5t81.5 -264.5v-129h-152v138q0 207 -168 207q-84 0 -126 -54t-42 -153v-758q0 -99 42 -153t126 -54q168 0 168 207v186h152v-178q0 -159 -72.5 -254t-216.5 -104v-64q72 0 112 -27.5t40 -76.5 q0 -62 -51.5 -96.5t-143.5 -34.5q-89 0 -138.5 33.5t-49.5 93.5v16h104v-14q0 -25 22 -41t62 -19q41 0 64.5 17.5t23.5 48.5q0 29 -26.5 45t-73.5 16h-19v103q-141 10 -211.5 105t-70.5 253z" />
<glyph unicode="&#xe8;" horiz-adv-x="737" d="M82 0v1434h590v-146h-430v-489h350v-144h-350v-510h430v-145h-590zM176 1731h166l141 -211h-116z" />
<glyph unicode="&#xe9;" horiz-adv-x="737" d="M82 0v1434h590v-146h-430v-489h350v-144h-350v-510h430v-145h-590zM279 1513l143 211h158l-191 -211h-110z" />
<glyph unicode="&#xea;" horiz-adv-x="737" d="M82 0v1434h590v-146h-430v-489h350v-144h-350v-510h430v-145h-590zM127 1513l176 207h141l179 -207h-140l-110 123l-107 -123h-139z" />
<glyph unicode="&#xeb;" horiz-adv-x="737" d="M82 0v1434h590v-146h-430v-489h350v-144h-350v-510h430v-145h-590zM178 1513v185h139v-185h-139zM432 1513v185h139v-185h-139z" />
<glyph unicode="&#xec;" horiz-adv-x="323" d="M-51 1724h166l143 -211h-119zM82 0v1434h160v-1434h-160z" />
<glyph unicode="&#xed;" horiz-adv-x="323" d="M63 1513l142 211h160l-191 -211h-111zM82 0v1434h160v-1434h-160z" />
<glyph unicode="&#xee;" horiz-adv-x="323" d="M-86 1513l176 205h141l179 -205h-140l-108 121l-109 -121h-139zM82 0v1434h160v-1434h-160z" />
<glyph unicode="&#xef;" horiz-adv-x="323" d="M-35 1513v185h139v-185h-139zM82 0v1434h160v-1434h-160zM219 1513v185h139v-185h-139z" />
<glyph unicode="&#xf0;" horiz-adv-x="811" d="M2 651v129h80v654h336q163 0 244 -93.5t81 -263.5v-723q0 -169 -81 -261.5t-244 -92.5h-336v651h-80zM242 145h174q170 0 170 203v737q0 203 -172 203h-172v-508h161v-129h-161v-506z" />
<glyph unicode="&#xf1;" horiz-adv-x="837" d="M80 0v1434h203l331 -1037v1037h142v-1434h-166l-367 1159v-1159h-143zM170 1581q47 119 152 119q43 0 100.5 -30.5t85.5 -29.5q54 0 82 60l80 -53q-48 -119 -146 -119q-43 -1 -101 29.5t-87 29.5q-56 0 -86 -59z" />
<glyph unicode="&#xf2;" d="M70 346v741q0 169 83 265t244 96q162 0 246 -96t84 -265v-741q0 -167 -84 -263.5t-246 -96.5q-160 0 -243.5 96.5t-83.5 263.5zM190 1731h166l142 -211h-117zM227 338q0 -100 42.5 -153.5t127.5 -53.5q170 0 170 207v758q0 99 -42 153t-128 54q-85 0 -127.5 -54 t-42.5 -153v-758z" />
<glyph unicode="&#xf3;" d="M70 346v741q0 169 83 265t244 96q162 0 246 -96t84 -265v-741q0 -167 -84 -263.5t-246 -96.5q-160 0 -243.5 96.5t-83.5 263.5zM227 338q0 -100 42.5 -153.5t127.5 -53.5q170 0 170 207v758q0 99 -42 153t-128 54q-85 0 -127.5 -54t-42.5 -153v-758zM299 1520l143 211 h158l-190 -211h-111z" />
<glyph unicode="&#xf4;" d="M70 346v741q0 169 83 265t244 96q162 0 246 -96t84 -265v-741q0 -167 -84 -263.5t-246 -96.5q-160 0 -243.5 96.5t-83.5 263.5zM150 1518l176 206h141l178 -206h-139l-111 120l-106 -120h-139zM227 338q0 -100 42.5 -153.5t127.5 -53.5q170 0 170 207v758q0 99 -42 153 t-128 54q-85 0 -127.5 -54t-42.5 -153v-758z" />
<glyph unicode="&#xf5;" d="M70 346v741q0 169 83 265t244 96q162 0 246 -96t84 -265v-741q0 -167 -84 -263.5t-246 -96.5q-160 0 -243.5 96.5t-83.5 263.5zM152 1579q48 116 151 119q44 0 102.5 -31t86.5 -31q26 2 45 16t36 46l78 -56q-44 -116 -145 -116q-42 -1 -101 29t-88 30q-55 0 -86 -61z M227 338q0 -100 42.5 -153.5t127.5 -53.5q170 0 170 207v758q0 99 -42 153t-128 54q-85 0 -127.5 -54t-42.5 -153v-758z" />
<glyph unicode="&#xf6;" d="M70 346v741q0 169 83 265t244 96q162 0 246 -96t84 -265v-741q0 -167 -84 -263.5t-246 -96.5q-160 0 -243.5 96.5t-83.5 263.5zM201 1518v184h139v-184h-139zM227 338q0 -100 42.5 -153.5t127.5 -53.5q170 0 170 207v758q0 99 -42 153t-128 54q-85 0 -127.5 -54 t-42.5 -153v-758zM455 1518v184h139v-184h-139z" />
<glyph unicode="&#xf7;" horiz-adv-x="716" d="M61 659v115h594v-115h-594zM281 354v199h153v-199h-153zM281 881v198h153v-198h-153z" />
<glyph unicode="&#xf8;" d="M70 346v741q0 169 83 265t244 96q128 0 211 -64l37 101l72 -27l-51 -135q61 -91 61 -236v-741q0 -167 -84 -263.5t-246 -96.5q-131 0 -209 63l-38 -102l-70 26l51 138q-61 91 -61 235zM227 369l318 848q-42 86 -148 86q-85 0 -127.5 -54t-42.5 -153v-727zM250 215 q43 -84 147 -84q170 0 170 207v723z" />
<glyph unicode="&#xf9;" horiz-adv-x="792" d="M76 346v1088h157v-1096q0 -207 168 -207q166 0 166 207v1096h150v-1088q0 -169 -80.5 -265.5t-241.5 -96.5q-159 0 -239 96.5t-80 265.5zM188 1724h166l144 -211h-119z" />
<glyph unicode="&#xfa;" horiz-adv-x="792" d="M76 346v1088h157v-1096q0 -207 168 -207q166 0 166 207v1096h150v-1088q0 -169 -80.5 -265.5t-241.5 -96.5q-159 0 -239 96.5t-80 265.5zM305 1520l144 211h157l-190 -211h-111z" />
<glyph unicode="&#xfb;" horiz-adv-x="792" d="M76 346v1088h157v-1096q0 -207 168 -207q166 0 166 207v1096h150v-1088q0 -169 -80.5 -265.5t-241.5 -96.5q-159 0 -239 96.5t-80 265.5zM152 1518l176 206h141l178 -206h-139l-111 120l-106 -120h-139z" />
<glyph unicode="&#xfc;" horiz-adv-x="792" d="M76 346v1088h157v-1096q0 -207 168 -207q166 0 166 207v1096h150v-1088q0 -169 -80.5 -265.5t-241.5 -96.5q-159 0 -239 96.5t-80 265.5zM201 1516v184h141v-184h-141zM457 1516v184h139v-184h-139z" />
<glyph unicode="&#xfd;" horiz-adv-x="831" d="M33 1434h166l223 -705l225 705h152l-305 -920v-514h-158v514zM328 1513l143 211h158l-191 -211h-110z" />
<glyph unicode="&#xfe;" horiz-adv-x="772" d="M82 0v1434h160v-207h153q164 0 243 -91.5t79 -261.5v-169q0 -349 -334 -349h-141v-356h-160zM242 502h141q91 0 133.5 44.5t42.5 147.5v191q0 99 -39 147.5t-125 48.5h-153v-579z" />
<glyph unicode="&#xff;" horiz-adv-x="831" d="M33 1434h166l223 -705l225 705h152l-305 -920v-514h-158v514zM223 1513v185h139v-185h-139zM477 1513v185h139v-185h-139z" />
<glyph unicode="&#x152;" horiz-adv-x="1181" d="M68 356v721q0 168 78.5 262.5t238.5 94.5h731v-146h-405v-489h329v-144h-329v-510h405v-145h-731q-160 0 -238.5 94t-78.5 262zM227 348q0 -203 160 -203h166v1143h-166q-160 0 -160 -203v-737z" />
<glyph unicode="&#x153;" horiz-adv-x="1181" d="M68 356v721q0 168 78.5 262.5t238.5 94.5h731v-146h-405v-489h329v-144h-329v-510h405v-145h-731q-160 0 -238.5 94t-78.5 262zM227 348q0 -203 160 -203h166v1143h-166q-160 0 -160 -203v-737z" />
<glyph unicode="&#x178;" horiz-adv-x="831" d="M33 1434h166l223 -705l225 705h152l-305 -920v-514h-158v514zM223 1513v185h139v-185h-139zM477 1513v185h139v-185h-139z" />
<glyph unicode="&#x2c6;" horiz-adv-x="512" d="M8 1532l178 205h142l176 -205h-139l-109 121l-109 -121h-139z" />
<glyph unicode="&#x2dc;" horiz-adv-x="524" d="M12 1577q50 119 152 119q43 0 101.5 -30.5t86.5 -29.5q50 0 82 60l78 -54q-45 -118 -145 -118q-42 0 -100.5 30t-88.5 29q-56 0 -86 -59z" />
<glyph unicode="&#x2000;" horiz-adv-x="904" />
<glyph unicode="&#x2001;" horiz-adv-x="1808" />
<glyph unicode="&#x2002;" horiz-adv-x="904" />
<glyph unicode="&#x2003;" horiz-adv-x="1808" />
<glyph unicode="&#x2004;" horiz-adv-x="602" />
<glyph unicode="&#x2005;" horiz-adv-x="452" />
<glyph unicode="&#x2006;" horiz-adv-x="301" />
<glyph unicode="&#x2007;" horiz-adv-x="301" />
<glyph unicode="&#x2008;" horiz-adv-x="226" />
<glyph unicode="&#x2009;" horiz-adv-x="361" />
<glyph unicode="&#x200a;" horiz-adv-x="100" />
<glyph unicode="&#x2010;" horiz-adv-x="542" d="M76 645v143h391v-143h-391z" />
<glyph unicode="&#x2011;" horiz-adv-x="542" d="M76 645v143h391v-143h-391z" />
<glyph unicode="&#x2012;" horiz-adv-x="542" d="M76 645v143h391v-143h-391z" />
<glyph unicode="&#x2013;" horiz-adv-x="937" d="M27 651v131h884v-131h-884z" />
<glyph unicode="&#x2014;" horiz-adv-x="1705" d="M27 651v131h1652v-131h-1652z" />
<glyph unicode="&#x2018;" horiz-adv-x="327" d="M82 1055v184l78 195h67l-51 -181h60v-198h-154z" />
<glyph unicode="&#x2019;" horiz-adv-x="327" d="M92 1235v199h154v-183l-80 -196h-66l52 180h-60z" />
<glyph unicode="&#x201a;" horiz-adv-x="327" d="M92 0v199h154v-185l-80 -194h-66l52 180h-60z" />
<glyph unicode="&#x201c;" horiz-adv-x="555" d="M82 1055v184l78 195h67l-51 -181h60v-198h-154zM311 1055v184l78 195h66l-49 -181h57v-198h-152z" />
<glyph unicode="&#x201d;" horiz-adv-x="555" d="M82 1235v199h151v-185l-77 -194h-66l49 180h-57zM309 1235v199h154v-185l-78 -194h-68l52 180h-60z" />
<glyph unicode="&#x201e;" horiz-adv-x="561" d="M92 0v199h154v-185l-80 -194h-66l52 180h-60zM326 0v199h153v-185l-78 -194h-67l51 180h-59z" />
<glyph unicode="&#x2022;" horiz-adv-x="671" d="M121 717q0 89 63 152t152 63t152 -63t63 -152t-63 -152t-152 -63t-152 63t-63 152z" />
<glyph unicode="&#x2026;" horiz-adv-x="776" d="M82 0v199h154v-199h-154zM311 0v199h154v-199h-154zM541 0v199h153v-199h-153z" />
<glyph unicode="&#x202f;" horiz-adv-x="361" />
<glyph unicode="&#x2039;" horiz-adv-x="374" d="M49 719l127 526h152l-127 -526l127 -549h-152z" />
<glyph unicode="&#x203a;" horiz-adv-x="374" d="M49 172l125 547l-125 526h150l129 -526l-129 -547h-150z" />
<glyph unicode="&#x205f;" horiz-adv-x="452" />
<glyph unicode="&#x20ac;" horiz-adv-x="813" d="M27 567v84h90v142h-90v81h90v213q0 169 78 265t237 96t237.5 -96t78.5 -265v-92h-150v101q0 207 -162 207t-162 -207v-222h357v-81h-357v-142h357v-84h-357v-229q0 -207 162 -207t162 207v111h150v-103q0 -168 -78.5 -264t-237.5 -96t-237 96t-78 264v221h-90z" />
<glyph unicode="&#x2122;" horiz-adv-x="1193" d="M25 1339v95h436v-95h-166v-634h-102v634h-168zM553 705v729h143l150 -570l143 570h144v-729h-99v575l-141 -571h-98l-150 567v-571h-92z" />
<glyph unicode="&#x25fc;" horiz-adv-x="1433" d="M0 0v1434h1434v-1434h-1434z" />
</font>
</defs>
</svg>
