<?xml version="1.0" standalone="no"?>
<!DOCTYPE svg PUBLIC "-//W3C//DTD SVG 1.1//EN" "http://www.w3.org/Graphics/SVG/1.1/DTD/svg11.dtd" >
<svg>
<metadata>
Created by FontForge 20110222 at Thu Jul 10 07:49:07 2014
 By deploy user
Copyright (c) 2012 by Hannes von Doehren. All rights reserved.
</metadata>
<defs>
<font id="PlutoSansBlack" horiz-adv-x="600" >
  <font-face 
    font-family="Pluto Sans Black"
    font-weight="900"
    font-stretch="normal"
    units-per-em="1000"
    panose-1="2 0 0 0 0 0 0 0 0 0"
    ascent="750"
    descent="-250"
    x-height="523"
    cap-height="680"
    bbox="-166 -316 1345 919"
    underline-thickness="50"
    underline-position="0"
    unicode-range="U+0020-FB02"
  />
<missing-glyph horiz-adv-x="612" 
d="M50 720h512v-720h-512v720zM266 283h48q0 26 14 47t34 36t40 29.5t34 36t14 48.5q0 51 -36.5 85t-101.5 34q-39 0 -67 -14.5t-41.5 -37t-19 -43.5t-5.5 -41h47q0 40 21 66.5t65 26.5q41 0 64 -21.5t23 -54.5q0 -23 -21 -45t-45.5 -38t-45.5 -46t-21 -68zM255 194v-71h68
v71h-68z" />
    <glyph glyph-name=".notdef" horiz-adv-x="612" 
d="M50 720h512v-720h-512v720zM266 283h48q0 26 14 47t34 36t40 29.5t34 36t14 48.5q0 51 -36.5 85t-101.5 34q-39 0 -67 -14.5t-41.5 -37t-19 -43.5t-5.5 -41h47q0 40 21 66.5t65 26.5q41 0 64 -21.5t23 -54.5q0 -23 -21 -45t-45.5 -38t-45.5 -46t-21 -68zM255 194v-71h68
v71h-68z" />
    <glyph glyph-name=".null" horiz-adv-x="0" 
 />
    <glyph glyph-name=".null" horiz-adv-x="0" 
 />
    <glyph glyph-name="nonmarkingreturn" horiz-adv-x="333" 
 />
    <glyph glyph-name="space" unicode=" " horiz-adv-x="240" 
 />
    <glyph glyph-name="exclam" unicode="!" horiz-adv-x="330" 
d="M99 265l-45 415h220l-45 -415h-130zM43 101q0 55 32 86t90 31t90.5 -31t32.5 -86t-32.5 -85.5t-90.5 -30.5t-90 30t-32 86z" />
    <glyph glyph-name="quotedbl" unicode="&#x22;" horiz-adv-x="513" 
d="M224 680l-10 -270h-150l-10 270h170zM459 680l-10 -270h-150l-10 270h170z" />
    <glyph glyph-name="numbersign" unicode="#" horiz-adv-x="699" 
d="M342 16l33 128h-158l-36 -144h-109v16l33 128h-70v110h98l40 159h-81v110h109l41 157h107v-15l-36 -142h158l41 157h107v-15l-36 -142h82v-110h-110l-40 -159h93v-110h-121l-36 -144h-109v16zM285 413l-40 -159h158l40 159h-158z" />
    <glyph glyph-name="dollar" unicode="$" horiz-adv-x="619" 
d="M284 -129v119q-68 2 -135 20t-105 39l51 186q91 -62 189 -70v89l-90 25q-84 25 -122 69t-38 117q0 90 66.5 151t183.5 71v83h49v-81q67 -1 132 -16.5t107 -37.5l-61 -183q-89 55 -178 61v-81l69 -22q96 -30 138.5 -75.5t42.5 -113.5q0 -95 -66.5 -157.5t-183.5 -71.5
v-121h-49zM254 477q0 -20 30 -30v63q-30 -8 -30 -33zM361 208q0 18 -28 31v-69q28 12 28 38z" />
    <glyph glyph-name="percent" unicode="%" horiz-adv-x="949" 
d="M522 182q0 83 56.5 138.5t141.5 55.5t142 -55.5t57 -138.5q0 -82 -56.5 -137t-142.5 -55q-85 0 -141.5 54.5t-56.5 137.5zM654 182q0 -28 18.5 -48t47.5 -20q28 0 46.5 20t18.5 48q0 29 -18 49t-47 20t-47.5 -20.5t-18.5 -48.5zM234 16l370 664h102v-15l-368 -665h-104
v16zM31 496q0 83 56.5 138.5t141.5 55.5t142 -55.5t57 -138.5q0 -82 -56.5 -137t-142.5 -55q-85 0 -141.5 54.5t-56.5 137.5zM163 496q0 -28 18.5 -48t47.5 -20q28 0 46.5 20t18.5 48q0 29 -18 49t-47 20t-47.5 -20.5t-18.5 -48.5z" />
    <glyph glyph-name="ampersand" unicode="&#x26;" horiz-adv-x="814" 
d="M658 400l153 -119q-68 -88 -137 -147l127 -113v-31h-223l-51 50q-112 -50 -234 -50q-115 0 -182.5 54.5t-67.5 143.5q0 118 153 177q-35 36 -53 70t-18 78q0 80 59.5 128.5t189.5 48.5q121 0 186 -45.5t65 -126.5q0 -65 -46 -114t-121 -77l77 -69q70 62 123 142zM341 165
q23 0 50 8l-95 93q-27 -22 -27 -43q0 -24 18 -41t54 -17zM329 470q0 -24 32 -56q61 20 61 60q0 32 -48 32q-22 0 -33.5 -10t-11.5 -26z" />
    <glyph glyph-name="quotesingle" unicode="'" horiz-adv-x="278" 
d="M224 680l-10 -270h-150l-10 270h170z" />
    <glyph glyph-name="parenleft" unicode="(" horiz-adv-x="348" 
d="M326 651q-45 -73 -74 -174.5t-29 -215.5q0 -112 29 -213.5t74 -174.5l-121 -66q-64 56 -118.5 179t-54.5 276t54.5 276t118.5 179z" />
    <glyph glyph-name="parenright" unicode=")" horiz-adv-x="348" 
d="M22 651l121 66q64 -56 118.5 -179t54.5 -276t-54.5 -276t-118.5 -179l-121 66q45 73 74 174.5t29 213.5q0 114 -29 215.5t-74 174.5z" />
    <glyph glyph-name="asterisk" unicode="*" horiz-adv-x="570" 
d="M88 319l76 95l-110 24l44 164l115 -50l-13 128h170l-13 -129l115 51l44 -164l-113 -26l78 -92l-127 -91l-69 110l-70 -109z" />
    <glyph glyph-name="plus" unicode="+" horiz-adv-x="574" 
d="M372 554v-166h166v-170h-166v-166h-170v166h-166v170h166v166h170z" />
    <glyph glyph-name="comma" unicode="," horiz-adv-x="325" 
d="M67 -127l40 117q-65 24 -65 110q0 57 31 88.5t88 31.5q56 0 88 -32t32 -88q0 -123 -94 -275z" />
    <glyph glyph-name="hyphen" unicode="-" horiz-adv-x="544" 
d="M56 388h432v-170h-432v170z" />
    <glyph glyph-name="period" unicode="." horiz-adv-x="329" 
d="M42 101q0 55 32 86t90 31t90.5 -31t32.5 -86t-32.5 -85.5t-90.5 -30.5t-90 30t-32 86z" />
    <glyph glyph-name="slash" unicode="/" horiz-adv-x="518" 
d="M23 16l370 664h102v-15l-368 -665h-104v16z" />
    <glyph glyph-name="zero" unicode="0" horiz-adv-x="702" 
d="M41 339q0 167 80.5 259t228.5 92q150 0 230.5 -92t80.5 -259q0 -165 -80.5 -257t-230.5 -92q-148 0 -228.5 92t-80.5 257zM254 339q0 -149 96 -149q56 0 76.5 40t20.5 109q0 70 -20.5 110.5t-76.5 40.5q-55 0 -75.5 -40.5t-20.5 -110.5z" />
    <glyph glyph-name="one" unicode="1" horiz-adv-x="531" 
d="M-2 498l299 182h159v-680h-220v430l-154 -96z" />
    <glyph glyph-name="two" unicode="2" horiz-adv-x="655" 
d="M368 190h240v-190h-548v162l239 177q69 51 69 102q0 21 -14 35t-39 14q-82 0 -82 -96l-199 39q3 120 78.5 188.5t206.5 68.5q134 0 204.5 -63t70.5 -166q0 -125 -146 -219z" />
    <glyph glyph-name="three" unicode="3" horiz-adv-x="620" 
d="M122 266v160h141q71 0 71 44q0 36 -70 36q-79 0 -184 -35l-48 186q36 12 105.5 22.5t125.5 10.5q293 0 293 -197q0 -48 -29 -85t-81 -53q134 -37 134 -167q0 -92 -78.5 -145t-238.5 -53q-108 0 -226 37l52 180q84 -32 174 -32q44 0 67.5 13t23.5 35q0 23 -22 33t-69 10
h-141z" />
    <glyph glyph-name="four" unicode="4" horiz-adv-x="704" 
d="M666 104h-91v-104h-220v104h-333v140l257 436h296v-416h91v-160zM239 264h116v199z" />
    <glyph glyph-name="five" unicode="5" horiz-adv-x="617" 
d="M74 270l-9 8l35 402h451v-190h-267l-5 -61h5q289 0 289 -198q0 -119 -79 -180t-227 -61q-117 0 -237 40l53 179q85 -34 172 -34q45 0 69 14t24 37q0 44 -78 44h-196z" />
    <glyph glyph-name="six" unicode="6" horiz-adv-x="680" 
d="M391 505q-60 0 -88 -24t-36 -71q59 34 127 34q123 0 185.5 -53t62.5 -153q0 -115 -77.5 -181.5t-202.5 -66.5q-153 0 -237 95t-84 256q0 160 84 254.5t239 94.5q121 0 244 -40l-55 -179q-87 34 -162 34zM359 284q-40 0 -90 -18q19 -76 93 -76q31 0 46 14t15 34
q0 46 -64 46z" />
    <glyph glyph-name="seven" unicode="7" horiz-adv-x="583" 
d="M76 20l241 470h-287v190h532v-150l-245 -530h-241v20z" />
    <glyph glyph-name="eight" unicode="8" horiz-adv-x="692" 
d="M346 -10q-153 0 -229.5 53t-76.5 145q0 133 131 167q-50 14 -79 52t-29 86q0 197 283 197t283 -197q0 -48 -29 -86t-79 -52q131 -34 131 -167q0 -92 -76.5 -145t-229.5 -53zM346 281q-40 0 -61.5 -17.5t-21.5 -40.5t21 -40.5t62 -17.5t62 17.5t21 40.5t-21.5 40.5
t-61.5 17.5zM346 518q-64 0 -64 -47q0 -48 64 -48t64 48q0 47 -64 47z" />
    <glyph glyph-name="nine" unicode="9" horiz-adv-x="680" 
d="M127 209q87 -34 162 -34q59 0 87 24t37 71q-57 -34 -127 -34q-123 0 -185.5 53t-62.5 153q0 115 77.5 181.5t202.5 66.5q153 0 237 -95t84 -256q0 -160 -84 -254.5t-239 -94.5q-121 0 -244 40zM321 396q40 0 90 18q-19 76 -93 76q-31 0 -46 -14t-15 -34q0 -46 64 -46z
" />
    <glyph glyph-name="colon" unicode=":" horiz-adv-x="346" 
d="M54 424q0 53 31 83t87 30q55 0 86.5 -30t31.5 -83t-31 -82t-87 -29t-87 29t-31 82zM54 96q0 53 31 83t87 30q55 0 86.5 -30t31.5 -83t-31 -82t-87 -29t-87 29t-31 82z" />
    <glyph glyph-name="semicolon" unicode=";" horiz-adv-x="342" 
d="M82 -122l39 111q-63 24 -63 105q0 54 30 84.5t84 30.5t84.5 -30.5t30.5 -84.5q0 -115 -90 -262zM49 424q0 53 31 83t87 30q55 0 86.5 -30t31.5 -83t-31 -82t-87 -29t-87 29t-31 82z" />
    <glyph glyph-name="less" unicode="&#x3c;" horiz-adv-x="593" 
d="M34 215v167l487 171h15v-163l-331 -88l331 -86v-165h-15z" />
    <glyph glyph-name="equal" unicode="=" horiz-adv-x="622" 
d="M60 250h502v-170h-502v170zM60 525h502v-170h-502v170z" />
    <glyph glyph-name="greater" unicode="&#x3e;" horiz-adv-x="593" 
d="M559 382v-167l-487 -164h-15v165l331 86l-331 88v163h15z" />
    <glyph glyph-name="question" unicode="?" horiz-adv-x="503" 
d="M302 261h-177q-17 39 -17 70q0 48 60 86l56 35q24 15 24 35q0 23 -28 23t-68.5 -13.5t-66.5 -29.5l-51 174q102 49 220 49q102 0 159 -51.5t57 -133.5q0 -40 -13 -70.5t-28.5 -45.5t-41.5 -34l-61 -38q-1 -1 -7 -5.5t-7 -5.5t-5 -4.5t-5 -6t-2 -7t-1 -9.5q0 -3 3 -18z
M93 101q0 55 32 86t90 31t90.5 -31t32.5 -86t-32.5 -85.5t-90.5 -30.5t-90 30t-32 86z" />
    <glyph glyph-name="at" unicode="@" horiz-adv-x="971" 
d="M737 491v-343q0 -26 7.5 -35.5t28.5 -9.5q40 0 71.5 55.5t31.5 158.5q0 150 -105.5 245t-277.5 95q-173 0 -282 -110t-109 -284q0 -173 109.5 -284.5t281.5 -111.5q103 0 187 42l21 -57q-95 -46 -208 -46q-194 0 -324 131t-130 326q0 196 130 326t324 130t320.5 -115
t126.5 -285q0 -154 -70 -231t-203 -77q-96 0 -126 65q-48 -64 -131 -64q-92 0 -150.5 68t-58.5 174q0 107 58.5 176t150.5 69q73 0 116 -50v42h211zM526 208v94q-20 15 -53 15q-57 0 -57 -63q0 -29 15 -45t42 -16q31 0 53 15z" />
    <glyph glyph-name="A" unicode="A" horiz-adv-x="740" 
d="M-7 0l247 680h260l247 -680h-222l-35 104h-241l-34 -104h-222zM370 464l-67 -200h134z" />
    <glyph glyph-name="B" unicode="B" horiz-adv-x="736" 
d="M72 0v680h332q248 0 248 -187q0 -94 -85 -138q139 -36 139 -167q0 -88 -67 -138t-189 -50h-378zM292 161h124q28 0 42.5 14t14.5 37q0 22 -14.5 36.5t-42.5 14.5h-124v-102zM292 424h80q55 0 55 48q0 22 -14 35.5t-41 13.5h-80v-97z" />
    <glyph glyph-name="C" unicode="C" horiz-adv-x="700" 
d="M261 340q0 -62 41 -105t109 -43q36 0 70 12t50.5 22.5t44.5 31.5l98 -161q-119 -107 -274 -107q-157 0 -261.5 100.5t-104.5 249.5t104.5 249.5t261.5 100.5q155 0 274 -107l-98 -161q-28 21 -44.5 31.5t-50.5 22.5t-70 12q-68 0 -109 -43t-41 -105z" />
    <glyph glyph-name="D" unicode="D" horiz-adv-x="789" 
d="M72 0v680h329q156 -1 253.5 -90.5t97.5 -250.5q0 -160 -97.5 -249.5t-253.5 -89.5h-329zM391 490h-99v-300h99q61 0 97.5 39.5t36.5 109.5q0 71 -36 111t-98 40z" />
    <glyph glyph-name="E" unicode="E" horiz-adv-x="683" 
d="M634 0h-562v680h562v-190h-352v-60h279v-175h-279v-65h352v-190z" />
    <glyph glyph-name="F" unicode="F" horiz-adv-x="642" 
d="M560 191h-278v-191h-210v680h542v-191h-332v-107h278v-191z" />
    <glyph glyph-name="G" unicode="G" horiz-adv-x="742" 
d="M695 402v-313q-48 -40 -135 -69.5t-163 -29.5q-156 0 -259 94.5t-103 254.5q0 161 103 256t259 95q155 0 272 -88l-99 -166q-70 52 -168 52q-62 0 -101 -39.5t-39 -109.5t40.5 -108.5t109.5 -38.5q39 0 90 16v52h-134v142h327z" />
    <glyph glyph-name="H" unicode="H" horiz-adv-x="824" 
d="M532 0v250h-240v-250h-220v680h220v-240h240v240h220v-680h-220z" />
    <glyph glyph-name="I" unicode="I" horiz-adv-x="364" 
d="M72 0v680h220v-680h-220z" />
    <glyph glyph-name="J" unicode="J" horiz-adv-x="637" 
d="M352 680h220v-397q0 -136 -70 -214.5t-213 -78.5q-141 0 -207 73.5t-75 209.5l216 20q2 -24 3.5 -37t6 -29.5t11 -24.5t18 -14t27.5 -6q39 0 51 27.5t12 87.5v383z" />
    <glyph glyph-name="K" unicode="K" horiz-adv-x="761" 
d="M72 0v680h220v-244h65l163 244h224v-33l-219 -310l220 -317v-20h-241l-154 246h-58v-246h-220z" />
    <glyph glyph-name="L" unicode="L" horiz-adv-x="617" 
d="M604 0h-532v680h220v-490h312v-190z" />
    <glyph glyph-name="M" unicode="M" horiz-adv-x="944" 
d="M652 0v335l-162 -194h-36l-162 194v-335h-220v680h180l220 -250l220 250h180v-680h-220z" />
    <glyph glyph-name="N" unicode="N" horiz-adv-x="824" 
d="M562 0l-270 330v-330h-220v680h190l270 -330v330h220v-680h-190z" />
    <glyph glyph-name="O" unicode="O" horiz-adv-x="770" 
d="M35 339q0 151 100 251t249 100q151 0 251 -100t100 -251q0 -149 -100 -249t-251 -100q-149 0 -249 100t-100 249zM249 339q0 -60 38 -101t97 -41q60 0 97.5 41t37.5 101q0 62 -37.5 103t-97.5 41q-59 0 -97 -41.5t-38 -102.5z" />
    <glyph glyph-name="P" unicode="P" horiz-adv-x="712" 
d="M72 0v680h363q111 0 184 -66.5t73 -192.5q0 -116 -74.5 -185.5t-182.5 -69.5h-143v-166h-220zM292 490v-134h108q28 0 46.5 19t18.5 48q0 28 -18.5 47.5t-46.5 19.5h-108z" />
    <glyph glyph-name="Q" unicode="Q" horiz-adv-x="789" 
d="M776 12l20 -173q-55 -19 -125 -19q-53 0 -103.5 22.5t-81 48.5t-64 58t-45.5 41q-147 2 -244.5 101.5t-97.5 247.5q0 151 100 251t249 100q151 0 251 -100t100 -251q0 -91 -39.5 -167t-109.5 -123q56 -47 102 -47q61 0 88 10zM250 339q0 -60 38 -101.5t96 -41.5
q60 0 97.5 41.5t37.5 101.5q0 62 -37.5 103t-97.5 41q-59 0 -96.5 -41.5t-37.5 -102.5z" />
    <glyph glyph-name="R" unicode="R" horiz-adv-x="749" 
d="M72 0v680h369q108 0 175.5 -60t67.5 -172q0 -65 -35 -115.5t-95 -76.5l167 -206v-50h-220l-173 234h-36v-234h-220zM292 490v-104h112q27 0 40.5 15.5t13.5 36.5q0 20 -14 36t-40 16h-112z" />
    <glyph glyph-name="S" unicode="S" horiz-adv-x="625" 
d="M40 49l51 186q103 -70 211 -70q65 0 65 43q0 24 -44 37l-107 33q-86 26 -129 71.5t-43 120.5q0 96 74.5 157.5t207.5 61.5q67 0 135 -16t113 -38l-61 -176q-101 55 -197 55q-52 0 -52 -35q0 -21 38 -33l113 -34q94 -28 134 -75t40 -116q0 -102 -78.5 -166.5t-212.5 -64.5
q-71 0 -144.5 18.5t-113.5 40.5z" />
    <glyph glyph-name="T" unicode="T" horiz-adv-x="630" 
d="M605 489h-180v-489h-220v489h-180v191h580v-191z" />
    <glyph glyph-name="U" unicode="U" horiz-adv-x="785" 
d="M283 680v-365q0 -59 28.5 -91t80.5 -32q53 0 82 32t29 91v365h220v-380q0 -131 -89 -220.5t-242 -89.5q-154 0 -241.5 86t-87.5 224v380h220z" />
    <glyph glyph-name="V" unicode="V" horiz-adv-x="760" 
d="M240 0l-247 680h242l145 -455l145 455h242l-247 -680h-280z" />
    <glyph glyph-name="W" unicode="W" horiz-adv-x="1116" 
d="M636 0l-75 207l-81 -207h-240l-247 680h238l149 -433l85 221l-72 212h240l119 -396l130 396h241l-247 -680h-240z" />
    <glyph glyph-name="X" unicode="X" horiz-adv-x="760" 
d="M747 680v-15l-213 -326l213 -323v-16h-252l-115 196l-115 -196h-252v16l212 323l-212 326v15h250l117 -199l117 199h250z" />
    <glyph glyph-name="Y" unicode="Y" horiz-adv-x="696" 
d="M238 0v249l-246 416v15h245l111 -229l111 229h245v-15l-246 -415v-250h-220z" />
    <glyph glyph-name="Z" unicode="Z" horiz-adv-x="662" 
d="M50 150l278 340h-278v190h562v-150l-275 -340h275v-190h-562v150z" />
    <glyph glyph-name="bracketleft" unicode="[" horiz-adv-x="381" 
d="M343 -188h-277v898h277v-170h-107v-558h107v-170z" />
    <glyph glyph-name="backslash" unicode="\" horiz-adv-x="518" 
d="M125 680l370 -664v-16h-104l-368 665v15h102z" />
    <glyph glyph-name="bracketright" unicode="]" horiz-adv-x="381" 
d="M38 710h277v-898h-277v170h107v558h-107v170z" />
    <glyph glyph-name="asciicircum" unicode="^" horiz-adv-x="612" 
d="M226 680h160l191 -301v-15h-165l-106 179l-108 -179h-163v15z" />
    <glyph glyph-name="underscore" unicode="_" horiz-adv-x="610" 
d="M55 -31h500v-130h-500v130z" />
    <glyph glyph-name="grave" unicode="`" 
d="M275 573l-115 168h214l80 -168h-179z" />
    <glyph glyph-name="a" unicode="a" horiz-adv-x="585" 
d="M103 331l-36 162q113 39 220 39q138 0 191.5 -56t53.5 -173v-303h-211v45q-59 -55 -138 -55q-75 0 -115 41t-40 112q0 84 64.5 131t173.5 47q30 0 55 -3v4q0 21 -13.5 29.5t-44.5 8.5q-68 0 -160 -29zM236 168q0 -42 43 -42q20 0 42 12v77q-14 2 -20 2q-27 0 -46 -12.5
t-19 -36.5z" />
    <glyph glyph-name="b" unicode="b" horiz-adv-x="678" 
d="M647 262q0 -119 -65.5 -195.5t-168.5 -76.5q-83 0 -134 56v-46h-220v710h220v-233q55 55 134 55q103 0 168.5 -75.5t65.5 -194.5zM423 262q0 38 -20.5 59t-54.5 21q-42 0 -69 -19v-124q28 -19 69 -19q35 0 55 21.5t20 60.5z" />
    <glyph glyph-name="c" unicode="c" horiz-adv-x="557" 
d="M29 262q0 122 76 198.5t216 76.5q123 0 215 -71l-90 -163q-50 36 -106 36q-44 0 -65.5 -22t-21.5 -55t21.5 -55.5t65.5 -22.5q56 0 106 36l90 -163q-92 -71 -215 -71q-139 0 -215.5 77t-76.5 199z" />
    <glyph glyph-name="d" unicode="d" horiz-adv-x="678" 
d="M31 262q0 119 65.5 194.5t168.5 75.5q77 0 134 -55v233h220v-710h-220v46q-53 -56 -134 -56q-103 0 -168.5 76.5t-65.5 195.5zM255 262q0 -39 20 -60.5t55 -21.5q41 0 69 20v122q-27 20 -69 20q-34 0 -54.5 -21t-20.5 -59z" />
    <glyph glyph-name="e" unicode="e" horiz-adv-x="582" 
d="M466 192l80 -135q-87 -71 -227 -71q-142 0 -215.5 75t-73.5 199q0 121 77.5 199t202.5 78q114 0 176 -62.5t62 -155.5q0 -67 -11 -97h-299q5 -30 31.5 -51t71.5 -21q27 0 65.5 13.5t59.5 28.5zM381 324v3q0 61 -67 61q-29 0 -49.5 -17.5t-24.5 -46.5h141z" />
    <glyph glyph-name="f" unicode="f" horiz-adv-x="467" 
d="M445 337h-113v-337h-220v337h-81v169h81v18q0 83 50.5 139.5t147.5 56.5q75 0 139 -17l-26 -157q-35 11 -58 11q-33 0 -33 -35v-16h113v-169z" />
    <glyph glyph-name="g" unicode="g" horiz-adv-x="676" 
d="M31 280q0 106 66 179t168 73q81 0 133 -55v46h220v-438q0 -136 -83.5 -209.5t-204.5 -73.5t-229 47l44 152q85 -38 160 -38q93 0 93 75v34q-53 -42 -133 -42q-102 0 -168 72.5t-66 177.5zM255 280q0 -60 75 -60q39 0 68 21v80q-26 21 -68 21q-75 0 -75 -62z" />
    <glyph glyph-name="h" unicode="h" horiz-adv-x="679" 
d="M59 710h220v-241q59 63 150 63q100 0 148.5 -64t48.5 -167v-301h-220v263q0 67 -61 67q-43 0 -66 -16v-314h-220v710z" />
    <glyph glyph-name="i" unicode="i" horiz-adv-x="338" 
d="M53 659q0 93 117 93q115 0 115 -93q0 -94 -115 -94q-117 0 -117 94zM59 0v523h220v-523h-220z" />
    <glyph glyph-name="j" unicode="j" horiz-adv-x="338" 
d="M60 523h220v-445q0 -106 -42 -170t-111 -105l-133 123q66 54 66 133v464zM55 659q0 93 116 93q115 0 115 -93q0 -94 -115 -94q-116 0 -116 94z" />
    <glyph glyph-name="k" unicode="k" horiz-adv-x="670" 
d="M646 523v-36l-166 -217l171 -233v-37h-229l-143 221v-221h-220v710h220v-398l137 211h230z" />
    <glyph glyph-name="l" unicode="l" horiz-adv-x="370" 
d="M56 710h220v-497q0 -39 22 -39q19 0 46 10l5 -174q-74 -20 -143 -20q-73 0 -111.5 39t-38.5 128v553z" />
    <glyph glyph-name="m" unicode="m" horiz-adv-x="1023" 
d="M59 523h220v-53q61 63 151 63q108 0 159 -82q68 81 183 81q101 0 149.5 -64t48.5 -167v-301h-220v263q0 67 -61 67q-36 0 -65 -12v-318h-220v264q0 66 -59 66q-43 0 -66 -16v-314h-220v523z" />
    <glyph glyph-name="n" unicode="n" horiz-adv-x="679" 
d="M59 523h220v-55q57 64 150 64q100 0 148.5 -64t48.5 -167v-301h-220v263q0 67 -64 67q-40 0 -63 -16v-314h-220v523z" />
    <glyph glyph-name="o" unicode="o" horiz-adv-x="624" 
d="M28 260q0 119 80.5 198t202.5 79q123 0 204 -79t81 -198q0 -118 -81 -196t-204 -78q-122 0 -202.5 78t-80.5 196zM239 260q0 -31 20.5 -53.5t51.5 -22.5q33 0 53 22.5t20 53.5q0 32 -20 54.5t-53 22.5q-32 0 -52 -22.5t-20 -54.5z" />
    <glyph glyph-name="p" unicode="p" horiz-adv-x="677" 
d="M646 260q0 -118 -65.5 -194t-168.5 -76q-79 0 -133 54v-232h-220v711h220v-46q50 55 133 55q103 0 168.5 -76t65.5 -196zM422 260q0 39 -20 60.5t-55 21.5q-41 0 -68 -20v-123q27 -19 68 -19q35 0 55 21t20 59z" />
    <glyph glyph-name="q" unicode="q" horiz-adv-x="677" 
d="M31 260q0 120 65.5 196t168.5 76q81 0 133 -55v46h220v-711h-220v232q-56 -54 -133 -54q-103 0 -168.5 76t-65.5 194zM255 260q0 -38 20 -59t55 -21q39 0 68 20v122q-28 20 -68 20q-35 0 -55 -21.5t-20 -60.5z" />
    <glyph glyph-name="r" unicode="r" horiz-adv-x="518" 
d="M59 0v523h220v-85q52 94 148 94q49 0 90 -20l-47 -199q-49 17 -95 17q-37 0 -62.5 -15.5t-33.5 -41.5v-273h-220z" />
    <glyph glyph-name="s" unicode="s" horiz-adv-x="510" 
d="M471 491l-52 -151q-72 39 -133 39q-26 0 -26 -21q0 -13 22 -20l75 -24q69 -22 95 -59.5t26 -88.5q0 -76 -63.5 -126t-168.5 -50q-120 0 -212 45l45 150q94 -48 146 -48q31 0 31 18q0 16 -30 25l-65 19q-119 34 -119 150q0 84 61 133.5t173 49.5q51 0 106.5 -12t88.5 -29z
" />
    <glyph glyph-name="t" unicode="t" horiz-adv-x="533" 
d="M146 656h179v-133h162v-169h-162v-108q0 -38 10.5 -52.5t33.5 -14.5q37 0 83 32l66 -165q-94 -56 -219 -56q-92 0 -143 53.5t-51 156.5v154h-81v169h96z" />
    <glyph glyph-name="u" unicode="u" horiz-adv-x="679" 
d="M620 0h-220v55q-57 -64 -150 -64q-100 0 -148.5 64t-48.5 167v301h220v-263q0 -67 59 -67q45 0 68 16v314h220v-523z" />
    <glyph glyph-name="v" unicode="v" horiz-adv-x="642" 
d="M402 523h241l-194 -523h-259l-189 523h241l77 -329z" />
    <glyph glyph-name="w" unicode="w" horiz-adv-x="1028" 
d="M782 523h241l-167 -523h-259l-82 274l-84 -274h-259l-162 523h241l55 -329l85 329h251l79 -329z" />
    <glyph glyph-name="x" unicode="x" horiz-adv-x="640" 
d="M617 523v-15l-145 -248l145 -244v-16h-235l-62 138l-61 -138h-236v16l144 244l-144 248v15h234l63 -141l64 141h233z" />
    <glyph glyph-name="y" unicode="y" horiz-adv-x="619" 
d="M393 522q37 0 110 0.5t110 0.5l-192 -494q-49 -126 -104.5 -176.5t-155.5 -50.5q-69 0 -120 34l29 156q45 -20 82 -20q39 0 57 41l5 11l-223 499h243l74 -284z" />
    <glyph glyph-name="z" unicode="z" horiz-adv-x="532" 
d="M46 150l166 203h-166v170h440v-150l-163 -203h163v-170h-440v150z" />
    <glyph glyph-name="braceleft" unicode="{" horiz-adv-x="393" 
d="M353 710v-150h-45q-42 0 -42 -40q0 -21 20 -76.5t20 -87.5q0 -82 -94 -98q94 -16 94 -98q0 -32 -20 -88t-20 -77q0 -40 42 -40h45v-150h-67q-96 0 -143 34.5t-47 110.5q0 39 20 100t20 92t-25.5 42.5t-87.5 11.5v124q60 0 86.5 16.5t26.5 51.5q0 29 -20 88t-20 98
q0 136 190 136h67z" />
    <glyph glyph-name="bar" unicode="|" horiz-adv-x="302" 
d="M66 -188v898h170v-898h-170z" />
    <glyph glyph-name="braceright" unicode="}" horiz-adv-x="393" 
d="M40 710h67q190 0 190 -136q0 -39 -20 -98t-20 -88q0 -35 26.5 -51.5t86.5 -16.5v-124q-62 0 -87.5 -11.5t-25.5 -42.5t20 -92t20 -100q0 -76 -47 -110.5t-143 -34.5h-67v150h45q42 0 42 40q0 21 -20 77t-20 88q0 82 94 98q-94 16 -94 98q0 32 20 87.5t20 76.5
q0 40 -42 40h-45v150z" />
    <glyph glyph-name="asciitilde" unicode="~" horiz-adv-x="544" 
d="M444 394l66 -107q-18 -45 -58.5 -72t-85.5 -27q-42 0 -96 28t-87 28q-50 0 -85 -49l-63 113q16 38 55 65.5t85 27.5q49 0 105 -28t79 -28q49 0 85 49z" />
    <glyph glyph-name="uni00A0" unicode="&#xa0;" horiz-adv-x="240" 
 />
    <glyph glyph-name="exclamdown" unicode="&#xa1;" horiz-adv-x="315" 
d="M223 257l45 -415h-220l45 415h130zM279 421q0 -55 -32 -86t-90 -31t-90.5 31t-32.5 86t32.5 85.5t90.5 30.5t90 -30t32 -86z" />
    <glyph glyph-name="cent" unicode="&#xa2;" horiz-adv-x="595" 
d="M29 262q0 122 76 198.5t216 76.5q27 0 59 -5l30 109l59 -16l-30 -108q54 -19 97 -51l-90 -163q-29 20 -59 29l-41 -148q53 1 100 36l90 -163q-92 -71 -215 -71q-5 0 -15 0.5t-14 0.5l-35 -127l-58 16l33 120q-98 23 -150.5 94t-52.5 172zM253 262q0 -45 34 -65l39 141
q-37 -4 -55 -25t-18 -51z" />
    <glyph glyph-name="sterling" unicode="&#xa3;" horiz-adv-x="639" 
d="M490 314h-130q9 -87 3 -142q16 -11 34 -11q49 0 41 81h159q16 -114 -21 -183t-133 -69q-61 0 -127 55q-30 -32 -64.5 -43.5t-90.5 -11.5q-59 0 -93 35.5t-34 91.5q0 50 31 81t79 31q20 0 38 -4q-1 32 -19 89h-88v61h69q-17 66 -17 115q0 89 58 144.5t174 55.5
q60 0 126 -17.5t98 -41.5l-59 -190q-64 49 -119 49q-57 0 -57 -57q0 -20 5 -58h137v-61zM148 116q-14 0 -22 -7.5t-8 -18.5q0 -22 22 -22q25 0 34 40q-10 8 -26 8z" />
    <glyph glyph-name="currency" unicode="&#xa4;" horiz-adv-x="560" 
d="M76 302q0 38 12 71l-46 47l121 121l52 -53q30 8 59 8q35 0 68 -11l55 56l121 -121l-55 -55q10 -32 10 -63q0 -30 -10 -62l55 -54l-121 -121l-55 55q-30 -10 -68 -10q-34 0 -59 7l-52 -52l-121 121l46 46q-12 32 -12 70zM208 302q0 -28 18.5 -48t47.5 -20q28 0 46.5 20
t18.5 48q0 29 -18 49t-47 20t-47.5 -20.5t-18.5 -48.5z" />
    <glyph glyph-name="yen" unicode="&#xa5;" horiz-adv-x="646" 
d="M554 114h-124v-114h-220v114h-124v61h124v59h-124v61h104l-156 370v15h225l61 -259l71 259h225v-15l-166 -370h104v-61h-124v-59h124v-61z" />
    <glyph glyph-name="brokenbar" unicode="&#xa6;" horiz-adv-x="306" 
d="M238 375h-170v335h170v-335zM68 159h170v-347h-170v347z" />
    <glyph glyph-name="section" unicode="&#xa7;" horiz-adv-x="622" 
d="M58 -48l49 170q44 -24 101.5 -40t106.5 -16q38 0 38 12q0 14 -42 24l-109 24q-80 18 -117 55t-37 98q0 69 51 115q-51 39 -51 111q0 83 74.5 134t203.5 51q143 0 238 -43l-58 -166q-102 52 -208 52q-38 0 -38 -14q0 -10 28 -17l113 -27q174 -42 174 -154q0 -70 -55 -122
q55 -41 55 -104q0 -84 -74 -137t-201 -53q-68 0 -135.5 14.5t-106.5 32.5zM330 324l-63 13q-17 -9 -17 -30t30 -29l61 -15q22 8 22 31q0 14 -7.5 19.5t-25.5 10.5z" />
    <glyph glyph-name="dieresis" unicode="&#xa8;" 
d="M69 657q0 87 108 87q106 0 106 -87q0 -88 -106 -88q-108 0 -108 88zM331 657q0 87 108 87q105 0 105 -87q0 -88 -105 -88q-108 0 -108 88z" />
    <glyph glyph-name="copyright" unicode="&#xa9;" horiz-adv-x="776" 
d="M38 339q0 151 100 251t249 100q151 0 251 -100t100 -251q0 -149 -100 -249t-251 -100q-149 0 -249 100t-100 249zM102 339q0 -124 81 -206.5t204 -82.5q125 0 206 82.5t81 206.5q0 126 -81 208.5t-206 82.5q-123 0 -204 -82.5t-81 -208.5zM341 340q0 -29 17 -45t46 -16
q39 0 76 26l50 -90q-58 -51 -134 -51q-84 0 -133.5 49.5t-49.5 126.5q0 75 49.5 124.5t133.5 49.5q76 0 134 -51l-50 -89q-40 26 -76 26q-29 0 -46 -16t-17 -44z" />
    <glyph glyph-name="ordfeminine" unicode="&#xaa;" horiz-adv-x="487" 
d="M334 303q-50 0 -76 39q-41 -39 -104 -39q-42 0 -73.5 26t-31.5 82q0 48 37.5 79t108.5 38q28 2 44 2v11q0 27 -38 27q-23 0 -53 -9t-47 -19l-24 122q53 18 134 23q3 0 8 0.5t8 0.5q91 0 123.5 -31t32.5 -99v-106q0 -27 17 -27q15 0 33 8l3 -111q-53 -17 -102 -17zM81 242
h328v-97h-328v97zM185 430q0 -28 27 -28q15 0 27 10v50q-11 0 -16 -1q-38 -5 -38 -31z" />
    <glyph glyph-name="guillemotleft" unicode="&#xab;" horiz-adv-x="598" 
d="M35 281v40l165 211h15l80 -33l-79 -198l79 -196l-80 -35h-15zM298 281v40l165 211h15l80 -33l-79 -198l79 -196l-80 -35h-15z" />
    <glyph glyph-name="logicalnot" unicode="&#xac;" horiz-adv-x="615" 
d="M380 112v166h-331v170h502l-1 -336h-170z" />
    <glyph glyph-name="uni00AD" unicode="&#xad;" horiz-adv-x="544" 
d="M56 388h432v-170h-432v170z" />
    <glyph glyph-name="registered" unicode="&#xae;" horiz-adv-x="776" 
d="M38 339q0 151 100 251t249 100q151 0 251 -100t100 -251q0 -149 -100 -249t-251 -100q-149 0 -249 100t-100 249zM102 339q0 -124 81 -206.5t204 -82.5q125 0 206 82.5t81 206.5q0 126 -81 208.5t-206 82.5q-123 0 -204 -82.5t-81 -208.5zM234 169v340h199q55 0 85.5 -31
t30.5 -79q0 -69 -60 -95l69 -110v-25h-124l-62 120h-11v-120h-127zM361 400v-30h43q15 0 15 15t-15 15h-43z" />
    <glyph glyph-name="macron" unicode="&#xaf;" 
d="M442 595h-271v120h271v-120z" />
    <glyph glyph-name="degree" unicode="&#xb0;" horiz-adv-x="463" 
d="M33 496q0 83 56.5 138.5t141.5 55.5t142 -55.5t57 -138.5q0 -82 -56.5 -137t-142.5 -55q-85 0 -141.5 54.5t-56.5 137.5zM165 496q0 -28 18.5 -48t47.5 -20q28 0 46.5 20t18.5 48q0 29 -18 49t-47 20t-47.5 -20.5t-18.5 -48.5z" />
    <glyph glyph-name="plusminus" unicode="&#xb1;" horiz-adv-x="618" 
d="M394 669v-166h166v-170h-166v-82h-170v82h-166v170h166v166h170zM58 189h502v-170h-502v170z" />
    <glyph glyph-name="twosuperior" unicode="&#xb2;" horiz-adv-x="359" 
d="M38 424v86l126 94q37 26 37 54q0 11 -7.5 18.5t-20.5 7.5q-44 0 -44 -51l-105 20q2 64 41.5 100.5t109.5 36.5q71 0 108.5 -33.5t37.5 -88.5q0 -65 -78 -116l-42 -27h127v-101h-290z" />
    <glyph glyph-name="threesuperior" unicode="&#xb3;" horiz-adv-x="341" 
d="M71 650h74q38 0 38 23q0 19 -38 19q-41 0 -97 -18l-25 98q52 18 122 18q156 0 156 -105q0 -25 -15.5 -44.5t-43.5 -28.5q71 -19 71 -88q0 -49 -41.5 -77t-126.5 -28q-60 0 -120 19l28 96q44 -17 92 -17t48 25q0 23 -48 23h-74v85z" />
    <glyph glyph-name="acute" unicode="&#xb4;" 
d="M454 741l-115 -168h-179l80 168h214z" />
    <glyph glyph-name="mu" unicode="&#xb5;" horiz-adv-x="664" 
d="M285 523v-210q0 -74 8.5 -98.5t46.5 -24.5q36 0 55 17v316h220v-523h-220v40q-47 -39 -110 -48v-180h-220v711h220z" />
    <glyph glyph-name="paragraph" unicode="&#xb6;" horiz-adv-x="615" 
d="M262 -188v379h-63q-76 0 -124 43.5t-48 122.5q0 78 48 121.5t124 44.5h162v-711h-99zM442 -188v711h99v-711h-99z" />
    <glyph glyph-name="periodcentered" unicode="&#xb7;" horiz-adv-x="335" 
d="M45 293q0 55 32 86t90 31t90.5 -31t32.5 -86t-32.5 -85.5t-90.5 -30.5t-90 30t-32 86z" />
    <glyph glyph-name="cedilla" unicode="&#xb8;" 
d="M199 -98l32 98h81l-16 -46q12 2 19 2q44 0 67.5 -19.5t23.5 -51.5q0 -38 -35.5 -60.5t-92.5 -22.5q-44 0 -84 10l16 64q38 -11 61 -11q42 0 42 16q0 18 -45 18q-28 0 -64 -3z" />
    <glyph glyph-name="onesuperior" unicode="&#xb9;" horiz-adv-x="295" 
d="M4 688l159 96h84v-360h-117v228l-81 -51z" />
    <glyph glyph-name="ordmasculine" unicode="&#xba;" horiz-adv-x="496" 
d="M49 496q0 83 56.5 138.5t141.5 55.5t142 -55.5t57 -138.5q0 -82 -56.5 -137t-142.5 -55q-85 0 -141.5 54.5t-56.5 137.5zM181 496q0 -28 18.5 -48t47.5 -20q28 0 46.5 20t18.5 48q0 29 -18 49t-47 20t-47.5 -20.5t-18.5 -48.5zM83 242h328v-97h-328v97z" />
    <glyph glyph-name="guillemotright" unicode="&#xbb;" horiz-adv-x="599" 
d="M301 321v-40l-165 -211h-15l-80 33l79 198l-79 196l80 35h15zM564 321v-40l-165 -211h-15l-80 33l79 198l-79 196l80 35h15z" />
    <glyph glyph-name="onequarter" unicode="&#xbc;" horiz-adv-x="860" 
d="M174 16l370 664h102v-15l-368 -665h-104v16zM821 55h-48v-55h-117v55h-176v74l136 231h157v-220h48v-85zM595 140h61v105zM26 588l159 96h84v-360h-117v228l-81 -51z" />
    <glyph glyph-name="onehalf" unicode="&#xbd;" horiz-adv-x="871" 
d="M175 16l370 664h102v-15l-368 -665h-104v16zM539 0v86l126 94q37 26 37 54q0 11 -7.5 18.5t-20.5 7.5q-44 0 -44 -51l-105 20q2 64 41.5 100.5t109.5 36.5q71 0 108.5 -33.5t37.5 -88.5q0 -65 -78 -116l-42 -27h127v-101h-290zM27 584l159 96h84v-360h-117v228l-81 -51z
" />
    <glyph glyph-name="threequarters" unicode="&#xbe;" horiz-adv-x="882" 
d="M204 16l370 664h102v-15l-368 -665h-104v16zM851 55h-48v-55h-117v55h-176v74l136 231h157v-220h48v-85zM625 140h61v105zM84 550h74q38 0 38 23q0 19 -38 19q-41 0 -97 -18l-25 98q52 18 122 18q156 0 156 -105q0 -25 -15.5 -44.5t-43.5 -28.5q71 -19 71 -88
q0 -49 -41.5 -77t-126.5 -28q-60 0 -120 19l28 96q44 -17 92 -17t48 25q0 23 -48 23h-74v85z" />
    <glyph glyph-name="questiondown" unicode="&#xbf;" horiz-adv-x="496" 
d="M198 261h177q17 -43 17 -70q0 -48 -60 -86l-56 -35q-24 -15 -24 -35q0 -23 28 -23t68.5 13.5t66.5 29.5l51 -174q-102 -49 -220 -49q-102 0 -159 51.5t-57 133.5q0 40 13 70.5t28.5 45.5t41.5 34l61 38q1 1 7 5.5t7 5.5t5 4.5t5 6t2 7t1 9.5q0 3 -3 18zM407 421
q0 -55 -32 -86t-90 -31t-90.5 31t-32.5 86t32.5 85.5t90.5 30.5t90 -30t32 -86z" />
    <glyph glyph-name="Agrave" unicode="&#xc0;" horiz-adv-x="740" 
d="M-7 0l247 680h260l247 -680h-222l-35 104h-241l-34 -104h-222zM370 464l-67 -200h134zM297 730l-115 168h214l80 -168h-179z" />
    <glyph glyph-name="Aacute" unicode="&#xc1;" horiz-adv-x="740" 
d="M-7 0l247 680h260l247 -680h-222l-35 104h-241l-34 -104h-222zM370 464l-67 -200h134zM556 898l-115 -168h-179l80 168h214z" />
    <glyph glyph-name="Acircumflex" unicode="&#xc2;" horiz-adv-x="740" 
d="M-7 0l247 680h260l247 -680h-222l-35 104h-241l-34 -104h-222zM370 464l-67 -200h134zM415 730l-46 67l-46 -67h-156l97 168h210l97 -168h-156z" />
    <glyph glyph-name="Atilde" unicode="&#xc3;" horiz-adv-x="740" 
d="M-7 0l247 680h260l247 -680h-222l-35 104h-241l-34 -104h-222zM370 464l-67 -200h134zM217 741l-53 56q21 46 53.5 73.5t70.5 27.5q44 0 93 -27.5t70 -27.5q42 0 67 44l55 -56q-28 -53 -57 -77t-68 -24t-91 27t-69 27q-39 0 -71 -43z" />
    <glyph glyph-name="Adieresis" unicode="&#xc4;" horiz-adv-x="740" 
d="M-7 0l247 680h260l247 -680h-222l-35 104h-241l-34 -104h-222zM370 464l-67 -200h134zM132 814q0 87 108 87q106 0 106 -87q0 -88 -106 -88q-108 0 -108 88zM394 814q0 87 108 87q105 0 105 -87q0 -88 -105 -88q-108 0 -108 88z" />
    <glyph glyph-name="Aring" unicode="&#xc5;" horiz-adv-x="740" 
d="M271 720q0 40 28.5 69t69.5 29t69.5 -29t28.5 -69q0 -22 -9 -40h42l247 -680h-222l-35 104h-241l-34 -104h-222l247 680h39q-8 19 -8 40zM370 464l-67 -200h134zM337 720q0 -14 9 -23t23 -9t23 9t9 23t-9 23t-23 9t-23 -9t-9 -23z" />
    <glyph glyph-name="AE" unicode="&#xc6;" horiz-adv-x="1076" 
d="M465 0v104h-211l-49 -104h-232l349 680h705v-191h-352v-59h279v-175h-279v-65h352v-190h-562zM332 264h133v276z" />
    <glyph glyph-name="Ccedilla" unicode="&#xc7;" horiz-adv-x="701" 
d="M307 -98l30 93q-133 20 -217.5 116t-84.5 229q0 149 104.5 249.5t261.5 100.5q155 0 274 -107l-98 -161q-28 21 -44.5 31.5t-50.5 22.5t-70 12q-68 0 -109 -43t-41 -105t41 -105t109 -43q36 0 70 12t50.5 22.5t44.5 31.5l98 -161q-111 -101 -259 -106l-12 -37q12 2 19 2
q44 0 67.5 -19.5t23.5 -51.5q0 -38 -35.5 -60.5t-92.5 -22.5q-44 0 -84 10l16 64q38 -11 61 -11q42 0 42 16q0 18 -45 18q-28 0 -64 -3z" />
    <glyph glyph-name="Egrave" unicode="&#xc8;" horiz-adv-x="683" 
d="M634 0h-562v680h562v-190h-352v-60h279v-175h-279v-65h352v-190zM281 730l-115 168h214l80 -168h-179z" />
    <glyph glyph-name="Eacute" unicode="&#xc9;" horiz-adv-x="683" 
d="M634 0h-562v680h562v-190h-352v-60h279v-175h-279v-65h352v-190zM540 898l-115 -168h-179l80 168h214z" />
    <glyph glyph-name="Ecircumflex" unicode="&#xca;" horiz-adv-x="683" 
d="M634 0h-562v680h562v-190h-352v-60h279v-175h-279v-65h352v-190zM400 730l-46 67l-46 -67h-156l97 168h210l97 -168h-156z" />
    <glyph glyph-name="Edieresis" unicode="&#xcb;" horiz-adv-x="683" 
d="M634 0h-562v680h562v-190h-352v-60h279v-175h-279v-65h352v-190zM116 814q0 87 108 87q106 0 106 -87q0 -88 -106 -88q-108 0 -108 88zM378 814q0 87 108 87q105 0 105 -87q0 -88 -105 -88q-108 0 -108 88z" />
    <glyph glyph-name="Igrave" unicode="&#xcc;" horiz-adv-x="364" 
d="M72 0v680h220v-680h-220zM99 730l-115 168h214l80 -168h-179z" />
    <glyph glyph-name="Iacute" unicode="&#xcd;" horiz-adv-x="364" 
d="M72 0v680h220v-680h-220zM378 898l-115 -168h-179l80 168h214z" />
    <glyph glyph-name="Icircumflex" unicode="&#xce;" horiz-adv-x="364" 
d="M72 0v680h220v-680h-220zM227 730l-46 67l-46 -67h-156l97 168h210l97 -168h-156z" />
    <glyph glyph-name="Idieresis" unicode="&#xcf;" horiz-adv-x="364" 
d="M72 0v680h220v-680h-220zM-56 814q0 87 108 87q106 0 106 -87q0 -88 -106 -88q-108 0 -108 88zM206 814q0 87 108 87q105 0 105 -87q0 -88 -105 -88q-108 0 -108 88z" />
    <glyph glyph-name="Eth" unicode="&#xd0;" horiz-adv-x="794" 
d="M386 285h-369v103h369v-103zM77 0v680h220v-680h-220zM195 490v190h211q156 -1 253.5 -90.5t97.5 -250.5q0 -160 -97.5 -249.5t-253.5 -89.5h-215v190h205q62 0 99 39.5t37 109.5q0 71 -37 111t-99 40h-201z" />
    <glyph glyph-name="Ntilde" unicode="&#xd1;" horiz-adv-x="824" 
d="M562 0l-270 330v-330h-220v680h190l270 -330v330h220v-680h-190zM259 741l-53 56q21 46 53.5 73.5t70.5 27.5q44 0 93 -27.5t70 -27.5q42 0 67 44l55 -56q-28 -53 -57 -77t-68 -24t-91 27t-69 27q-39 0 -71 -43z" />
    <glyph glyph-name="Ograve" unicode="&#xd2;" horiz-adv-x="770" 
d="M35 339q0 151 100 251t249 100q151 0 251 -100t100 -251q0 -149 -100 -249t-251 -100q-149 0 -249 100t-100 249zM249 339q0 -60 38 -101t97 -41q60 0 97.5 41t37.5 101q0 62 -37.5 103t-97.5 41q-59 0 -97 -41.5t-38 -102.5zM302 730l-115 168h214l80 -168h-179z" />
    <glyph glyph-name="Oacute" unicode="&#xd3;" horiz-adv-x="770" 
d="M35 339q0 151 100 251t249 100q151 0 251 -100t100 -251q0 -149 -100 -249t-251 -100q-149 0 -249 100t-100 249zM249 339q0 -60 38 -101t97 -41q60 0 97.5 41t37.5 101q0 62 -37.5 103t-97.5 41q-59 0 -97 -41.5t-38 -102.5zM581 898l-115 -168h-179l80 168h214z" />
    <glyph glyph-name="Ocircumflex" unicode="&#xd4;" horiz-adv-x="770" 
d="M35 339q0 151 100 251t249 100q151 0 251 -100t100 -251q0 -149 -100 -249t-251 -100q-149 0 -249 100t-100 249zM249 339q0 -60 38 -101t97 -41q60 0 97.5 41t37.5 101q0 62 -37.5 103t-97.5 41q-59 0 -97 -41.5t-38 -102.5zM430 730l-46 67l-46 -67h-156l97 168h210
l97 -168h-156z" />
    <glyph glyph-name="Otilde" unicode="&#xd5;" horiz-adv-x="770" 
d="M35 339q0 151 100 251t249 100q151 0 251 -100t100 -251q0 -149 -100 -249t-251 -100q-149 0 -249 100t-100 249zM249 339q0 -60 38 -101t97 -41q60 0 97.5 41t37.5 101q0 62 -37.5 103t-97.5 41q-59 0 -97 -41.5t-38 -102.5zM232 741l-53 56q21 46 53.5 73.5t70.5 27.5
q44 0 93 -27.5t70 -27.5q42 0 67 44l55 -56q-28 -53 -57 -77t-68 -24t-91 27t-69 27q-39 0 -71 -43z" />
    <glyph glyph-name="Odieresis" unicode="&#xd6;" horiz-adv-x="770" 
d="M35 339q0 151 100 251t249 100q151 0 251 -100t100 -251q0 -149 -100 -249t-251 -100q-149 0 -249 100t-100 249zM249 339q0 -60 38 -101t97 -41q60 0 97.5 41t37.5 101q0 62 -37.5 103t-97.5 41q-59 0 -97 -41.5t-38 -102.5zM146 814q0 87 108 87q106 0 106 -87
q0 -88 -106 -88q-108 0 -108 88zM408 814q0 87 108 87q105 0 105 -87q0 -88 -105 -88q-108 0 -108 88z" />
    <glyph glyph-name="multiply" unicode="&#xd7;" horiz-adv-x="560" 
d="M518 420l-118 -117l118 -117l-121 -121l-117 118l-117 -118l-121 121l118 117l-118 117l121 121l117 -118l117 118z" />
    <glyph glyph-name="Oslash" unicode="&#xd8;" horiz-adv-x="770" 
d="M35 339q0 151 100 251t249 100q106 0 190 -53l35 43h102v-15l-68 -84q92 -100 92 -242q0 -149 -100 -249t-251 -100q-101 0 -183 48l-31 -38h-104v16l64 78q-95 100 -95 245zM248 339q0 -42 20 -77l172 211q-29 12 -56 12q-59 0 -97.5 -42.5t-38.5 -103.5zM521 339
q0 38 -17 72l-169 -208q23 -9 49 -9q60 0 98.5 42.5t38.5 102.5z" />
    <glyph glyph-name="Ugrave" unicode="&#xd9;" horiz-adv-x="785" 
d="M283 680v-365q0 -59 28.5 -91t80.5 -32q53 0 82 32t29 91v365h220v-380q0 -131 -89 -220.5t-242 -89.5q-154 0 -241.5 86t-87.5 224v380h220zM310 730l-115 168h214l80 -168h-179z" />
    <glyph glyph-name="Uacute" unicode="&#xda;" horiz-adv-x="785" 
d="M283 680v-365q0 -59 28.5 -91t80.5 -32q53 0 82 32t29 91v365h220v-380q0 -131 -89 -220.5t-242 -89.5q-154 0 -241.5 86t-87.5 224v380h220zM589 898l-115 -168h-179l80 168h214z" />
    <glyph glyph-name="Ucircumflex" unicode="&#xdb;" horiz-adv-x="785" 
d="M283 680v-365q0 -59 28.5 -91t80.5 -32q53 0 82 32t29 91v365h220v-380q0 -131 -89 -220.5t-242 -89.5q-154 0 -241.5 86t-87.5 224v380h220zM438 730l-46 67l-46 -67h-156l97 168h210l97 -168h-156z" />
    <glyph glyph-name="Udieresis" unicode="&#xdc;" horiz-adv-x="785" 
d="M283 680v-365q0 -59 28.5 -91t80.5 -32q53 0 82 32t29 91v365h220v-380q0 -131 -89 -220.5t-242 -89.5q-154 0 -241.5 86t-87.5 224v380h220zM154 814q0 87 108 87q106 0 106 -87q0 -88 -106 -88q-108 0 -108 88zM416 814q0 87 108 87q105 0 105 -87q0 -88 -105 -88
q-108 0 -108 88z" />
    <glyph glyph-name="Yacute" unicode="&#xdd;" horiz-adv-x="696" 
d="M238 0v249l-246 416v15h245l111 -229l111 229h245v-15l-246 -415v-250h-220zM544 898l-115 -168h-179l80 168h214z" />
    <glyph glyph-name="Thorn" unicode="&#xde;" horiz-adv-x="728" 
d="M72 0v680h220v-77h143q111 0 184 -66.5t73 -192.5q0 -116 -74.5 -185.5t-182.5 -69.5h-143v-89h-220zM292 413v-134h110q28 0 46.5 19t18.5 48q0 28 -18.5 47.5t-46.5 19.5h-110z" />
    <glyph glyph-name="germandbls" unicode="&#xdf;" horiz-adv-x="708" 
d="M366 720q69 0 122 -20.5t82 -53t43.5 -67.5t14.5 -70q0 -40 -14 -72.5t-27.5 -51t-13.5 -24.5q0 -7 16.5 -25.5t37 -39.5t37 -55.5t16.5 -70.5q0 -91 -52 -135.5t-143 -44.5q-69 0 -149 23l29 175q26 -14 50 -14q26 0 26 24q0 16 -47 64t-47 72q0 28 28 71t28 79
q0 46 -57 46q-68 0 -68 -100v-430h-220v413q0 85 26.5 147.5t72 95.5t97.5 48.5t112 15.5z" />
    <glyph glyph-name="agrave" unicode="&#xe0;" horiz-adv-x="585" 
d="M232 573l-115 168h214l80 -168h-179zM103 331l-36 162q113 39 220 39q138 0 191.5 -56t53.5 -173v-303h-211v45q-59 -55 -138 -55q-75 0 -115 41t-40 112q0 84 64.5 131t173.5 47q30 0 55 -3v4q0 21 -13.5 29.5t-44.5 8.5q-68 0 -160 -29zM236 168q0 -42 43 -42
q20 0 42 12v77q-14 2 -20 2q-27 0 -46 -12.5t-19 -36.5z" />
    <glyph glyph-name="aacute" unicode="&#xe1;" horiz-adv-x="585" 
d="M495 741l-115 -168h-179l80 168h214zM103 331l-36 162q113 39 220 39q138 0 191.5 -56t53.5 -173v-303h-211v45q-59 -55 -138 -55q-75 0 -115 41t-40 112q0 84 64.5 131t173.5 47q30 0 55 -3v4q0 21 -13.5 29.5t-44.5 8.5q-68 0 -160 -29zM236 168q0 -42 43 -42
q20 0 42 12v77q-14 2 -20 2q-27 0 -46 -12.5t-19 -36.5z" />
    <glyph glyph-name="acircumflex" unicode="&#xe2;" horiz-adv-x="585" 
d="M342 573l-46 67l-46 -67h-156l97 168h210l97 -168h-156zM103 331l-36 162q113 39 220 39q138 0 191.5 -56t53.5 -173v-303h-211v45q-59 -55 -138 -55q-75 0 -115 41t-40 112q0 84 64.5 131t173.5 47q30 0 55 -3v4q0 21 -13.5 29.5t-44.5 8.5q-68 0 -160 -29zM236 168
q0 -42 43 -42q20 0 42 12v77q-14 2 -20 2q-27 0 -46 -12.5t-19 -36.5z" />
    <glyph glyph-name="atilde" unicode="&#xe3;" horiz-adv-x="585" 
d="M155 584l-53 56q21 46 53.5 73.5t70.5 27.5q44 0 93 -27.5t70 -27.5q42 0 67 44l55 -56q-28 -53 -57 -77t-68 -24t-91 27t-69 27q-39 0 -71 -43zM103 331l-36 162q113 39 220 39q138 0 191.5 -56t53.5 -173v-303h-211v45q-59 -55 -138 -55q-75 0 -115 41t-40 112
q0 84 64.5 131t173.5 47q30 0 55 -3v4q0 21 -13.5 29.5t-44.5 8.5q-68 0 -160 -29zM236 168q0 -42 43 -42q20 0 42 12v77q-14 2 -20 2q-27 0 -46 -12.5t-19 -36.5z" />
    <glyph glyph-name="adieresis" unicode="&#xe4;" horiz-adv-x="585" 
d="M62 657q0 87 108 87q106 0 106 -87q0 -88 -106 -88q-108 0 -108 88zM324 657q0 87 108 87q105 0 105 -87q0 -88 -105 -88q-108 0 -108 88zM103 331l-36 162q113 39 220 39q138 0 191.5 -56t53.5 -173v-303h-211v45q-59 -55 -138 -55q-75 0 -115 41t-40 112q0 84 64.5 131
t173.5 47q30 0 55 -3v4q0 21 -13.5 29.5t-44.5 8.5q-68 0 -160 -29zM236 168q0 -42 43 -42q20 0 42 12v77q-14 2 -20 2q-27 0 -46 -12.5t-19 -36.5z" />
    <glyph glyph-name="aring" unicode="&#xe5;" horiz-adv-x="585" 
d="M205 670q0 40 28.5 69t69.5 29t69.5 -29t28.5 -69t-28.5 -69t-69.5 -29t-69.5 29t-28.5 69zM271 670q0 -14 9 -23t23 -9t23 9t9 23t-9 23t-23 9t-23 -9t-9 -23zM103 331l-36 162q113 39 220 39q138 0 191.5 -56t53.5 -173v-303h-211v45q-59 -55 -138 -55q-75 0 -115 41
t-40 112q0 84 64.5 131t173.5 47q30 0 55 -3v4q0 21 -13.5 29.5t-44.5 8.5q-68 0 -160 -29zM236 168q0 -42 43 -42q20 0 42 12v77q-14 2 -20 2q-27 0 -46 -12.5t-19 -36.5z" />
    <glyph glyph-name="ae" unicode="&#xe6;" horiz-adv-x="878" 
d="M833 223h-299q5 -31 32 -52t71 -21q27 0 65.5 13.5t59.5 28.5l80 -135q-87 -71 -227 -71q-136 0 -196 74q-90 -70 -210 -70q-86 0 -134 41.5t-48 111.5q0 149 208 174q31 4 85 4q0 24 -15 31.5t-49 7.5q-32 0 -78 -10t-76 -23l-36 171q114 34 217 34q120 0 175 -49
q71 54 148 54q114 0 176 -62.5t62 -155.5q0 -66 -11 -96zM612 388q-31 0 -51.5 -18t-24.5 -47h141v3q0 62 -65 62zM234 167q0 -42 43 -42q25 0 45 16v75q-8 1 -20 1q-33 0 -50.5 -14t-17.5 -36z" />
    <glyph glyph-name="ccedilla" unicode="&#xe7;" horiz-adv-x="559" 
d="M229 -98l29 89q-110 18 -169 91t-59 180q0 122 76 198.5t216 76.5q123 0 215 -71l-90 -163q-49 36 -106 36q-44 0 -65.5 -22t-21.5 -55t21.5 -55.5t65.5 -22.5q57 0 106 36l90 -163q-84 -65 -200 -71l-11 -32q12 2 19 2q44 0 67.5 -19.5t23.5 -51.5q0 -38 -35.5 -60.5
t-92.5 -22.5q-44 0 -84 10l16 64q38 -11 61 -11q42 0 42 16q0 18 -45 18q-28 0 -64 -3z" />
    <glyph glyph-name="egrave" unicode="&#xe8;" horiz-adv-x="582" 
d="M466 192l80 -135q-87 -71 -227 -71q-142 0 -215.5 75t-73.5 199q0 121 77.5 199t202.5 78q114 0 176 -62.5t62 -155.5q0 -67 -11 -97h-299q5 -30 31.5 -51t71.5 -21q27 0 65.5 13.5t59.5 28.5zM381 324v3q0 61 -67 61q-29 0 -49.5 -17.5t-24.5 -46.5h141zM245 573
l-115 168h214l80 -168h-179z" />
    <glyph glyph-name="eacute" unicode="&#xe9;" horiz-adv-x="582" 
d="M466 192l80 -135q-87 -71 -227 -71q-142 0 -215.5 75t-73.5 199q0 121 77.5 199t202.5 78q114 0 176 -62.5t62 -155.5q0 -67 -11 -97h-299q5 -30 31.5 -51t71.5 -21q27 0 65.5 13.5t59.5 28.5zM381 324v3q0 61 -67 61q-29 0 -49.5 -17.5t-24.5 -46.5h141zM505 741
l-115 -168h-179l80 168h214z" />
    <glyph glyph-name="ecircumflex" unicode="&#xea;" horiz-adv-x="582" 
d="M466 192l80 -135q-87 -71 -227 -71q-142 0 -215.5 75t-73.5 199q0 121 77.5 199t202.5 78q114 0 176 -62.5t62 -155.5q0 -67 -11 -97h-299q5 -30 31.5 -51t71.5 -21q27 0 65.5 13.5t59.5 28.5zM381 324v3q0 61 -67 61q-29 0 -49.5 -17.5t-24.5 -46.5h141zM358 573l-46 67
l-46 -67h-156l97 168h210l97 -168h-156z" />
    <glyph glyph-name="edieresis" unicode="&#xeb;" horiz-adv-x="582" 
d="M466 192l80 -135q-87 -71 -227 -71q-142 0 -215.5 75t-73.5 199q0 121 77.5 199t202.5 78q114 0 176 -62.5t62 -155.5q0 -67 -11 -97h-299q5 -30 31.5 -51t71.5 -21q27 0 65.5 13.5t59.5 28.5zM381 324v3q0 61 -67 61q-29 0 -49.5 -17.5t-24.5 -46.5h141zM74 657
q0 87 108 87q106 0 106 -87q0 -88 -106 -88q-108 0 -108 88zM336 657q0 87 108 87q105 0 105 -87q0 -88 -105 -88q-108 0 -108 88z" />
    <glyph glyph-name="igrave" unicode="&#xec;" horiz-adv-x="338" 
d="M100 573l-115 168h214l80 -168h-179zM279 0h-220v523h220v-523z" />
    <glyph glyph-name="iacute" unicode="&#xed;" horiz-adv-x="338" 
d="M358 741l-115 -168h-179l80 168h214zM279 0h-220v523h220v-523z" />
    <glyph glyph-name="icircumflex" unicode="&#xee;" horiz-adv-x="338" 
d="M279 0h-220v523h220v-523zM214 573l-46 67l-46 -67h-156l97 168h210l97 -168h-156z" />
    <glyph glyph-name="idieresis" unicode="&#xef;" horiz-adv-x="338" 
d="M-67 657q0 87 108 87q106 0 106 -87q0 -88 -106 -88q-108 0 -108 88zM195 657q0 87 108 87q105 0 105 -87q0 -88 -105 -88q-108 0 -108 88zM279 0h-220v523h220v-523z" />
    <glyph glyph-name="eth" unicode="&#xf0;" horiz-adv-x="610" 
d="M440 694l-30 -32q75 -51 120 -134.5t45 -186.5q0 -162 -75.5 -256.5t-215.5 -94.5q-114 0 -184.5 66.5t-70.5 181.5q0 89 54.5 147.5t152.5 58.5q54 0 108 -30q-18 61 -65 106l-36 -39l-53 43l35 37q-25 14 -50 24l87 135q45 -8 86 -25l39 42zM292 190q51 0 59 78
q-34 16 -59 16q-21 0 -32.5 -13.5t-11.5 -34.5q0 -46 44 -46z" />
    <glyph glyph-name="ntilde" unicode="&#xf1;" horiz-adv-x="679" 
d="M59 523h220v-55q57 64 150 64q100 0 148.5 -64t48.5 -167v-301h-220v263q0 67 -64 67q-40 0 -63 -16v-314h-220v523zM191 584l-53 56q21 46 53.5 73.5t70.5 27.5q44 0 93 -27.5t70 -27.5q42 0 67 44l55 -56q-28 -53 -57 -77t-68 -24t-91 27t-69 27q-39 0 -71 -43z" />
    <glyph glyph-name="ograve" unicode="&#xf2;" horiz-adv-x="624" 
d="M28 260q0 119 80.5 198t202.5 79q123 0 204 -79t81 -198q0 -118 -81 -196t-204 -78q-122 0 -202.5 78t-80.5 196zM239 260q0 -31 20.5 -53.5t51.5 -22.5q33 0 53 22.5t20 53.5q0 32 -20 54.5t-53 22.5q-32 0 -52 -22.5t-20 -54.5zM229 573l-115 168h214l80 -168h-179z
" />
    <glyph glyph-name="oacute" unicode="&#xf3;" horiz-adv-x="624" 
d="M28 260q0 119 80.5 198t202.5 79q123 0 204 -79t81 -198q0 -118 -81 -196t-204 -78q-122 0 -202.5 78t-80.5 196zM239 260q0 -31 20.5 -53.5t51.5 -22.5q33 0 53 22.5t20 53.5q0 32 -20 54.5t-53 22.5q-32 0 -52 -22.5t-20 -54.5zM508 741l-115 -168h-179l80 168h214z
" />
    <glyph glyph-name="ocircumflex" unicode="&#xf4;" horiz-adv-x="624" 
d="M28 260q0 119 80.5 198t202.5 79q123 0 204 -79t81 -198q0 -118 -81 -196t-204 -78q-122 0 -202.5 78t-80.5 196zM239 260q0 -31 20.5 -53.5t51.5 -22.5q33 0 53 22.5t20 53.5q0 32 -20 54.5t-53 22.5q-32 0 -52 -22.5t-20 -54.5zM357 573l-46 67l-46 -67h-156l97 168
h210l97 -168h-156z" />
    <glyph glyph-name="otilde" unicode="&#xf5;" horiz-adv-x="624" 
d="M28 260q0 119 80.5 198t202.5 79q123 0 204 -79t81 -198q0 -118 -81 -196t-204 -78q-122 0 -202.5 78t-80.5 196zM239 260q0 -31 20.5 -53.5t51.5 -22.5q33 0 53 22.5t20 53.5q0 32 -20 54.5t-53 22.5q-32 0 -52 -22.5t-20 -54.5zM159 584l-53 56q21 46 53.5 73.5
t70.5 27.5q44 0 93 -27.5t70 -27.5q42 0 67 44l55 -56q-28 -53 -57 -77t-68 -24t-91 27t-69 27q-39 0 -71 -43z" />
    <glyph glyph-name="odieresis" unicode="&#xf6;" horiz-adv-x="624" 
d="M28 260q0 119 80.5 198t202.5 79q123 0 204 -79t81 -198q0 -118 -81 -196t-204 -78q-122 0 -202.5 78t-80.5 196zM239 260q0 -31 20.5 -53.5t51.5 -22.5q33 0 53 22.5t20 53.5q0 32 -20 54.5t-53 22.5q-32 0 -52 -22.5t-20 -54.5zM73 657q0 87 108 87q106 0 106 -87
q0 -88 -106 -88q-108 0 -108 88zM335 657q0 87 108 87q105 0 105 -87q0 -88 -105 -88q-108 0 -108 88z" />
    <glyph glyph-name="divide" unicode="&#xf7;" horiz-adv-x="572" 
d="M35 388h502v-170h-502v170zM185 516q0 48 27.5 74.5t77.5 26.5t78 -27t28 -74q0 -48 -28 -74t-78 -26t-77.5 26t-27.5 74zM185 87q0 48 27.5 74.5t77.5 26.5t78 -27t28 -74q0 -48 -28 -74t-78 -26t-77.5 26t-27.5 74z" />
    <glyph glyph-name="oslash" unicode="&#xf8;" horiz-adv-x="624" 
d="M28 260q0 119 80.5 198t202.5 79q89 0 158 -44l25 30h68v-15l-45 -53q79 -79 79 -195q0 -118 -81 -196t-204 -78q-85 0 -153 40l-21 -26h-70v16l41 49q-80 78 -80 195zM239 260q0 -17 6 -32l89 105q-9 4 -23 4q-32 0 -52 -22.5t-20 -54.5zM384 260q0 15 -5 30l-87 -104
q12 -2 19 -2q33 0 53 22.5t20 53.5z" />
    <glyph glyph-name="ugrave" unicode="&#xf9;" horiz-adv-x="679" 
d="M620 0h-220v55q-57 -64 -150 -64q-100 0 -148.5 64t-48.5 167v301h220v-263q0 -67 59 -67q45 0 68 16v314h220v-523zM249 573l-115 168h214l80 -168h-179z" />
    <glyph glyph-name="uacute" unicode="&#xfa;" horiz-adv-x="679" 
d="M620 0h-220v55q-57 -64 -150 -64q-100 0 -148.5 64t-48.5 167v301h220v-263q0 -67 59 -67q45 0 68 16v314h220v-523zM541 741l-115 -168h-179l80 168h214z" />
    <glyph glyph-name="ucircumflex" unicode="&#xfb;" horiz-adv-x="679" 
d="M620 0h-220v55q-57 -64 -150 -64q-100 0 -148.5 64t-48.5 167v301h220v-263q0 -67 59 -67q45 0 68 16v314h220v-523zM382 573l-46 67l-46 -67h-156l97 168h210l97 -168h-156z" />
    <glyph glyph-name="udieresis" unicode="&#xfc;" horiz-adv-x="679" 
d="M620 0h-220v55q-57 -64 -150 -64q-100 0 -148.5 64t-48.5 167v301h220v-263q0 -67 59 -67q45 0 68 16v314h220v-523zM99 657q0 87 108 87q106 0 106 -87q0 -88 -106 -88q-108 0 -108 88zM361 657q0 87 108 87q105 0 105 -87q0 -88 -105 -88q-108 0 -108 88z" />
    <glyph glyph-name="yacute" unicode="&#xfd;" horiz-adv-x="619" 
d="M393 522q37 0 110 0.5t110 0.5l-192 -494q-49 -126 -104.5 -176.5t-155.5 -50.5q-69 0 -120 34l29 156q45 -20 82 -20q39 0 57 41l5 11l-223 499h243l74 -284zM504 741l-115 -168h-179l80 168h214z" />
    <glyph glyph-name="thorn" unicode="&#xfe;" horiz-adv-x="677" 
d="M646 260q0 -118 -65.5 -194t-168.5 -76q-79 0 -133 54v-232h-220v898h220v-233q50 55 133 55q103 0 168.5 -76t65.5 -196zM422 260q0 39 -20 60.5t-55 21.5q-42 0 -68 -21v-120q29 -21 68 -21q35 0 55 21t20 59z" />
    <glyph glyph-name="ydieresis" unicode="&#xff;" horiz-adv-x="619" 
d="M393 522q37 0 110 0.5t110 0.5l-192 -494q-49 -126 -104.5 -176.5t-155.5 -50.5q-69 0 -120 34l29 156q45 -20 82 -20q39 0 57 41l5 11l-223 499h243l74 -284zM72 657q0 87 108 87q106 0 106 -87q0 -88 -106 -88q-108 0 -108 88zM334 657q0 87 108 87q105 0 105 -87
q0 -88 -105 -88q-108 0 -108 88z" />
    <glyph glyph-name="Amacron" unicode="&#x100;" horiz-adv-x="740" 
d="M-7 0l247 680h260l247 -680h-222l-35 104h-241l-34 -104h-222zM370 464l-67 -200h134zM505 752h-271v120h271v-120z" />
    <glyph glyph-name="amacron" unicode="&#x101;" horiz-adv-x="585" 
d="M445 595h-271v120h271v-120zM103 331l-36 162q113 39 220 39q138 0 191.5 -56t53.5 -173v-303h-211v45q-59 -55 -138 -55q-75 0 -115 41t-40 112q0 84 64.5 131t173.5 47q30 0 55 -3v4q0 21 -13.5 29.5t-44.5 8.5q-68 0 -160 -29zM236 168q0 -42 43 -42q20 0 42 12v77
q-14 2 -20 2q-27 0 -46 -12.5t-19 -36.5z" />
    <glyph glyph-name="Abreve" unicode="&#x102;" horiz-adv-x="740" 
d="M-7 0l247 680h260l247 -680h-222l-35 104h-241l-34 -104h-222zM370 464l-67 -200h134zM205 826l48 70q17 -18 48.5 -32t67.5 -14q35 0 66.5 14t49.5 33l48 -71q-52 -91 -163 -91t-165 91z" />
    <glyph glyph-name="abreve" unicode="&#x103;" horiz-adv-x="585" 
d="M141 669l48 70q17 -18 48.5 -32t67.5 -14q35 0 66.5 14t49.5 33l48 -71q-52 -91 -163 -91t-165 91zM103 331l-36 162q113 39 220 39q138 0 191.5 -56t53.5 -173v-303h-211v45q-59 -55 -138 -55q-75 0 -115 41t-40 112q0 84 64.5 131t173.5 47q30 0 55 -3v4
q0 21 -13.5 29.5t-44.5 8.5q-68 0 -160 -29zM236 168q0 -42 43 -42q20 0 42 12v77q-14 2 -20 2q-27 0 -46 -12.5t-19 -36.5z" />
    <glyph glyph-name="Aogonek" unicode="&#x104;" horiz-adv-x="740" 
d="M-7 0l247 680h260l247 -680h-75q-32 -1 -49.5 -18.5t-17.5 -41.5q0 -44 43 -44q22 0 50 21l20 -87q-40 -28 -98 -28q-52 0 -82 29.5t-30 76.5q0 63 51 92h-34l-35 104h-241l-34 -104h-222zM370 464l-67 -200h134z" />
    <glyph glyph-name="aogonek" unicode="&#x105;" horiz-adv-x="585" 
d="M103 331l-36 162q113 39 220 39q138 0 191.5 -56t53.5 -173v-303h-28q-35 0 -54.5 -17.5t-19.5 -42.5q0 -44 43 -44q22 0 50 21l20 -87q-40 -28 -98 -28q-52 0 -82 29.5t-30 76.5q0 63 51 92h-63v45q-59 -55 -138 -55q-75 0 -115 41t-40 112q0 84 64.5 131t173.5 47
q30 0 55 -3v4q0 21 -13.5 29.5t-44.5 8.5q-68 0 -160 -29zM236 168q0 -42 43 -42q20 0 42 12v77q-14 2 -20 2q-27 0 -46 -12.5t-19 -36.5z" />
    <glyph glyph-name="Cacute" unicode="&#x106;" horiz-adv-x="700" 
d="M261 340q0 -62 41 -105t109 -43q36 0 70 12t50.5 22.5t44.5 31.5l98 -161q-119 -107 -274 -107q-157 0 -261.5 100.5t-104.5 249.5t104.5 249.5t261.5 100.5q155 0 274 -107l-98 -161q-28 21 -44.5 31.5t-50.5 22.5t-70 12q-68 0 -109 -43t-41 -105zM611 898l-115 -168
h-179l80 168h214z" />
    <glyph glyph-name="cacute" unicode="&#x107;" horiz-adv-x="557" 
d="M29 262q0 122 76 198.5t216 76.5q123 0 215 -71l-90 -163q-50 36 -106 36q-44 0 -65.5 -22t-21.5 -55t21.5 -55.5t65.5 -22.5q56 0 106 36l90 -163q-92 -71 -215 -71q-139 0 -215.5 77t-76.5 199zM518 741l-115 -168h-179l80 168h214z" />
    <glyph glyph-name="Ccircumflex" unicode="&#x108;" horiz-adv-x="700" 
d="M261 340q0 -62 41 -105t109 -43q36 0 70 12t50.5 22.5t44.5 31.5l98 -161q-119 -107 -274 -107q-157 0 -261.5 100.5t-104.5 249.5t104.5 249.5t261.5 100.5q155 0 274 -107l-98 -161q-28 21 -44.5 31.5t-50.5 22.5t-70 12q-68 0 -109 -43t-41 -105zM450 730l-46 67
l-46 -67h-156l97 168h210l97 -168h-156z" />
    <glyph glyph-name="ccircumflex" unicode="&#x109;" horiz-adv-x="557" 
d="M29 262q0 122 76 198.5t216 76.5q123 0 215 -71l-90 -163q-50 36 -106 36q-44 0 -65.5 -22t-21.5 -55t21.5 -55.5t65.5 -22.5q56 0 106 36l90 -163q-92 -71 -215 -71q-139 0 -215.5 77t-76.5 199zM370 573l-46 67l-46 -67h-156l97 168h210l97 -168h-156z" />
    <glyph glyph-name="Cdotaccent" unicode="&#x10a;" horiz-adv-x="700" 
d="M261 340q0 -62 41 -105t109 -43q36 0 70 12t50.5 22.5t44.5 31.5l98 -161q-119 -107 -274 -107q-157 0 -261.5 100.5t-104.5 249.5t104.5 249.5t261.5 100.5q155 0 274 -107l-98 -161q-28 21 -44.5 31.5t-50.5 22.5t-70 12q-68 0 -109 -43t-41 -105zM281 816q0 93 117 93
q115 0 115 -93q0 -94 -115 -94q-117 0 -117 94z" />
    <glyph glyph-name="cdotaccent" unicode="&#x10b;" horiz-adv-x="557" 
d="M29 262q0 122 76 198.5t216 76.5q123 0 215 -71l-90 -163q-50 36 -106 36q-44 0 -65.5 -22t-21.5 -55t21.5 -55.5t65.5 -22.5q56 0 106 36l90 -163q-92 -71 -215 -71q-139 0 -215.5 77t-76.5 199zM206 659q0 93 117 93q115 0 115 -93q0 -94 -115 -94q-117 0 -117 94z" />
    <glyph glyph-name="Ccaron" unicode="&#x10c;" horiz-adv-x="700" 
d="M261 340q0 -62 41 -105t109 -43q36 0 70 12t50.5 22.5t44.5 31.5l98 -161q-119 -107 -274 -107q-157 0 -261.5 100.5t-104.5 249.5t104.5 249.5t261.5 100.5q155 0 274 -107l-98 -161q-28 21 -44.5 31.5t-50.5 22.5t-70 12q-68 0 -109 -43t-41 -105zM360 898l46 -67
l46 67h156l-97 -168h-210l-97 168h156z" />
    <glyph glyph-name="ccaron" unicode="&#x10d;" horiz-adv-x="557" 
d="M29 262q0 122 76 198.5t216 76.5q123 0 215 -71l-90 -163q-50 36 -106 36q-44 0 -65.5 -22t-21.5 -55t21.5 -55.5t65.5 -22.5q56 0 106 36l90 -163q-92 -71 -215 -71q-139 0 -215.5 77t-76.5 199zM278 741l46 -67l46 67h156l-97 -168h-210l-97 168h156z" />
    <glyph glyph-name="Dcaron" unicode="&#x10e;" horiz-adv-x="789" 
d="M72 0v680h329q156 -1 253.5 -90.5t97.5 -250.5q0 -160 -97.5 -249.5t-253.5 -89.5h-329zM391 490h-99v-300h99q61 0 97.5 39.5t36.5 109.5q0 71 -36 111t-98 40zM305 898l46 -67l46 67h156l-97 -168h-210l-97 168h156z" />
    <glyph glyph-name="dcaron" unicode="&#x10f;" horiz-adv-x="812" 
d="M31 262q0 119 65.5 194.5t168.5 75.5q77 0 134 -55v233h220v-710h-220v46q-53 -56 -134 -56q-103 0 -168.5 76.5t-65.5 195.5zM255 262q0 -39 20 -60.5t55 -21.5q41 0 69 20v122q-27 20 -69 20q-34 0 -54.5 -21t-20.5 -59zM699 457l24 60q-64 18 -64 83q0 41 28 65t70 24
q119 0 119 -107q0 -67 -78 -161z" />
    <glyph glyph-name="Dcroat" unicode="&#x110;" horiz-adv-x="794" 
d="M77 388v292h329q156 -1 253.5 -90.5t97.5 -250.5q0 -160 -97.5 -249.5t-253.5 -89.5h-329v285h-60v103h60zM297 388h89v-103h-89v-95h99q62 0 99 39.5t37 109.5q0 71 -37 111t-99 40h-99v-102z" />
    <glyph glyph-name="dcroat" unicode="&#x111;" horiz-adv-x="678" 
d="M31 262q0 119 65.5 194.5t168.5 75.5q77 0 134 -55v89h-80v103h80v41h220v-41h69v-103h-69v-566h-220v46q-53 -56 -134 -56q-103 0 -168.5 76.5t-65.5 195.5zM255 262q0 -39 20 -60.5t55 -21.5q41 0 69 20v122q-27 20 -69 20q-34 0 -54.5 -21t-20.5 -59z" />
    <glyph glyph-name="Emacron" unicode="&#x112;" horiz-adv-x="683" 
d="M634 0h-562v680h562v-190h-352v-60h279v-175h-279v-65h352v-190zM490 752h-271v120h271v-120z" />
    <glyph glyph-name="emacron" unicode="&#x113;" horiz-adv-x="582" 
d="M466 192l80 -135q-87 -71 -227 -71q-142 0 -215.5 75t-73.5 199q0 121 77.5 199t202.5 78q114 0 176 -62.5t62 -155.5q0 -67 -11 -97h-299q5 -30 31.5 -51t71.5 -21q27 0 65.5 13.5t59.5 28.5zM381 324v3q0 61 -67 61q-29 0 -49.5 -17.5t-24.5 -46.5h141zM447 595h-271
v120h271v-120z" />
    <glyph glyph-name="Ebreve" unicode="&#x114;" horiz-adv-x="683" 
d="M634 0h-562v680h562v-190h-352v-60h279v-175h-279v-65h352v-190zM189 826l48 70q17 -18 48.5 -32t67.5 -14q35 0 66.5 14t49.5 33l48 -71q-52 -91 -163 -91t-165 91z" />
    <glyph glyph-name="ebreve" unicode="&#x115;" horiz-adv-x="582" 
d="M466 192l80 -135q-87 -71 -227 -71q-142 0 -215.5 75t-73.5 199q0 121 77.5 199t202.5 78q114 0 176 -62.5t62 -155.5q0 -67 -11 -97h-299q5 -30 31.5 -51t71.5 -21q27 0 65.5 13.5t59.5 28.5zM381 324v3q0 61 -67 61q-29 0 -49.5 -17.5t-24.5 -46.5h141zM150 669l48 70
q17 -18 48.5 -32t67.5 -14q35 0 66.5 14t49.5 33l48 -71q-52 -91 -163 -91t-165 91z" />
    <glyph glyph-name="Edotaccent" unicode="&#x116;" horiz-adv-x="683" 
d="M634 0h-562v680h562v-190h-352v-60h279v-175h-279v-65h352v-190zM237 816q0 93 117 93q115 0 115 -93q0 -94 -115 -94q-117 0 -117 94z" />
    <glyph glyph-name="edotaccent" unicode="&#x117;" horiz-adv-x="582" 
d="M466 192l80 -135q-87 -71 -227 -71q-142 0 -215.5 75t-73.5 199q0 121 77.5 199t202.5 78q114 0 176 -62.5t62 -155.5q0 -67 -11 -97h-299q5 -30 31.5 -51t71.5 -21q27 0 65.5 13.5t59.5 28.5zM381 324v3q0 61 -67 61q-29 0 -49.5 -17.5t-24.5 -46.5h141zM198 659
q0 93 117 93q115 0 115 -93q0 -94 -115 -94q-117 0 -117 94z" />
    <glyph glyph-name="Eogonek" unicode="&#x118;" horiz-adv-x="683" 
d="M634 0h-30q-32 -1 -49.5 -18.5t-17.5 -41.5q0 -44 43 -44q22 0 50 21l20 -87q-40 -28 -98 -28q-52 0 -82 29.5t-30 76.5q0 63 51 92h-419v680h562v-190h-352v-60h279v-175h-279v-65h352v-190z" />
    <glyph glyph-name="eogonek" unicode="&#x119;" horiz-adv-x="583" 
d="M537 223h-299q5 -30 32 -51.5t71 -21.5q27 0 65.5 13.5t59.5 28.5l80 -135q-59 -49 -152 -64q-47 -17 -47 -53q0 -44 43 -44q22 0 50 21l20 -87q-40 -28 -103 -28q-49 0 -78 29.5t-29 76.5q0 49 34 80q-125 9 -189.5 82.5t-64.5 189.5q0 121 77.5 199t202.5 78
q114 0 176 -62.5t62 -155.5q0 -66 -11 -96zM310 388q-27 0 -46.5 -18t-23.5 -47h141q0 10 -4 24q-15 41 -67 41z" />
    <glyph glyph-name="Ecaron" unicode="&#x11a;" horiz-adv-x="683" 
d="M634 0h-562v680h562v-190h-352v-60h279v-175h-279v-65h352v-190zM308 898l46 -67l46 67h156l-97 -168h-210l-97 168h156z" />
    <glyph glyph-name="ecaron" unicode="&#x11b;" horiz-adv-x="582" 
d="M466 192l80 -135q-87 -71 -227 -71q-142 0 -215.5 75t-73.5 199q0 121 77.5 199t202.5 78q114 0 176 -62.5t62 -155.5q0 -67 -11 -97h-299q5 -30 31.5 -51t71.5 -21q27 0 65.5 13.5t59.5 28.5zM381 324v3q0 61 -67 61q-29 0 -49.5 -17.5t-24.5 -46.5h141zM264 741l46 -67
l46 67h156l-97 -168h-210l-97 168h156z" />
    <glyph glyph-name="Gcircumflex" unicode="&#x11c;" horiz-adv-x="742" 
d="M695 402v-313q-48 -40 -135 -69.5t-163 -29.5q-156 0 -259 94.5t-103 254.5q0 161 103 256t259 95q155 0 272 -88l-99 -166q-70 52 -168 52q-62 0 -101 -39.5t-39 -109.5t40.5 -108.5t109.5 -38.5q39 0 90 16v52h-134v142h327zM445 730l-46 67l-46 -67h-156l97 168h210
l97 -168h-156z" />
    <glyph glyph-name="gcircumflex" unicode="&#x11d;" horiz-adv-x="676" 
d="M31 280q0 106 66 179t168 73q81 0 133 -55v46h220v-438q0 -136 -83.5 -209.5t-204.5 -73.5t-229 47l44 152q85 -38 160 -38q93 0 93 75v34q-53 -42 -133 -42q-102 0 -168 72.5t-66 177.5zM255 280q0 -60 75 -60q39 0 68 21v80q-26 21 -68 21q-75 0 -75 -62zM392 573
l-46 67l-46 -67h-156l97 168h210l97 -168h-156z" />
    <glyph glyph-name="Gbreve" unicode="&#x11e;" horiz-adv-x="742" 
d="M695 402v-313q-48 -40 -135 -69.5t-163 -29.5q-156 0 -259 94.5t-103 254.5q0 161 103 256t259 95q155 0 272 -88l-99 -166q-70 52 -168 52q-62 0 -101 -39.5t-39 -109.5t40.5 -108.5t109.5 -38.5q39 0 90 16v52h-134v142h327zM235 826l48 70q17 -18 48.5 -32t67.5 -14
q35 0 66.5 14t49.5 33l48 -71q-52 -91 -163 -91t-165 91z" />
    <glyph glyph-name="gbreve" unicode="&#x11f;" horiz-adv-x="676" 
d="M31 280q0 106 66 179t168 73q81 0 133 -55v46h220v-438q0 -136 -83.5 -209.5t-204.5 -73.5t-229 47l44 152q85 -38 160 -38q93 0 93 75v34q-53 -42 -133 -42q-102 0 -168 72.5t-66 177.5zM255 280q0 -60 75 -60q39 0 68 21v80q-26 21 -68 21q-75 0 -75 -62zM182 669
l48 70q17 -18 48.5 -32t67.5 -14q35 0 66.5 14t49.5 33l48 -71q-52 -91 -163 -91t-165 91z" />
    <glyph glyph-name="Gdotaccent" unicode="&#x120;" horiz-adv-x="742" 
d="M695 402v-313q-48 -40 -135 -69.5t-163 -29.5q-156 0 -259 94.5t-103 254.5q0 161 103 256t259 95q155 0 272 -88l-99 -166q-70 52 -168 52q-62 0 -101 -39.5t-39 -109.5t40.5 -108.5t109.5 -38.5q39 0 90 16v52h-134v142h327zM283 816q0 93 117 93q115 0 115 -93
q0 -94 -115 -94q-117 0 -117 94z" />
    <glyph glyph-name="gdotaccent" unicode="&#x121;" horiz-adv-x="676" 
d="M31 280q0 106 66 179t168 73q81 0 133 -55v46h220v-438q0 -136 -83.5 -209.5t-204.5 -73.5t-229 47l44 152q85 -38 160 -38q93 0 93 75v34q-53 -42 -133 -42q-102 0 -168 72.5t-66 177.5zM255 280q0 -60 75 -60q39 0 68 21v80q-26 21 -68 21q-75 0 -75 -62zM240 659
q0 93 117 93q115 0 115 -93q0 -94 -115 -94q-117 0 -117 94z" />
    <glyph glyph-name="Gcommaaccent" unicode="&#x122;" horiz-adv-x="742" 
d="M695 402v-313q-48 -40 -135 -69.5t-163 -29.5q-156 0 -259 94.5t-103 254.5q0 161 103 256t259 95q155 0 272 -88l-99 -166q-70 52 -168 52q-62 0 -101 -39.5t-39 -109.5t40.5 -108.5t109.5 -38.5q39 0 90 16v52h-134v142h327zM314 -280l24 60q-64 18 -64 83q0 41 28 65
t70 24q119 0 119 -107q0 -67 -78 -161z" />
    <glyph glyph-name="gcommaaccent" unicode="&#x123;" horiz-adv-x="676" 
d="M31 280q0 106 66 179t168 73q81 0 133 -55v46h220v-438q0 -136 -83.5 -209.5t-204.5 -73.5t-229 47l44 152q85 -38 160 -38q93 0 93 75v34q-53 -42 -133 -42q-102 0 -168 72.5t-66 177.5zM255 280q0 -60 75 -60q39 0 68 21v80q-26 21 -68 21q-75 0 -75 -62zM408 793
l-24 -60q64 -18 64 -83q0 -41 -28 -65t-70 -24q-119 0 -119 107q0 67 78 161z" />
    <glyph glyph-name="Hcircumflex" unicode="&#x124;" horiz-adv-x="824" 
d="M532 0v250h-240v-250h-220v680h220v-240h240v240h220v-680h-220zM457 730l-46 67l-46 -67h-156l97 168h210l97 -168h-156z" />
    <glyph glyph-name="hcircumflex" unicode="&#x125;" horiz-adv-x="679" 
d="M59 710h220v-241q59 63 150 63q100 0 148.5 -64t48.5 -167v-301h-220v263q0 67 -61 67q-43 0 -66 -16v-314h-220v710zM378 751l-46 67l-46 -67h-156l97 168h210l97 -168h-156z" />
    <glyph glyph-name="Hbar" unicode="&#x126;" horiz-adv-x="830" 
d="M75 0v506h-44v103h44v71h220v-71h240v71h220v-71h46v-103h-46v-506h-220v250h-240v-250h-220zM295 506v-66h240v66h-240z" />
    <glyph glyph-name="hbar" unicode="&#x127;" horiz-adv-x="679" 
d="M59 710h220v-41h89v-103h-89v-97q59 63 150 63q100 0 148.5 -64t48.5 -167v-301h-220v263q0 67 -61 67q-43 0 -66 -16v-314h-220v566h-60v103h60v41z" />
    <glyph glyph-name="Itilde" unicode="&#x128;" horiz-adv-x="364" 
d="M72 0v680h220v-680h-220zM30 741l-53 56q21 46 53.5 73.5t70.5 27.5q44 0 93 -27.5t70 -27.5q42 0 67 44l55 -56q-28 -53 -57 -77t-68 -24t-91 27t-69 27q-39 0 -71 -43z" />
    <glyph glyph-name="itilde" unicode="&#x129;" horiz-adv-x="338" 
d="M14 584l-53 56q21 46 53.5 73.5t70.5 27.5q44 0 93 -27.5t70 -27.5q42 0 67 44l55 -56q-28 -53 -57 -77t-68 -24t-91 27t-69 27q-39 0 -71 -43zM279 0h-220v523h220v-523z" />
    <glyph glyph-name="Imacron" unicode="&#x12a;" horiz-adv-x="364" 
d="M72 0v680h220v-680h-220zM317 752h-271v120h271v-120z" />
    <glyph glyph-name="imacron" unicode="&#x12b;" horiz-adv-x="338" 
d="M302 595h-271v120h271v-120zM279 0h-220v523h220v-523z" />
    <glyph glyph-name="Ibreve" unicode="&#x12c;" horiz-adv-x="364" 
d="M72 0v680h220v-680h-220zM17 826l48 70q17 -18 48.5 -32t67.5 -14q35 0 66.5 14t49.5 33l48 -71q-52 -91 -163 -91t-165 91z" />
    <glyph glyph-name="ibreve" unicode="&#x12d;" horiz-adv-x="338" 
d="M5 669l48 70q17 -18 48.5 -32t67.5 -14q35 0 66.5 14t49.5 33l48 -71q-52 -91 -163 -91t-165 91zM279 0h-220v523h220v-523z" />
    <glyph glyph-name="Iogonek" unicode="&#x12e;" horiz-adv-x="364" 
d="M72 0v680h220v-680h-58q-32 -1 -49.5 -18.5t-17.5 -41.5q0 -44 43 -44q22 0 50 21l20 -87q-40 -28 -98 -28q-52 0 -82 29.5t-30 76.5q0 63 51 92h-49z" />
    <glyph glyph-name="iogonek" unicode="&#x12f;" horiz-adv-x="338" 
d="M59 0v523h220v-523h-30q-35 0 -54.5 -17.5t-19.5 -42.5q0 -44 43 -44q22 0 50 21l20 -87q-40 -28 -98 -28q-52 0 -82 29.5t-30 76.5q0 63 51 92h-70zM53 659q0 93 117 93q115 0 115 -93q0 -94 -115 -94q-117 0 -117 94z" />
    <glyph glyph-name="Idotaccent" unicode="&#x130;" horiz-adv-x="364" 
d="M72 0v680h220v-680h-220zM65 816q0 93 117 93q115 0 115 -93q0 -94 -115 -94q-117 0 -117 94z" />
    <glyph glyph-name="dotlessi" unicode="&#x131;" horiz-adv-x="338" 
d="M279 0h-220v523h220v-523z" />
    <glyph glyph-name="IJ" unicode="&#x132;" horiz-adv-x="1022" 
d="M72 0v680h220v-680h-220zM737 680h220v-397q0 -136 -70 -214.5t-213 -78.5q-141 0 -207 73.5t-75 209.5l216 20q2 -24 3.5 -37t6 -29.5t11 -24.5t18 -14t27.5 -6q39 0 51 27.5t12 87.5v383z" />
    <glyph glyph-name="ij" unicode="&#x133;" horiz-adv-x="737" 
d="M53 659q0 93 117 93q115 0 115 -93q0 -94 -115 -94q-117 0 -117 94zM59 0v523h220v-523h-220zM459 523h220v-445q0 -106 -42 -170t-111 -105l-133 123q66 54 66 133v464zM454 659q0 93 116 93q115 0 115 -93q0 -94 -115 -94q-116 0 -116 94z" />
    <glyph glyph-name="Jcircumflex" unicode="&#x134;" horiz-adv-x="637" 
d="M352 680h220v-397q0 -136 -70 -214.5t-213 -78.5q-141 0 -207 73.5t-75 209.5l216 20q2 -24 3.5 -37t6 -29.5t11 -24.5t18 -14t27.5 -6q39 0 51 27.5t12 87.5v383zM500 730l-46 67l-46 -67h-156l97 168h210l97 -168h-156z" />
    <glyph glyph-name="jcircumflex" unicode="&#x135;" horiz-adv-x="338" 
d="M127 -197l-133 123q66 54 66 133v464h220v-445q0 -106 -42 -170t-111 -105zM216 573l-46 67l-46 -67h-156l97 168h210l97 -168h-156z" />
    <glyph glyph-name="Kcommaaccent" unicode="&#x136;" horiz-adv-x="761" 
d="M72 0v680h220v-244h65l163 244h224v-33l-219 -310l220 -317v-20h-241l-154 246h-58v-246h-220zM321 -280l24 60q-64 18 -64 83q0 41 28 65t70 24q119 0 119 -107q0 -67 -78 -161z" />
    <glyph glyph-name="kcommaaccent" unicode="&#x137;" horiz-adv-x="670" 
d="M646 523v-36l-166 -217l171 -233v-37h-229l-143 221v-221h-220v710h220v-398l137 211h230zM268 -280l24 60q-64 18 -64 83q0 41 28 65t70 24q119 0 119 -107q0 -67 -78 -161z" />
    <glyph glyph-name="kgreenlandic" unicode="&#x138;" horiz-adv-x="670" 
d="M646 523v-36l-166 -225l171 -225v-37h-229l-143 212v-212h-220v523h220v-219l137 219h230z" />
    <glyph glyph-name="Lacute" unicode="&#x139;" horiz-adv-x="617" 
d="M604 0h-532v680h220v-490h312v-190zM380 898l-115 -168h-179l80 168h214z" />
    <glyph glyph-name="lacute" unicode="&#x13a;" horiz-adv-x="369" 
d="M56 710h220v-497q0 -39 22 -39q19 0 46 10l5 -174q-74 -20 -143 -20q-73 0 -111.5 39t-38.5 128v553zM355 919l-115 -168h-179l80 168h214z" />
    <glyph glyph-name="Lcommaaccent" unicode="&#x13b;" horiz-adv-x="617" 
d="M604 0h-532v680h220v-490h312v-190zM259 -280l24 60q-64 18 -64 83q0 41 28 65t70 24q119 0 119 -107q0 -67 -78 -161z" />
    <glyph glyph-name="lcommaaccent" unicode="&#x13c;" horiz-adv-x="369" 
d="M56 710h220v-497q0 -39 22 -39q19 0 46 10l5 -174q-74 -20 -143 -20q-73 0 -111.5 39t-38.5 128v553zM121 -280l24 60q-64 18 -64 83q0 41 28 65t70 24q119 0 119 -107q0 -67 -78 -161z" />
    <glyph glyph-name="Lcaron" unicode="&#x13d;" horiz-adv-x="622" 
d="M604 0h-532v680h220v-490h312v-190zM404 457l24 60q-64 18 -64 83q0 41 28 65t70 24q119 0 119 -107q0 -67 -78 -161z" />
    <glyph glyph-name="lcaron" unicode="&#x13e;" horiz-adv-x="472" 
d="M56 710h220v-497q0 -39 22 -39q19 0 46 10l5 -174q-74 -20 -143 -20q-73 0 -111.5 39t-38.5 128v553zM357 457l24 60q-64 18 -64 83q0 41 28 65t70 24q119 0 119 -107q0 -67 -78 -161z" />
    <glyph glyph-name="Ldot" unicode="&#x13f;" horiz-adv-x="633" 
d="M604 0h-532v680h220v-490h312v-190zM363 398q0 46 27 72t76 26t76 -26t27 -72t-27 -72t-76 -26t-76 25.5t-27 72.5z" />
    <glyph glyph-name="ldot" unicode="&#x140;" horiz-adv-x="510" 
d="M56 710h220v-497q0 -39 22 -39q19 0 46 10l5 -174q-74 -20 -143 -20q-73 0 -111.5 39t-38.5 128v553zM317 398q0 46 27 72t76 26t76 -26t27 -72t-27 -72t-76 -26t-76 25.5t-27 72.5z" />
    <glyph glyph-name="Lslash" unicode="&#x141;" horiz-adv-x="620" 
d="M607 0h-532v225l-35 -17v170l35 17v285h220v-175l86 43v-170l-86 -43v-145h312v-190z" />
    <glyph glyph-name="lslash" unicode="&#x142;" horiz-adv-x="374" 
d="M349 184l5 -174q-74 -20 -143 -20q-73 0 -111.5 39t-38.5 128v71l-40 -20v170l40 20v312h220v-200l55 28v-170l-55 -28v-127q0 -39 22 -39q19 0 46 10z" />
    <glyph glyph-name="Nacute" unicode="&#x143;" horiz-adv-x="824" 
d="M562 0l-270 330v-330h-220v680h190l270 -330v330h220v-680h-190zM616 898l-115 -168h-179l80 168h214z" />
    <glyph glyph-name="nacute" unicode="&#x144;" horiz-adv-x="679" 
d="M59 523h220v-55q57 64 150 64q100 0 148.5 -64t48.5 -167v-301h-220v263q0 67 -64 67q-40 0 -63 -16v-314h-220v523zM538 741l-115 -168h-179l80 168h214z" />
    <glyph glyph-name="Ncommaaccent" unicode="&#x145;" horiz-adv-x="824" 
d="M562 0l-270 330v-330h-220v680h190l270 -330v330h220v-680h-190zM335 -280l24 60q-64 18 -64 83q0 41 28 65t70 24q119 0 119 -107q0 -67 -78 -161z" />
    <glyph glyph-name="ncommaaccent" unicode="&#x146;" horiz-adv-x="679" 
d="M59 523h220v-55q57 64 150 64q100 0 148.5 -64t48.5 -167v-301h-220v263q0 67 -64 67q-40 0 -63 -16v-314h-220v523zM272 -280l24 60q-64 18 -64 83q0 41 28 65t70 24q119 0 119 -107q0 -67 -78 -161z" />
    <glyph glyph-name="Ncaron" unicode="&#x147;" horiz-adv-x="824" 
d="M562 0l-270 330v-330h-220v680h190l270 -330v330h220v-680h-190zM365 898l46 -67l46 67h156l-97 -168h-210l-97 168h156z" />
    <glyph glyph-name="ncaron" unicode="&#x148;" horiz-adv-x="679" 
d="M59 523h220v-55q57 64 150 64q100 0 148.5 -64t48.5 -167v-301h-220v263q0 67 -64 67q-40 0 -63 -16v-314h-220v523zM294 741l46 -67l46 67h156l-97 -168h-210l-97 168h156z" />
    <glyph glyph-name="napostrophe" unicode="&#x149;" horiz-adv-x="850" 
d="M230 523h220v-55q57 64 150 64q100 0 148.5 -64t48.5 -167v-301h-220v263q0 67 -64 67q-40 0 -63 -16v-314h-220v523zM29 458l24 60q-64 18 -64 83q0 41 28 65t70 24q119 0 119 -107q0 -67 -78 -161z" />
    <glyph glyph-name="Eng" unicode="&#x14a;" horiz-adv-x="824" 
d="M532 63l-240 267v-330h-220v680h190l270 -320v320h220v-598q0 -106 -42 -170t-111 -105l-133 123q66 54 66 133z" />
    <glyph glyph-name="eng" unicode="&#x14b;" horiz-adv-x="678" 
d="M406 63v200q0 67 -64 67q-40 0 -63 -16v-314h-220v523h220v-55q57 64 150 64q100 0 148.5 -64t48.5 -167v-219q0 -106 -42 -170t-111 -105l-133 123q66 54 66 133z" />
    <glyph glyph-name="Omacron" unicode="&#x14c;" horiz-adv-x="770" 
d="M35 339q0 151 100 251t249 100q151 0 251 -100t100 -251q0 -149 -100 -249t-251 -100q-149 0 -249 100t-100 249zM249 339q0 -60 38 -101t97 -41q60 0 97.5 41t37.5 101q0 62 -37.5 103t-97.5 41q-59 0 -97 -41.5t-38 -102.5zM519 752h-271v120h271v-120z" />
    <glyph glyph-name="omacron" unicode="&#x14d;" horiz-adv-x="624" 
d="M28 260q0 119 80.5 198t202.5 79q123 0 204 -79t81 -198q0 -118 -81 -196t-204 -78q-122 0 -202.5 78t-80.5 196zM239 260q0 -31 20.5 -53.5t51.5 -22.5q33 0 53 22.5t20 53.5q0 32 -20 54.5t-53 22.5q-32 0 -52 -22.5t-20 -54.5zM446 595h-271v120h271v-120z" />
    <glyph glyph-name="Obreve" unicode="&#x14e;" horiz-adv-x="770" 
d="M35 339q0 151 100 251t249 100q151 0 251 -100t100 -251q0 -149 -100 -249t-251 -100q-149 0 -249 100t-100 249zM249 339q0 -60 38 -101t97 -41q60 0 97.5 41t37.5 101q0 62 -37.5 103t-97.5 41q-59 0 -97 -41.5t-38 -102.5zM220 826l48 70q17 -18 48.5 -32t67.5 -14
q35 0 66.5 14t49.5 33l48 -71q-52 -91 -163 -91t-165 91z" />
    <glyph glyph-name="obreve" unicode="&#x14f;" horiz-adv-x="624" 
d="M28 260q0 119 80.5 198t202.5 79q123 0 204 -79t81 -198q0 -118 -81 -196t-204 -78q-122 0 -202.5 78t-80.5 196zM239 260q0 -31 20.5 -53.5t51.5 -22.5q33 0 53 22.5t20 53.5q0 32 -20 54.5t-53 22.5q-32 0 -52 -22.5t-20 -54.5zM147 669l48 70q17 -18 48.5 -32
t67.5 -14q35 0 66.5 14t49.5 33l48 -71q-52 -91 -163 -91t-165 91z" />
    <glyph glyph-name="Ohungarumlaut" unicode="&#x150;" horiz-adv-x="770" 
d="M35 339q0 151 100 251t249 100q151 0 251 -100t100 -251q0 -149 -100 -249t-251 -100q-149 0 -249 100t-100 249zM249 339q0 -60 38 -101t97 -41q60 0 97.5 41t37.5 101q0 62 -37.5 103t-97.5 41q-59 0 -97 -41.5t-38 -102.5zM473 898l-115 -168h-179l80 168h214z
M720 898l-115 -168h-179l80 168h214z" />
    <glyph glyph-name="ohungarumlaut" unicode="&#x151;" horiz-adv-x="624" 
d="M28 260q0 119 80.5 198t202.5 79q123 0 204 -79t81 -198q0 -118 -81 -196t-204 -78q-122 0 -202.5 78t-80.5 196zM239 260q0 -31 20.5 -53.5t51.5 -22.5q33 0 53 22.5t20 53.5q0 32 -20 54.5t-53 22.5q-32 0 -52 -22.5t-20 -54.5zM386 741l-115 -168h-179l80 168h214z
M633 741l-115 -168h-179l80 168h214z" />
    <glyph glyph-name="OE" unicode="&#x152;" horiz-adv-x="1119" 
d="M508 0v21q-64 -32 -129 -32q-149 0 -246.5 99.5t-97.5 249.5q0 151 97.5 251t246.5 100q71 0 129 -30v21h562v-191h-352v-59h279v-175h-279v-65h352v-190h-562zM248 338q0 -61 40.5 -103t105.5 -42q71 0 114 43v206q-46 42 -116 42q-64 0 -104 -42t-40 -104z" />
    <glyph glyph-name="oe" unicode="&#x153;" horiz-adv-x="987" 
d="M941 223h-299q5 -30 32 -51.5t71 -21.5q27 0 65.5 13.5t59.5 28.5l80 -135q-87 -71 -227 -71q-138 0 -214 73q-79 -73 -198 -73q-122 0 -202.5 78t-80.5 196q0 119 80.5 198t202.5 79q121 0 201 -77q79 77 202 77q114 0 176 -62.5t62 -155.5q0 -66 -11 -96zM239 260
q0 -31 20.5 -53.5t51.5 -22.5q33 0 53 22.5t20 53.5q0 32 -20 54.5t-53 22.5q-32 0 -52 -22.5t-20 -54.5zM714 388q-27 0 -46.5 -18t-23.5 -47h141q0 9 -1 13q-14 52 -70 52z" />
    <glyph glyph-name="Racute" unicode="&#x154;" horiz-adv-x="749" 
d="M72 0v680h369q108 0 175.5 -60t67.5 -172q0 -65 -35 -115.5t-95 -76.5l167 -206v-50h-220l-173 234h-36v-234h-220zM292 490v-104h112q27 0 40.5 15.5t13.5 36.5q0 20 -14 36t-40 16h-112zM547 898l-115 -168h-179l80 168h214z" />
    <glyph glyph-name="racute" unicode="&#x155;" horiz-adv-x="518" 
d="M59 0v523h220v-85q52 94 148 94q49 0 90 -20l-47 -199q-49 17 -95 17q-37 0 -62.5 -15.5t-33.5 -41.5v-273h-220zM479 741l-115 -168h-179l80 168h214z" />
    <glyph glyph-name="Rcommaaccent" unicode="&#x156;" horiz-adv-x="749" 
d="M72 0v680h369q108 0 175.5 -60t67.5 -172q0 -65 -35 -115.5t-95 -76.5l167 -206v-50h-220l-173 234h-36v-234h-220zM292 490v-104h112q27 0 40.5 15.5t13.5 36.5q0 20 -14 36t-40 16h-112zM319 -280l24 60q-64 18 -64 83q0 41 28 65t70 24q119 0 119 -107q0 -67 -78 -161
z" />
    <glyph glyph-name="rcommaaccent" unicode="&#x157;" horiz-adv-x="518" 
d="M59 0v523h220v-85q52 94 148 94q49 0 90 -20l-47 -199q-49 17 -95 17q-37 0 -62.5 -15.5t-33.5 -41.5v-273h-220zM95 -280l24 60q-64 18 -64 83q0 41 28 65t70 24q119 0 119 -107q0 -67 -78 -161z" />
    <glyph glyph-name="Rcaron" unicode="&#x158;" horiz-adv-x="749" 
d="M72 0v680h369q108 0 175.5 -60t67.5 -172q0 -65 -35 -115.5t-95 -76.5l167 -206v-50h-220l-173 234h-36v-234h-220zM292 490v-104h112q27 0 40.5 15.5t13.5 36.5q0 20 -14 36t-40 16h-112zM292 898l46 -67l46 67h156l-97 -168h-210l-97 168h156z" />
    <glyph glyph-name="rcaron" unicode="&#x159;" horiz-adv-x="518" 
d="M59 0v523h220v-85q52 94 148 94q49 0 90 -20l-47 -199q-49 17 -95 17q-37 0 -62.5 -15.5t-33.5 -41.5v-273h-220zM228 741l46 -67l46 67h156l-97 -168h-210l-97 168h156z" />
    <glyph glyph-name="Sacute" unicode="&#x15a;" horiz-adv-x="625" 
d="M40 49l51 186q103 -70 211 -70q65 0 65 43q0 24 -44 37l-107 33q-86 26 -129 71.5t-43 120.5q0 96 74.5 157.5t207.5 61.5q67 0 135 -16t113 -38l-61 -176q-101 55 -197 55q-52 0 -52 -35q0 -21 38 -33l113 -34q94 -28 134 -75t40 -116q0 -102 -78.5 -166.5t-212.5 -64.5
q-71 0 -144.5 18.5t-113.5 40.5zM519 898l-115 -168h-179l80 168h214z" />
    <glyph glyph-name="sacute" unicode="&#x15b;" horiz-adv-x="510" 
d="M471 491l-52 -151q-72 39 -133 39q-26 0 -26 -21q0 -13 22 -20l75 -24q69 -22 95 -59.5t26 -88.5q0 -76 -63.5 -126t-168.5 -50q-120 0 -212 45l45 150q94 -48 146 -48q31 0 31 18q0 16 -30 25l-65 19q-119 34 -119 150q0 84 61 133.5t173 49.5q51 0 106.5 -12t88.5 -29z
M439 741l-115 -168h-179l80 168h214z" />
    <glyph glyph-name="Scircumflex" unicode="&#x15c;" horiz-adv-x="625" 
d="M40 49l51 186q103 -70 211 -70q65 0 65 43q0 24 -44 37l-107 33q-86 26 -129 71.5t-43 120.5q0 96 74.5 157.5t207.5 61.5q67 0 135 -16t113 -38l-61 -176q-101 55 -197 55q-52 0 -52 -35q0 -21 38 -33l113 -34q94 -28 134 -75t40 -116q0 -102 -78.5 -166.5t-212.5 -64.5
q-71 0 -144.5 18.5t-113.5 40.5zM358 730l-46 67l-46 -67h-156l97 168h210l97 -168h-156z" />
    <glyph glyph-name="scircumflex" unicode="&#x15d;" horiz-adv-x="510" 
d="M471 491l-52 -151q-72 39 -133 39q-26 0 -26 -21q0 -13 22 -20l75 -24q69 -22 95 -59.5t26 -88.5q0 -76 -63.5 -126t-168.5 -50q-120 0 -212 45l45 150q94 -48 146 -48q31 0 31 18q0 16 -30 25l-65 19q-119 34 -119 150q0 84 61 133.5t173 49.5q51 0 106.5 -12t88.5 -29z
M302 573l-46 67l-46 -67h-156l97 168h210l97 -168h-156z" />
    <glyph glyph-name="Scedilla" unicode="&#x15e;" horiz-adv-x="627" 
d="M215 -98l29 91q-126 13 -203 56l51 186q103 -70 211 -70q65 0 65 43q0 24 -44 37l-107 33q-86 26 -129 71.5t-43 120.5q0 96 74.5 157.5t207.5 61.5q67 0 135 -16t113 -38l-61 -176q-101 55 -197 55q-52 0 -52 -35q0 -21 38 -33l113 -34q94 -28 134 -75t40 -116
q0 -97 -71.5 -160.5t-194.5 -69.5l-12 -37q12 2 19 2q44 0 67.5 -19.5t23.5 -51.5q0 -38 -35.5 -60.5t-92.5 -22.5q-44 0 -84 10l16 64q38 -11 61 -11q42 0 42 16q0 18 -45 18q-28 0 -64 -3z" />
    <glyph glyph-name="scedilla" unicode="&#x15f;" horiz-adv-x="511" 
d="M160 -98l29 91q-89 9 -155 42l45 150q94 -48 146 -48q31 0 31 18q0 16 -30 25l-65 19q-119 34 -119 150q0 84 61 133.5t173 49.5q51 0 106.5 -12t88.5 -29l-52 -151q-72 39 -133 39q-26 0 -26 -21q0 -13 22 -20l75 -24q69 -22 95 -59.5t26 -88.5q0 -72 -56.5 -120.5
t-151.5 -54.5l-13 -37q12 2 19 2q44 0 67.5 -19.5t23.5 -51.5q0 -38 -35.5 -60.5t-92.5 -22.5q-44 0 -84 10l16 64q39 -11 61 -11q42 0 42 16q0 18 -45 18q-28 0 -64 -3z" />
    <glyph glyph-name="Scaron" unicode="&#x160;" horiz-adv-x="625" 
d="M40 49l51 186q103 -70 211 -70q65 0 65 43q0 24 -44 37l-107 33q-86 26 -129 71.5t-43 120.5q0 96 74.5 157.5t207.5 61.5q67 0 135 -16t113 -38l-61 -176q-101 55 -197 55q-52 0 -52 -35q0 -21 38 -33l113 -34q94 -28 134 -75t40 -116q0 -102 -78.5 -166.5t-212.5 -64.5
q-71 0 -144.5 18.5t-113.5 40.5zM261 898l46 -67l46 67h156l-97 -168h-210l-97 168h156z" />
    <glyph glyph-name="scaron" unicode="&#x161;" horiz-adv-x="510" 
d="M471 491l-52 -151q-72 39 -133 39q-26 0 -26 -21q0 -13 22 -20l75 -24q69 -22 95 -59.5t26 -88.5q0 -76 -63.5 -126t-168.5 -50q-120 0 -212 45l45 150q94 -48 146 -48q31 0 31 18q0 16 -30 25l-65 19q-119 34 -119 150q0 84 61 133.5t173 49.5q51 0 106.5 -12t88.5 -29z
M209 741l46 -67l46 67h156l-97 -168h-210l-97 168h156z" />
    <glyph glyph-name="Tcommaaccent" unicode="&#x162;" horiz-adv-x="630" 
d="M605 489h-180v-489h-83l-17 -46q12 2 19 2q44 0 67.5 -19.5t23.5 -51.5q0 -38 -35.5 -60.5t-92.5 -22.5q-44 0 -84 10l16 64q39 -11 61 -11q42 0 42 16q0 18 -45 18q-28 0 -64 -3l-5 6l33 98h-56v489h-180v191h580v-191z" />
    <glyph glyph-name="tcommaaccent" unicode="&#x163;" horiz-adv-x="535" 
d="M210 -98l31 95q-134 32 -134 203v154h-81v169h96l26 133h179v-133h162v-169h-162v-108q0 -38 10.5 -52.5t33.5 -14.5q37 0 83 32l66 -165q-85 -52 -201 -56l-12 -36q12 2 19 2q44 0 67.5 -19.5t23.5 -51.5q0 -38 -35.5 -60.5t-92.5 -22.5q-44 0 -84 10l16 64
q39 -11 61 -11q42 0 42 16q0 18 -45 18q-28 0 -64 -3z" />
    <glyph glyph-name="Tcaron" unicode="&#x164;" horiz-adv-x="630" 
d="M605 489h-180v-489h-220v489h-180v191h580v-191zM268 898l46 -67l46 67h156l-97 -168h-210l-97 168h156z" />
    <glyph glyph-name="tcaron" unicode="&#x165;" horiz-adv-x="620" 
d="M146 656h179v-133h162v-169h-162v-108q0 -38 10.5 -52.5t33.5 -14.5q37 0 83 32l66 -165q-94 -56 -219 -56q-92 0 -143 53.5t-51 156.5v154h-81v169h96zM522 457l24 60q-64 18 -64 83q0 41 28 65t70 24q119 0 119 -107q0 -67 -78 -161z" />
    <glyph glyph-name="Tbar" unicode="&#x166;" horiz-adv-x="630" 
d="M605 489h-180v-146h78v-103h-78v-240h-220v240h-71v103h71v146h-180v191h580v-191z" />
    <glyph glyph-name="tbar" unicode="&#x167;" horiz-adv-x="534" 
d="M326 354v-31h84v-103h-83q6 -41 41 -41q39 0 85 32l66 -165q-94 -56 -225 -56q-88 0 -138 54t-50 156v20h-65v103h65v31h-81v169h96l26 133h179v-133h162v-169h-162z" />
    <glyph glyph-name="Utilde" unicode="&#x168;" horiz-adv-x="785" 
d="M283 680v-365q0 -59 28.5 -91t80.5 -32q53 0 82 32t29 91v365h220v-380q0 -131 -89 -220.5t-242 -89.5q-154 0 -241.5 86t-87.5 224v380h220zM240 741l-53 56q21 46 53.5 73.5t70.5 27.5q44 0 93 -27.5t70 -27.5q42 0 67 44l55 -56q-28 -53 -57 -77t-68 -24t-91 27
t-69 27q-39 0 -71 -43z" />
    <glyph glyph-name="utilde" unicode="&#x169;" horiz-adv-x="679" 
d="M620 0h-220v55q-57 -64 -150 -64q-100 0 -148.5 64t-48.5 167v301h220v-263q0 -67 59 -67q45 0 68 16v314h220v-523zM185 584l-53 56q21 46 53.5 73.5t70.5 27.5q44 0 93 -27.5t70 -27.5q42 0 67 44l55 -56q-28 -53 -57 -77t-68 -24t-91 27t-69 27q-39 0 -71 -43z" />
    <glyph glyph-name="Umacron" unicode="&#x16a;" horiz-adv-x="785" 
d="M283 680v-365q0 -59 28.5 -91t80.5 -32q53 0 82 32t29 91v365h220v-380q0 -131 -89 -220.5t-242 -89.5q-154 0 -241.5 86t-87.5 224v380h220zM527 752h-271v120h271v-120z" />
    <glyph glyph-name="umacron" unicode="&#x16b;" horiz-adv-x="679" 
d="M620 0h-220v55q-57 -64 -150 -64q-100 0 -148.5 64t-48.5 167v301h220v-263q0 -67 59 -67q45 0 68 16v314h220v-523zM474 595h-271v120h271v-120z" />
    <glyph glyph-name="Ubreve" unicode="&#x16c;" horiz-adv-x="785" 
d="M283 680v-365q0 -59 28.5 -91t80.5 -32q53 0 82 32t29 91v365h220v-380q0 -131 -89 -220.5t-242 -89.5q-154 0 -241.5 86t-87.5 224v380h220zM228 826l48 70q17 -18 48.5 -32t67.5 -14q35 0 66.5 14t49.5 33l48 -71q-52 -91 -163 -91t-165 91z" />
    <glyph glyph-name="ubreve" unicode="&#x16d;" horiz-adv-x="679" 
d="M620 0h-220v55q-57 -64 -150 -64q-100 0 -148.5 64t-48.5 167v301h220v-263q0 -67 59 -67q45 0 68 16v314h220v-523zM172 669l48 70q17 -18 48.5 -32t67.5 -14q35 0 66.5 14t49.5 33l48 -71q-52 -91 -163 -91t-165 91z" />
    <glyph glyph-name="Uring" unicode="&#x16e;" horiz-adv-x="785" 
d="M283 680v-365q0 -59 28.5 -91t80.5 -32q53 0 82 32t29 91v365h220v-380q0 -131 -89 -220.5t-242 -89.5q-154 0 -241.5 86t-87.5 224v380h220zM294 787q0 41 29 69.5t69 28.5t69 -28.5t29 -69.5t-29 -69.5t-69 -28.5t-69 28.5t-29 69.5zM360 787q0 -14 9 -23t23 -9t23 9
t9 23t-9 23t-23 9t-23 -9t-9 -23z" />
    <glyph glyph-name="uring" unicode="&#x16f;" horiz-adv-x="679" 
d="M620 0h-220v55q-57 -64 -150 -64q-100 0 -148.5 64t-48.5 167v301h220v-263q0 -67 59 -67q45 0 68 16v314h220v-523zM238 670q0 40 29 69t69 29t69 -29t29 -69t-29 -69t-69 -29t-69 29t-29 69zM304 670q0 -14 9 -23t23 -9t23 9t9 23t-9 23t-23 9t-23 -9t-9 -23z" />
    <glyph glyph-name="Uhungarumlaut" unicode="&#x170;" horiz-adv-x="785" 
d="M283 680v-365q0 -59 28.5 -91t80.5 -32q53 0 82 32t29 91v365h220v-380q0 -131 -89 -220.5t-242 -89.5q-154 0 -241.5 86t-87.5 224v380h220zM465 898l-115 -168h-179l80 168h214zM712 898l-115 -168h-179l80 168h214z" />
    <glyph glyph-name="uhungarumlaut" unicode="&#x171;" horiz-adv-x="679" 
d="M620 0h-220v55q-57 -64 -150 -64q-100 0 -148.5 64t-48.5 167v301h220v-263q0 -67 59 -67q45 0 68 16v314h220v-523zM417 741l-115 -168h-179l80 168h214zM664 741l-115 -168h-179l80 168h214z" />
    <glyph glyph-name="Uogonek" unicode="&#x172;" horiz-adv-x="785" 
d="M387 6l105 -3q-73 -17 -73 -63q0 -44 43 -44q22 0 50 21l20 -87q-40 -28 -103 -28q-49 0 -78 29.5t-29 76.5q0 53 38 83q-140 9 -219 93.5t-79 215.5v380h220v-365q0 -59 28.5 -92t80.5 -33q53 0 82 33t29 92v365h220v-380q0 -131 -89 -220.5t-242 -89.5q-6 0 -16 0.5
t-15 0.5q9 8 27 15z" />
    <glyph glyph-name="uogonek" unicode="&#x173;" horiz-adv-x="679" 
d="M620 0h-42q-32 -1 -49.5 -18.5t-17.5 -41.5q0 -44 43 -44q22 0 50 21l20 -87q-40 -28 -98 -28q-52 0 -82 29.5t-30 76.5q0 63 51 92h-65v55q-57 -64 -150 -64q-100 0 -148.5 64t-48.5 167v301h220v-263q0 -67 59 -67q45 0 68 16v314h220v-523z" />
    <glyph glyph-name="Wcircumflex" unicode="&#x174;" horiz-adv-x="1116" 
d="M636 0l-75 207l-81 -207h-240l-247 680h238l149 -433l85 221l-72 212h240l119 -396l130 396h241l-247 -680h-240zM603 730l-46 67l-46 -67h-156l97 168h210l97 -168h-156z" />
    <glyph glyph-name="wcircumflex" unicode="&#x175;" horiz-adv-x="1028" 
d="M782 523h241l-167 -523h-259l-82 274l-84 -274h-259l-162 523h241l55 -329l85 329h251l79 -329zM562 573l-46 67l-46 -67h-156l97 168h210l97 -168h-156z" />
    <glyph glyph-name="Ycircumflex" unicode="&#x176;" horiz-adv-x="696" 
d="M238 0v249l-246 416v15h245l111 -229l111 229h245v-15l-246 -415v-250h-220zM393 730l-46 67l-46 -67h-156l97 168h210l97 -168h-156z" />
    <glyph glyph-name="ycircumflex" unicode="&#x177;" horiz-adv-x="619" 
d="M393 522q37 0 110 0.5t110 0.5l-192 -494q-49 -126 -104.5 -176.5t-155.5 -50.5q-69 0 -120 34l29 156q45 -20 82 -20q39 0 57 41l5 11l-223 499h243l74 -284zM355 573l-46 67l-46 -67h-156l97 168h210l97 -168h-156z" />
    <glyph glyph-name="Ydieresis" unicode="&#x178;" horiz-adv-x="696" 
d="M238 0v249l-246 416v15h245l111 -229l111 229h245v-15l-246 -415v-250h-220zM109 814q0 87 108 87q106 0 106 -87q0 -88 -106 -88q-108 0 -108 88zM371 814q0 87 108 87q105 0 105 -87q0 -88 -105 -88q-108 0 -108 88z" />
    <glyph glyph-name="Zacute" unicode="&#x179;" horiz-adv-x="662" 
d="M50 150l278 340h-278v190h562v-150l-275 -340h275v-190h-562v150zM527 898l-115 -168h-179l80 168h214z" />
    <glyph glyph-name="zacute" unicode="&#x17a;" horiz-adv-x="532" 
d="M46 150l166 203h-166v170h440v-150l-163 -203h163v-170h-440v150zM462 741l-115 -168h-179l80 168h214z" />
    <glyph glyph-name="Zdotaccent" unicode="&#x17b;" horiz-adv-x="662" 
d="M50 150l278 340h-278v190h562v-150l-275 -340h275v-190h-562v150zM224 816q0 93 117 93q115 0 115 -93q0 -94 -115 -94q-117 0 -117 94z" />
    <glyph glyph-name="zdotaccent" unicode="&#x17c;" horiz-adv-x="532" 
d="M46 150l166 203h-166v170h440v-150l-163 -203h163v-170h-440v150zM160 659q0 93 117 93q115 0 115 -93q0 -94 -115 -94q-117 0 -117 94z" />
    <glyph glyph-name="Zcaron" unicode="&#x17d;" horiz-adv-x="662" 
d="M50 150l278 340h-278v190h562v-150l-275 -340h275v-190h-562v150zM289 898l46 -67l46 67h156l-97 -168h-210l-97 168h156z" />
    <glyph glyph-name="zcaron" unicode="&#x17e;" horiz-adv-x="532" 
d="M46 150l166 203h-166v170h440v-150l-163 -203h163v-170h-440v150zM219 741l46 -67l46 67h156l-97 -168h-210l-97 168h156z" />
    <glyph glyph-name="florin" unicode="&#x192;" horiz-adv-x="517" 
d="M470 314h-102v-316q0 -83 -49 -139.5t-140 -56.5q-84 0 -148 17l26 157q35 -11 58 -11q33 0 33 35v314h-93v61h93v149q0 83 49 139.5t140 56.5q84 0 148 -17l-26 -157q-35 11 -58 11q-33 0 -33 -35v-147h102v-61z" />
    <glyph glyph-name="Aringacute" unicode="&#x1fa;" horiz-adv-x="740" 
d="M-7 0l247 680h37q-5 15 -5 30q0 40 28 64t70 24t70 -24t28 -64q0 -15 -5 -30h37l247 -680h-222l-35 104h-241l-34 -104h-222zM370 464l-67 -200h134zM515 907l-83 -93h-127l58 93h152zM338 710q0 -24 32 -24t32 24t-32 24t-32 -24z" />
    <glyph glyph-name="aringacute" unicode="&#x1fb;" horiz-adv-x="585" 
d="M103 331l-36 162q113 39 220 39q138 0 191.5 -56t53.5 -173v-303h-211v45q-59 -55 -138 -55q-75 0 -115 41t-40 112q0 84 64.5 131t173.5 47q30 0 55 -3v4q0 21 -13.5 29.5t-44.5 8.5q-68 0 -160 -29zM205 650q0 40 28 64t70 24t70 -24t28 -64t-28 -64t-70 -24t-70 24
t-28 64zM448 847l-83 -93h-127l58 93h152zM236 168q0 -42 43 -42q20 0 42 12v77q-14 2 -20 2q-27 0 -46 -12.5t-19 -36.5zM271 650q0 -24 32 -24t32 24t-32 24t-32 -24z" />
    <glyph glyph-name="AEacute" unicode="&#x1fc;" horiz-adv-x="1076" 
d="M465 0v104h-211l-49 -104h-232l349 680h705v-191h-352v-59h279v-175h-279v-65h352v-190h-562zM332 264h133v276zM857 898l-115 -168h-179l80 168h214z" />
    <glyph glyph-name="aeacute" unicode="&#x1fd;" horiz-adv-x="878" 
d="M833 223h-299q5 -31 32 -52t71 -21q27 0 65.5 13.5t59.5 28.5l80 -135q-87 -71 -227 -71q-136 0 -196 74q-90 -70 -210 -70q-86 0 -134 41.5t-48 111.5q0 149 208 174q31 4 85 4q0 24 -15 31.5t-49 7.5q-32 0 -78 -10t-76 -23l-36 171q114 34 217 34q120 0 175 -49
q71 54 148 54q114 0 176 -62.5t62 -155.5q0 -66 -11 -96zM612 388q-31 0 -51.5 -18t-24.5 -47h141v3q0 62 -65 62zM234 167q0 -42 43 -42q25 0 45 16v75q-8 1 -20 1q-33 0 -50.5 -14t-17.5 -36zM654 741l-115 -168h-179l80 168h214z" />
    <glyph glyph-name="Oslashacute" unicode="&#x1fe;" horiz-adv-x="770" 
d="M581 898l-115 -168h-179l80 168h214zM35 339q0 151 100 251t249 100q106 0 190 -53l35 43h102v-15l-68 -84q92 -100 92 -242q0 -149 -100 -249t-251 -100q-101 0 -183 48l-31 -38h-104v16l64 78q-95 100 -95 245zM248 339q0 -42 20 -77l172 211q-29 12 -56 12
q-59 0 -97.5 -42.5t-38.5 -103.5zM521 339q0 38 -17 72l-169 -208q23 -9 49 -9q60 0 98.5 42.5t38.5 102.5z" />
    <glyph glyph-name="oslashacute" unicode="&#x1ff;" horiz-adv-x="624" 
d="M508 741l-115 -168h-179l80 168h214zM28 260q0 119 80.5 198t202.5 79q89 0 158 -44l25 30h68v-15l-45 -53q79 -79 79 -195q0 -118 -81 -196t-204 -78q-85 0 -153 40l-21 -26h-70v16l41 49q-80 78 -80 195zM239 260q0 -17 6 -32l89 105q-9 4 -23 4q-32 0 -52 -22.5
t-20 -54.5zM384 260q0 15 -5 30l-87 -104q12 -2 19 -2q33 0 53 22.5t20 53.5z" />
    <glyph glyph-name="Scommaaccent" unicode="&#x218;" horiz-adv-x="625" 
d="M40 49l51 186q103 -70 211 -70q65 0 65 43q0 24 -44 37l-107 33q-86 26 -129 71.5t-43 120.5q0 96 74.5 157.5t207.5 61.5q67 0 135 -16t113 -38l-61 -176q-101 55 -197 55q-52 0 -52 -35q0 -21 38 -33l113 -34q94 -28 134 -75t40 -116q0 -102 -78.5 -166.5t-212.5 -64.5
q-71 0 -144.5 18.5t-113.5 40.5zM234 -280l24 60q-64 18 -64 83q0 41 28 65t70 24q119 0 119 -107q0 -67 -78 -161z" />
    <glyph glyph-name="scommaaccent" unicode="&#x219;" horiz-adv-x="510" 
d="M471 491l-52 -151q-72 39 -133 39q-26 0 -26 -21q0 -13 22 -20l75 -24q69 -22 95 -59.5t26 -88.5q0 -76 -63.5 -126t-168.5 -50q-120 0 -212 45l45 150q94 -48 146 -48q31 0 31 18q0 16 -30 25l-65 19q-119 34 -119 150q0 84 61 133.5t173 49.5q51 0 106.5 -12t88.5 -29z
M184 -280l24 60q-64 18 -64 83q0 41 28 65t70 24q119 0 119 -107q0 -67 -78 -161z" />
    <glyph glyph-name="uni021A" unicode="&#x21a;" horiz-adv-x="630" 
d="M605 489h-180v-489h-220v489h-180v191h580v-191zM238 -280l24 60q-64 18 -64 83q0 41 28 65t70 24q119 0 119 -107q0 -67 -78 -161z" />
    <glyph glyph-name="uni021B" unicode="&#x21b;" horiz-adv-x="533" 
d="M146 656h179v-133h162v-169h-162v-108q0 -38 10.5 -52.5t33.5 -14.5q37 0 83 32l66 -165q-94 -56 -219 -56q-92 0 -143 53.5t-51 156.5v154h-81v169h96zM214 -280l24 60q-64 18 -64 83q0 41 28 65t70 24q119 0 119 -107q0 -67 -78 -161z" />
    <glyph glyph-name="dotlessj" unicode="&#x237;" horiz-adv-x="338" 
d="M127 -197l-133 123q66 54 66 133v464h220v-445q0 -106 -42 -170t-111 -105z" />
    <glyph glyph-name="circumflex" unicode="&#x2c6;" 
d="M353 573l-46 67l-46 -67h-156l97 168h210l97 -168h-156z" />
    <glyph glyph-name="caron" unicode="&#x2c7;" 
d="M261 741l46 -67l46 67h156l-97 -168h-210l-97 168h156z" />
    <glyph glyph-name="breve" unicode="&#x2d8;" 
d="M143 669l48 70q17 -18 48.5 -32t67.5 -14q35 0 66.5 14t49.5 33l48 -71q-52 -91 -163 -91t-165 91z" />
    <glyph glyph-name="dotaccent" unicode="&#x2d9;" 
d="M191 659q0 93 117 93q115 0 115 -93q0 -94 -115 -94q-117 0 -117 94z" />
    <glyph glyph-name="ring" unicode="&#x2da;" 
d="M209 630q0 40 28.5 69t69.5 29t69.5 -29t28.5 -69t-28.5 -69t-69.5 -29t-69.5 29t-28.5 69zM275 630q0 -14 9 -23t23 -9t23 9t9 23t-9 23t-23 9t-23 -9t-9 -23z" />
    <glyph glyph-name="ogonek" unicode="&#x2db;" 
d="M260 6l106 -6q-35 0 -54.5 -17.5t-19.5 -42.5q0 -44 43 -44q22 0 50 21l20 -87q-40 -28 -98 -28q-52 0 -82 29.5t-30 76.5q0 34 18.5 61t46.5 37z" />
    <glyph glyph-name="tilde" unicode="&#x2dc;" 
d="M155 584l-53 56q21 46 53.5 73.5t70.5 27.5q44 0 93 -27.5t70 -27.5q42 0 67 44l55 -56q-28 -53 -57 -77t-68 -24t-91 27t-69 27q-39 0 -71 -43z" />
    <glyph glyph-name="hungarumlaut" unicode="&#x2dd;" 
d="M330 741l-115 -168h-179l80 168h214zM577 741l-115 -168h-179l80 168h214z" />
    <glyph glyph-name="uni0394" unicode="&#x394;" horiz-adv-x="740" 
d="M-7 0l247 680h260l247 -680h-754zM370 464l-101 -304h203z" />
    <glyph glyph-name="uni03A9" unicode="&#x3a9;" horiz-adv-x="783" 
d="M440 0v156q41 33 64.5 82t23.5 101q0 64 -35.5 105t-101.5 41q-64 0 -100 -41.5t-36 -104.5q0 -103 86 -183v-156h-281v169h79q-40 33 -68.5 90t-28.5 123q0 123 98.5 215.5t250.5 92.5q153 0 252 -92.5t99 -215.5q0 -66 -28.5 -123t-69.5 -90h77v-169h-281z" />
    <glyph glyph-name="uni03BC" unicode="&#x3bc;" horiz-adv-x="668" 
d="M279 523v-210q0 -74 8.5 -98.5t46.5 -24.5q36 0 55 17v316h220v-523h-220v40q-47 -39 -110 -48v-180h-220v711h220z" />
    <glyph glyph-name="pi" unicode="&#x3c0;" horiz-adv-x="769" 
d="M27 523h703v-169h-88v-141q0 -39 23 -39q11 0 46 10l5 -174l-18 -4q-19 -5 -55.5 -10.5t-70.5 -5.5q-150 0 -150 168v196h-83v-354h-220v354h-92v169z" />
    <glyph glyph-name="Wgrave" unicode="&#x1e80;" horiz-adv-x="1116" 
d="M636 0l-75 207l-81 -207h-240l-247 680h238l149 -433l85 221l-72 212h240l119 -396l130 396h241l-247 -680h-240zM485 730l-115 168h214l80 -168h-179z" />
    <glyph glyph-name="wgrave" unicode="&#x1e81;" horiz-adv-x="1028" 
d="M782 523h241l-167 -523h-259l-82 274l-84 -274h-259l-162 523h241l55 -329l85 329h251l79 -329zM440 573l-115 168h214l80 -168h-179z" />
    <glyph glyph-name="Wacute" unicode="&#x1e82;" horiz-adv-x="1116" 
d="M636 0l-75 207l-81 -207h-240l-247 680h238l149 -433l85 221l-72 212h240l119 -396l130 396h241l-247 -680h-240zM754 898l-115 -168h-179l80 168h214z" />
    <glyph glyph-name="wacute" unicode="&#x1e83;" horiz-adv-x="1028" 
d="M782 523h241l-167 -523h-259l-82 274l-84 -274h-259l-162 523h241l55 -329l85 329h251l79 -329zM717 741l-115 -168h-179l80 168h214z" />
    <glyph glyph-name="Wdieresis" unicode="&#x1e84;" horiz-adv-x="1116" 
d="M636 0l-75 207l-81 -207h-240l-247 680h238l149 -433l85 221l-72 212h240l119 -396l130 396h241l-247 -680h-240zM319 814q0 87 108 87q106 0 106 -87q0 -88 -106 -88q-108 0 -108 88zM581 814q0 87 108 87q105 0 105 -87q0 -88 -105 -88q-108 0 -108 88z" />
    <glyph glyph-name="wdieresis" unicode="&#x1e85;" horiz-adv-x="1028" 
d="M782 523h241l-167 -523h-259l-82 274l-84 -274h-259l-162 523h241l55 -329l85 329h251l79 -329zM280 657q0 87 108 87q106 0 106 -87q0 -88 -106 -88q-108 0 -108 88zM542 657q0 87 108 87q105 0 105 -87q0 -88 -105 -88q-108 0 -108 88z" />
    <glyph glyph-name="Ygrave" unicode="&#x1ef2;" horiz-adv-x="696" 
d="M238 0v249l-246 416v15h245l111 -229l111 229h245v-15l-246 -415v-250h-220zM265 730l-115 168h214l80 -168h-179z" />
    <glyph glyph-name="ygrave" unicode="&#x1ef3;" horiz-adv-x="619" 
d="M393 522q37 0 110 0.5t110 0.5l-192 -494q-49 -126 -104.5 -176.5t-155.5 -50.5q-69 0 -120 34l29 156q45 -20 82 -20q39 0 57 41l5 11l-223 499h243l74 -284zM223 573l-115 168h214l80 -168h-179z" />
    <glyph glyph-name="endash" unicode="&#x2013;" horiz-adv-x="644" 
d="M56 388h532v-170h-532v170z" />
    <glyph glyph-name="emdash" unicode="&#x2014;" horiz-adv-x="910" 
d="M56 388h798v-170h-798v170z" />
    <glyph glyph-name="quoteleft" unicode="&#x2018;" horiz-adv-x="316" 
d="M252 642l-40 -117q65 -24 65 -110q0 -57 -31 -88.5t-88 -31.5q-56 0 -88 32t-32 88q0 123 94 275z" />
    <glyph glyph-name="quoteright" unicode="&#x2019;" horiz-adv-x="313" 
d="M64 343l40 117q-65 24 -65 110q0 57 31 88.5t88 31.5q56 0 88 -32t32 -88q0 -123 -94 -275z" />
    <glyph glyph-name="quotesinglbase" unicode="&#x201a;" horiz-adv-x="325" 
d="M67 -127l40 117q-65 24 -65 110q0 57 31 88.5t88 31.5q56 0 88 -32t32 -88q0 -123 -94 -275z" />
    <glyph glyph-name="quotedblleft" unicode="&#x201c;" horiz-adv-x="543" 
d="M481 649l-34 -102q56 -20 56 -95q0 -48 -27 -75.5t-76 -27.5t-76 27.5t-27 75.5q0 105 81 238zM225 649l-34 -102q56 -20 56 -95q0 -48 -27 -75.5t-76 -27.5t-76.5 27.5t-27.5 75.5q0 106 82 238z" />
    <glyph glyph-name="quotedblright" unicode="&#x201d;" horiz-adv-x="539" 
d="M62 390l34 102q-56 20 -56 95q0 48 27 75.5t76 27.5t76 -27.5t27 -75.5q0 -107 -81 -238zM318 390l34 102q-56 20 -56 95q0 48 27 75.5t76 27.5t76.5 -27.5t27.5 -75.5q0 -106 -82 -238z" />
    <glyph glyph-name="quotedblbase" unicode="&#x201e;" horiz-adv-x="551" 
d="M66 -134l34 102q-56 20 -56 95q0 48 27 75.5t76 27.5t76 -27.5t27 -75.5q0 -107 -81 -238zM322 -134l34 102q-56 20 -56 95q0 48 27 75.5t76 27.5t76.5 -27.5t27.5 -75.5q0 -106 -82 -238z" />
    <glyph glyph-name="dagger" unicode="&#x2020;" horiz-adv-x="598" 
d="M568 319h-184v-507h-170v507h-184v170h184v221h170v-221h184v-170z" />
    <glyph glyph-name="daggerdbl" unicode="&#x2021;" horiz-adv-x="620" 
d="M579 19h-184v-207h-170v207h-184v170h184v130h-184v170h184v221h170v-221h184v-170h-184v-130h184v-170z" />
    <glyph glyph-name="bullet" unicode="&#x2022;" horiz-adv-x="455" 
d="M64 302q0 78 42.5 121t120.5 43q77 0 120.5 -43.5t43.5 -120.5q0 -78 -43 -120.5t-121 -42.5t-120.5 42.5t-42.5 120.5z" />
    <glyph glyph-name="ellipsis" unicode="&#x2026;" horiz-adv-x="907" 
d="M43 89q0 50 29 77.5t81 27.5t81.5 -28t29.5 -77q0 -50 -29.5 -77t-81.5 -27q-53 0 -81.5 27t-28.5 77zM343 89q0 50 29 77.5t81 27.5t81.5 -28t29.5 -77q0 -50 -29.5 -77t-81.5 -27q-53 0 -81.5 27t-28.5 77zM643 89q0 50 29 77.5t81 27.5t81.5 -28t29.5 -77
q0 -50 -29.5 -77t-81.5 -27q-53 0 -81.5 27t-28.5 77z" />
    <glyph glyph-name="perthousand" unicode="&#x2030;" horiz-adv-x="1375" 
d="M948 182q0 83 56.5 138.5t141.5 55.5t142 -55.5t57 -138.5q0 -82 -56.5 -137t-142.5 -55q-85 0 -141.5 54.5t-56.5 137.5zM1080 182q0 -28 18.5 -48t47.5 -20q28 0 46.5 20t18.5 48q0 29 -18 49t-47 20t-47.5 -20.5t-18.5 -48.5zM522 182q0 83 56.5 138.5t141.5 55.5
t142 -55.5t57 -138.5q0 -82 -56.5 -137t-142.5 -55q-85 0 -141.5 54.5t-56.5 137.5zM654 182q0 -28 18.5 -48t47.5 -20q28 0 46.5 20t18.5 48q0 29 -18 49t-47 20t-47.5 -20.5t-18.5 -48.5zM234 16l370 664h102v-15l-368 -665h-104v16zM31 496q0 83 56.5 138.5t141.5 55.5
t142 -55.5t57 -138.5q0 -82 -56.5 -137t-142.5 -55q-85 0 -141.5 54.5t-56.5 137.5zM163 496q0 -28 18.5 -48t47.5 -20q28 0 46.5 20t18.5 48q0 29 -18 49t-47 20t-47.5 -20.5t-18.5 -48.5z" />
    <glyph glyph-name="guilsinglleft" unicode="&#x2039;" horiz-adv-x="335" 
d="M35 281v40l165 211h15l80 -33l-79 -198l79 -196l-80 -35h-15z" />
    <glyph glyph-name="guilsinglright" unicode="&#x203a;" horiz-adv-x="336" 
d="M301 321v-40l-165 -211h-15l-80 33l79 198l-79 196l80 35h15z" />
    <glyph glyph-name="fraction" unicode="&#x2044;" horiz-adv-x="140" 
d="M-166 16l370 664h102v-15l-368 -665h-104v16z" />
    <glyph glyph-name="zerosuperior" unicode="&#x2070;" horiz-adv-x="384" 
d="M28 604q0 88 42.5 137t120.5 49q80 0 122.5 -49t42.5 -137t-42.5 -136.5t-122.5 -48.5q-78 0 -120.5 48.5t-42.5 136.5zM140 604q0 -79 51 -79q52 0 52 79q0 80 -52 80q-51 0 -51 -80z" />
    <glyph glyph-name="foursuperior" unicode="&#x2074;" horiz-adv-x="381" 
d="M357 479h-48v-55h-117v55h-176v74l136 231h157v-220h48v-85zM131 564h61v105z" />
    <glyph glyph-name="fivesuperior" unicode="&#x2075;" horiz-adv-x="338" 
d="M45 567l-5 4l18 213h239v-100h-141l-3 -33h3q153 0 153 -105q0 -62 -42 -94.5t-120 -32.5q-59 0 -126 21l28 95q43 -18 91 -18q50 0 50 27q0 23 -42 23h-103z" />
    <glyph glyph-name="sixsuperior" unicode="&#x2076;" horiz-adv-x="372" 
d="M213 692q-58 0 -66 -51q31 18 68 18q131 0 131 -109q0 -61 -41 -96t-107 -35q-82 0 -126 50t-44 136q0 85 44.5 135t126.5 50q59 0 129 -21l-29 -95q-49 18 -86 18zM196 575q-25 0 -48 -9q10 -41 50 -41q32 0 32 25t-34 25z" />
    <glyph glyph-name="sevensuperior" unicode="&#x2077;" horiz-adv-x="318" 
d="M47 435l127 249h-152v100h282v-79l-130 -281h-127v11z" />
    <glyph glyph-name="eightsuperior" unicode="&#x2078;" horiz-adv-x="380" 
d="M190 419q-81 0 -121.5 28t-40.5 77q0 70 69 88q-26 7 -41.5 27.5t-15.5 45.5q0 105 150 105t150 -105q0 -25 -15.5 -45.5t-41.5 -27.5q69 -18 69 -88q0 -49 -40.5 -77t-121.5 -28zM190 573q-22 0 -33 -9t-11 -22t11 -22t33 -9t33 9t11 22t-11 22t-33 9zM190 699
q-34 0 -34 -25q0 -26 34 -26t34 26q0 25 -34 25z" />
    <glyph glyph-name="ninesuperior" unicode="&#x2079;" horiz-adv-x="372" 
d="M159 517q55 0 65 49q-32 -17 -67 -17q-131 0 -131 109q0 61 41 96.5t107 35.5q81 0 125.5 -50t44.5 -136q0 -85 -44.5 -135t-126.5 -50q-63 0 -129 21l29 95q43 -18 86 -18zM175 634q25 0 48 9q-10 41 -49 41q-32 0 -32 -26q0 -24 33 -24z" />
    <glyph glyph-name="zeroinferior" unicode="&#x2080;" horiz-adv-x="384" 
d="M28 80q0 88 42.5 137t120.5 49q80 0 122.5 -49t42.5 -137t-42.5 -136.5t-122.5 -48.5q-78 0 -120.5 48.5t-42.5 136.5zM140 80q0 -79 51 -79q52 0 52 79q0 80 -52 80q-51 0 -51 -80z" />
    <glyph glyph-name="oneinferior" unicode="&#x2081;" horiz-adv-x="295" 
d="M4 164l159 96h84v-360h-117v228l-81 -51z" />
    <glyph glyph-name="twoinferior" unicode="&#x2082;" horiz-adv-x="359" 
d="M38 -100v86l126 94q37 26 37 54q0 11 -7.5 18.5t-20.5 7.5q-44 0 -44 -51l-105 20q2 64 41.5 100.5t109.5 36.5q71 0 108.5 -33.5t37.5 -88.5q0 -65 -78 -116l-42 -27h127v-101h-290z" />
    <glyph glyph-name="threeinferior" unicode="&#x2083;" horiz-adv-x="341" 
d="M71 126h74q38 0 38 23q0 19 -38 19q-41 0 -97 -18l-25 98q52 18 122 18q156 0 156 -105q0 -25 -15.5 -44.5t-43.5 -28.5q71 -19 71 -88q0 -49 -41.5 -77t-126.5 -28q-60 0 -120 19l28 96q44 -17 92 -17t48 25q0 23 -48 23h-74v85z" />
    <glyph glyph-name="fourinferior" unicode="&#x2084;" horiz-adv-x="381" 
d="M357 -45h-48v-55h-117v55h-176v74l136 231h157v-220h48v-85zM131 40h61v105z" />
    <glyph glyph-name="fiveinferior" unicode="&#x2085;" horiz-adv-x="338" 
d="M45 43l-5 4l18 213h239v-100h-141l-3 -33h3q153 0 153 -105q0 -62 -42 -94.5t-120 -32.5q-59 0 -126 21l28 95q43 -18 91 -18q50 0 50 27q0 23 -42 23h-103z" />
    <glyph glyph-name="sixinferior" unicode="&#x2086;" horiz-adv-x="371" 
d="M212 168q-58 0 -66 -51q31 18 68 18q131 0 131 -109q0 -61 -41 -96t-107 -35q-82 0 -126 50t-44 136q0 85 44.5 135t126.5 50q59 0 129 -21l-29 -95q-49 18 -86 18zM195 51q-25 0 -48 -9q10 -41 50 -41q32 0 32 25t-34 25z" />
    <glyph glyph-name="seveninferior" unicode="&#x2087;" horiz-adv-x="318" 
d="M47 -89l127 249h-152v100h282v-79l-130 -281h-127v11z" />
    <glyph glyph-name="eightinferior" unicode="&#x2088;" horiz-adv-x="380" 
d="M190 -105q-81 0 -121.5 28t-40.5 77q0 70 69 88q-26 7 -41.5 27.5t-15.5 45.5q0 105 150 105t150 -105q0 -25 -15.5 -45.5t-41.5 -27.5q69 -18 69 -88q0 -49 -40.5 -77t-121.5 -28zM190 49q-22 0 -33 -9t-11 -22t11 -22t33 -9t33 9t11 22t-11 22t-33 9zM190 175
q-34 0 -34 -25q0 -26 34 -26t34 26q0 25 -34 25z" />
    <glyph glyph-name="nineinferior" unicode="&#x2089;" horiz-adv-x="372" 
d="M159 -7q55 0 65 49q-32 -17 -67 -17q-131 0 -131 109q0 61 41 96.5t107 35.5q81 0 125.5 -50t44.5 -136q0 -85 -44.5 -135t-126.5 -50q-63 0 -129 21l29 95q43 -18 86 -18zM175 110q25 0 48 9q-10 41 -49 41q-32 0 -32 -26q0 -24 33 -24z" />
    <glyph glyph-name="Euro" unicode="&#x20ac;" horiz-adv-x="618" 
d="M584 602l-76 -164q-19 22 -50 37t-57 15q-70 0 -89 -81h183l-29 -61h-160v-9v-28h143l-29 -61h-104q17 -60 78 -60q56 0 111 41l79 -181q-88 -60 -208 -60q-119 0 -193.5 68t-94.5 192h-51v61h44v28v9h-44v61h48q16 134 93 207.5t203 73.5q123 0 203 -88z" />
    <glyph glyph-name="afii61289" unicode="&#x2113;" horiz-adv-x="457" 
d="M55 119l-30 57l84 58v251q0 204 179 204q70 0 105 -34t35 -110q0 -191 -162 -326v-27q0 -43 14 -57t45 -14q23 0 65 21l-9 -129q-49 -23 -136 -23q-66 0 -101 35.5t-35 104.5v24zM266 513v-210q87 87 87 241q0 66 -44 66q-23 0 -33 -23t-10 -74z" />
    <glyph glyph-name="uni2117" unicode="&#x2117;" horiz-adv-x="776" 
d="M38 339q0 151 100 251t249 100q151 0 251 -100t100 -251q0 -149 -100 -249t-251 -100q-149 0 -249 100t-100 249zM102 339q0 -124 81 -206.5t204 -82.5q125 0 206 82.5t81 206.5q0 126 -81 208.5t-206 82.5q-123 0 -204 -82.5t-81 -208.5zM259 169v340h189q57 0 94 -34
t37 -98q0 -59 -38 -94t-93 -35h-63v-79h-126zM386 400v-44h43q9 0 15 6.5t6 15.5q0 8 -6 15t-15 7h-43z" />
    <glyph glyph-name="trademark" unicode="&#x2122;" horiz-adv-x="824" 
d="M644 357v128l-62 -72h-18l-61 72v-128h-113v306h93l90 -101l91 101h93v-306h-113zM322 550h-75v-193h-113v193h-73v113h261v-113z" />
    <glyph glyph-name="Omega" unicode="&#x2126;" horiz-adv-x="787" 
d="M442 0v156q41 33 64.5 82t23.5 101q0 64 -35.5 105t-101.5 41q-64 0 -100 -41.5t-36 -104.5q0 -103 86 -183v-156h-281v169h79q-40 33 -68.5 90t-28.5 123q0 123 98.5 215.5t250.5 92.5q153 0 252 -92.5t99 -215.5q0 -66 -28.5 -123t-69.5 -90h77v-169h-281z" />
    <glyph glyph-name="estimated" unicode="&#x212e;" horiz-adv-x="636" 
d="M323 601q71 0 126 -25.5t87.5 -69.5t49 -98t16.5 -114v-26h-431v-169q58 -58 152 -58q130 0 184 104h66q-30 -73 -93 -115t-157 -42q-93 0 -157.5 45t-92.5 112.5t-28 148.5q0 82 28 149.5t92.5 112.5t157.5 45zM323 548q-96 0 -152 -58v-170h305v170q-56 58 -153 58z
" />
    <glyph glyph-name="onethird" unicode="&#x2153;" horiz-adv-x="873" 
d="M175 16l370 664h102v-15l-368 -665h-104v16zM27 584l159 96h84v-360h-117v228l-81 -51zM591 221h74q38 0 38 23q0 19 -38 19q-41 0 -97 -18l-25 98q52 18 122 18q156 0 156 -105q0 -25 -15.5 -44.5t-43.5 -28.5q71 -19 71 -88q0 -49 -41.5 -77t-126.5 -28q-60 0 -120 19
l28 96q44 -17 92 -17t48 25q0 23 -48 23h-74v85z" />
    <glyph glyph-name="twothirds" unicode="&#x2154;" horiz-adv-x="907" 
d="M217 16l370 664h102v-15l-368 -665h-104v16zM633 221h74q38 0 38 23q0 19 -38 19q-41 0 -97 -18l-25 98q52 18 122 18q156 0 156 -105q0 -25 -15.5 -44.5t-43.5 -28.5q71 -19 71 -88q0 -49 -41.5 -77t-126.5 -28q-60 0 -120 19l28 96q44 -17 92 -17t48 25q0 23 -48 23
h-74v85zM48 324v86l126 94q37 26 37 54q0 11 -7.5 18.5t-20.5 7.5q-44 0 -44 -51l-105 20q2 64 41.5 100.5t109.5 36.5q71 0 108.5 -33.5t37.5 -88.5q0 -65 -78 -116l-42 -27h127v-101h-290z" />
    <glyph glyph-name="oneeighth" unicode="&#x215b;" horiz-adv-x="873" 
d="M174 16l370 664h102v-15l-368 -665h-104v16zM670 -5q-81 0 -121.5 28t-40.5 77q0 70 69 88q-26 7 -41.5 27.5t-15.5 45.5q0 105 150 105t150 -105q0 -25 -15.5 -45.5t-41.5 -27.5q69 -18 69 -88q0 -49 -40.5 -77t-121.5 -28zM670 149q-22 0 -33 -9t-11 -22t11 -22t33 -9
t33 9t11 22t-11 22t-33 9zM670 275q-34 0 -34 -25q0 -26 34 -26t34 26q0 25 -34 25zM26 588l159 96h84v-360h-117v228l-81 -51z" />
    <glyph glyph-name="threeeighths" unicode="&#x215c;" horiz-adv-x="892" 
d="M202 16l370 664h102v-15l-368 -665h-104v16zM698 -5q-81 0 -121.5 28t-40.5 77q0 70 69 88q-26 7 -41.5 27.5t-15.5 45.5q0 105 150 105t150 -105q0 -25 -15.5 -45.5t-41.5 -27.5q69 -18 69 -88q0 -49 -40.5 -77t-121.5 -28zM698 149q-22 0 -33 -9t-11 -22t11 -22t33 -9
t33 9t11 22t-11 22t-33 9zM698 275q-34 0 -34 -25q0 -26 34 -26t34 26q0 25 -34 25zM82 550h74q38 0 38 23q0 19 -38 19q-41 0 -97 -18l-25 98q52 18 122 18q156 0 156 -105q0 -25 -15.5 -44.5t-43.5 -28.5q71 -19 71 -88q0 -49 -41.5 -77t-126.5 -28q-60 0 -120 19l28 96
q44 -17 92 -17t48 25q0 23 -48 23h-74v85z" />
    <glyph glyph-name="fiveeighths" unicode="&#x215d;" horiz-adv-x="886" 
d="M196 16l370 664h102v-15l-368 -665h-104v16zM692 -5q-81 0 -121.5 28t-40.5 77q0 70 69 88q-26 7 -41.5 27.5t-15.5 45.5q0 105 150 105t150 -105q0 -25 -15.5 -45.5t-41.5 -27.5q69 -18 69 -88q0 -49 -40.5 -77t-121.5 -28zM692 149q-22 0 -33 -9t-11 -22t11 -22t33 -9
t33 9t11 22t-11 22t-33 9zM692 275q-34 0 -34 -25q0 -26 34 -26t34 26q0 25 -34 25zM56 467l-5 4l18 213h239v-100h-141l-3 -33h3q153 0 153 -105q0 -62 -42 -94.5t-120 -32.5q-60 0 -126 21l28 95q43 -18 91 -18q50 0 50 27q0 23 -42 23h-103z" />
    <glyph glyph-name="seveneighths" unicode="&#x215e;" horiz-adv-x="849" 
d="M159 16l370 664h102v-15l-368 -665h-104v16zM655 -5q-81 0 -121.5 28t-40.5 77q0 70 69 88q-26 7 -41.5 27.5t-15.5 45.5q0 105 150 105t150 -105q0 -25 -15.5 -45.5t-41.5 -27.5q69 -18 69 -88q0 -49 -40.5 -77t-121.5 -28zM655 149q-22 0 -33 -9t-11 -22t11 -22t33 -9
t33 9t11 22t-11 22t-33 9zM655 275q-34 0 -34 -25q0 -26 34 -26t34 26q0 25 -34 25zM58 335l127 249h-152v100h282v-79l-130 -281h-127v11z" />
    <glyph glyph-name="arrowleft" unicode="&#x2190;" horiz-adv-x="712" 
d="M319 371h343v-154h-341l107 -102l-103 -107l-275 289l271 284l106 -109z" />
    <glyph glyph-name="arrowup" unicode="&#x2191;" horiz-adv-x="712" 
d="M432 331v-343h-154v341l-102 -107l-107 103l289 275l284 -271l-109 -106z" />
    <glyph glyph-name="arrowright" unicode="&#x2192;" horiz-adv-x="712" 
d="M393 218h-343v154h341l-107 102l103 107l275 -289l-271 -284l-106 109z" />
    <glyph glyph-name="arrowdown" unicode="&#x2193;" horiz-adv-x="712" 
d="M279 257v343h154v-341l102 107l107 -103l-289 -275l-284 271l109 106z" />
    <glyph glyph-name="uni2196" unicode="&#x2196;" horiz-adv-x="712" 
d="M384 375l242 -243l-108 -109l-242 241l4 -147l-149 -3l10 399l393 9l-2 -152z" />
    <glyph glyph-name="uni2197" unicode="&#x2197;" horiz-adv-x="712" 
d="M436 266l-243 -242l-109 108l241 242l-147 -4l-3 149l399 -10l9 -393l-152 2z" />
    <glyph glyph-name="uni2198" unicode="&#x2198;" horiz-adv-x="712" 
d="M328 214l-242 243l108 109l242 -241l-4 147l149 3l-10 -399l-393 -9l2 152z" />
    <glyph glyph-name="uni2199" unicode="&#x2199;" horiz-adv-x="712" 
d="M275 322l243 242l109 -108l-241 -242l147 4l3 -149l-399 10l-9 393l152 -2z" />
    <glyph glyph-name="partialdiff" unicode="&#x2202;" horiz-adv-x="621" 
d="M240 444q54 0 108 -30q-19 65 -66.5 108t-102.5 63l87 135q130 -19 221.5 -123.5t91.5 -255.5q0 -162 -75.5 -256.5t-215.5 -94.5q-114 0 -184.5 66.5t-70.5 181.5q0 89 54.5 147.5t152.5 58.5zM296 190q51 0 59 78q-34 16 -59 16q-21 0 -32.5 -13.5t-11.5 -34.5
q0 -46 44 -46z" />
    <glyph glyph-name="Delta" unicode="&#x2206;" horiz-adv-x="804" 
d="M25 0l247 680h260l247 -680h-754zM402 464l-101 -304h203z" />
    <glyph glyph-name="product" unicode="&#x220f;" horiz-adv-x="750" 
d="M280 -188h-209v868h608v-868h-209v677h-190v-677z" />
    <glyph glyph-name="summation" unicode="&#x2211;" horiz-adv-x="585" 
d="M51 0v112l155 229l-157 231v108h484v-170h-221l106 -170l-105 -170h220v-170h-482z" />
    <glyph glyph-name="minus" unicode="&#x2212;" horiz-adv-x="622" 
d="M60 388h502v-170h-502v170z" />
    <glyph glyph-name="uni2215" unicode="&#x2215;" horiz-adv-x="440" 
d="M-16 16l370 664h102v-15l-368 -665h-104v16z" />
    <glyph glyph-name="uni2219" unicode="&#x2219;" horiz-adv-x="335" 
d="M45 293q0 55 32 86t90 31t90.5 -31t32.5 -86t-32.5 -85.5t-90.5 -30.5t-90 30t-32 86z" />
    <glyph glyph-name="radical" unicode="&#x221a;" horiz-adv-x="653" 
d="M253 506l126 -263l158 479l114 -37l-229 -685h-136l-128 271l-92 -42l-71 142z" />
    <glyph glyph-name="infinity" unicode="&#x221e;" horiz-adv-x="801" 
d="M196 302q0 -21 10.5 -32t26.5 -11q21 0 41 20l23 23l-23 22q-20 20 -41 20q-15 0 -26 -11t-11 -31zM401 222l-41 -38q-37 -34 -71.5 -48t-79.5 -14q-63 0 -109.5 49t-46.5 131t46.5 131t109.5 49q46 0 80.5 -14t70.5 -48l40 -38l41 38q37 34 71.5 48t79.5 14
q63 0 109.5 -49t46.5 -131t-46.5 -131t-109.5 -49q-46 0 -80.5 14t-70.5 48zM604 302q0 21 -10.5 31.5t-25.5 10.5q-20 0 -41 -20l-23 -22l23 -23q20 -20 41 -20q15 0 25.5 11t10.5 32z" />
    <glyph glyph-name="integral" unicode="&#x222b;" horiz-adv-x="470" 
d="M125 0v524q0 83 49 139.5t140 56.5q84 0 148 -17l-26 -157q-35 11 -58 11q-33 0 -33 -35v-524q0 -83 -49 -139.5t-140 -56.5q-84 0 -148 17l26 157q35 -11 58 -11q33 0 33 35z" />
    <glyph glyph-name="approxequal" unicode="&#x2248;" horiz-adv-x="625" 
d="M525 530l46 -127q-46 -74 -144 -74q-41 0 -116 18t-107 18q-71 0 -105 -34l-43 133q45 68 140 68q49 0 125 -18t99 -18q70 0 105 34zM523 267l46 -127q-46 -74 -144 -74q-41 0 -116 18t-107 18q-71 0 -105 -34l-43 133q45 68 140 68q49 0 125 -18t99 -18q70 0 105 34z
" />
    <glyph glyph-name="notequal" unicode="&#x2260;" horiz-adv-x="626" 
d="M155 23l20 57h-114v170h176l38 105h-214v170h276l35 96l91 -33l-23 -63h123v-170h-185l-38 -105h223v-170h-285l-32 -90z" />
    <glyph glyph-name="lessequal" unicode="&#x2264;" horiz-adv-x="625" 
d="M57 189h502v-170h-502v170zM57 334v167l487 131h15v-153l-301 -58l301 -56v-155h-15z" />
    <glyph glyph-name="greaterequal" unicode="&#x2265;" horiz-adv-x="625" 
d="M66 189h502v-170h-502v170zM568 501v-167l-487 -124h-15v155l301 56l-301 58v153h15z" />
    <glyph glyph-name="lozenge" unicode="&#x25ca;" horiz-adv-x="604" 
d="M573 334l-205 -334h-133l-204 334l204 346h133zM391 334l-89 154l-89 -154l89 -150z" />
    <glyph glyph-name="commaaccent" unicode="&#xf6c3;" 
d="M231 -280l24 60q-64 18 -64 83q0 41 28 65t70 24q119 0 119 -107q0 -67 -78 -161z" />
    <glyph glyph-name="uniF8FF" unicode="&#xf8ff;" horiz-adv-x="650" 
d="M69 720h512v-720h-512v720zM285 283h48q0 32 21.5 57.5t46.5 40.5t46.5 41t21.5 58q0 51 -36.5 85t-101.5 34q-39 0 -67 -14.5t-41.5 -37t-19 -43.5t-5.5 -41h47q0 40 21 66.5t65 26.5q41 0 64 -21.5t23 -54.5q0 -23 -21 -45t-45.5 -38t-45.5 -46t-21 -68zM274 194v-71
h68v71h-68z" />
    <glyph glyph-name="fi" unicode="&#xfb01;" horiz-adv-x="806" 
d="M445 337h-113v-337h-220v337h-81v169h81v18q0 83 50.5 139.5t147.5 56.5q75 0 139 -17l-26 -157q-35 11 -58 11q-33 0 -33 -35v-16h113v-169zM523 659q0 93 117 93q115 0 115 -93q0 -94 -115 -94q-117 0 -117 94zM529 0v523h220v-523h-220z" />
    <glyph glyph-name="fl" unicode="&#xfb02;" horiz-adv-x="841" 
d="M445 337h-113v-337h-220v337h-81v169h81v18q0 83 50.5 139.5t147.5 56.5q75 0 139 -17l-26 -157q-35 11 -58 11q-33 0 -33 -35v-16h113v-169zM528 710h220v-497q0 -39 22 -39q19 0 46 10l5 -174q-74 -20 -143 -20q-73 0 -111.5 39t-38.5 128v553z" />
    <glyph glyph-name="commaaccent.alt" 
d="M367 763l-24 -60q64 -18 64 -83q0 -41 -28 -65t-70 -24q-119 0 -119 107q0 67 78 161z" />
    <glyph glyph-name="zero.tf" 
d="M23 339q0 166 72.5 258.5t203.5 92.5q132 0 205 -92.5t73 -258.5q0 -165 -73 -257t-205 -92q-131 0 -203.5 92t-72.5 257zM236 339q0 -33 2 -57t8.5 -46.5t19.5 -34t33 -11.5q27 0 42 22.5t18.5 51.5t3.5 75q0 47 -3.5 76.5t-18.5 52t-42 22.5q-20 0 -33 -11.5t-19.5 -34
t-8.5 -47t-2 -58.5z" />
    <glyph glyph-name="one.tf" 
d="M580 0h-528v190h165v250l-109 -56l-74 174l244 122h159v-490h143v-190z" />
    <glyph glyph-name="two.tf" 
d="M54 0v162l212 177q55 49 55 102q0 20 -9 34.5t-24 14.5q-61 0 -61 -96l-198 39q2 119 72 188t191 69q125 0 190 -63t65 -166q0 -59 -31.5 -112.5t-100.5 -112.5l-53 -46h197v-190h-505z" />
    <glyph glyph-name="three.tf" 
d="M116 426h137q67 0 67 44q0 36 -67 36q-76 0 -179 -35l-48 186q36 12 103.5 22.5t123.5 10.5q289 0 289 -197q0 -48 -29 -85t-81 -53q134 -37 134 -167q0 -92 -76.5 -145t-236.5 -53q-104 0 -222 37l52 180q84 -32 170 -32q87 0 87 48q0 24 -20.5 33.5t-66.5 9.5h-137v160
z" />
    <glyph glyph-name="four.tf" 
d="M569 104h-66v-104h-220v104h-270v140l203 436h287v-416h66v-160zM199 264h84v196z" />
    <glyph glyph-name="five.tf" 
d="M72 270l-9 8l35 402h438v-190h-254l-5 -61q280 0 280 -198q0 -119 -76.5 -180t-220.5 -61q-113 0 -230 40l52 179q83 -34 166 -34q84 0 84 51q0 44 -70 44h-190z" />
    <glyph glyph-name="six.tf" 
d="M348 505q-49 0 -70 -22.5t-26 -68.5q46 30 99 30q112 0 167.5 -53t55.5 -153q0 -115 -70.5 -181.5t-184.5 -66.5q-140 0 -215.5 94.5t-75.5 256.5q0 160 76 254.5t217 94.5q111 0 221 -40l-54 -179q-78 34 -140 34zM309 284q-23 0 -57 -15q8 -79 57 -79q46 0 46 48
q0 46 -46 46z" />
    <glyph glyph-name="seven.tf" 
d="M83 20l245 470h-292v190h536v-150l-248 -530h-241v20z" />
    <glyph glyph-name="eight.tf" 
d="M300 -10q-140 0 -206 53t-66 145q0 69 25 109.5t81 57.5q-40 14 -63 52t-23 86q0 197 252 197t252 -197q0 -48 -23 -86t-62 -52q55 -17 80 -57.5t25 -109.5q0 -92 -66 -145t-206 -53zM300 281q-24 0 -36.5 -17.5t-12.5 -40.5q0 -58 49 -58t49 58q0 23 -12.5 40.5
t-36.5 17.5zM300 518q-20 0 -26.5 -12t-6.5 -35q0 -48 33 -48t33 48q0 23 -6.5 35t-26.5 12z" />
    <glyph glyph-name="nine.tf" 
d="M251 175q48 0 69.5 23t27.5 68q-46 -30 -100 -30q-111 0 -166.5 53t-55.5 153q0 115 70 181.5t184 66.5q140 0 216 -95t76 -256q0 -160 -76.5 -254.5t-216.5 -94.5q-112 0 -222 40l54 179q78 -34 140 -34zM293 396q23 0 54 14q-12 80 -56 80q-22 0 -34 -14t-12 -34
q0 -46 48 -46z" />
    <glyph glyph-name="Euro.tf" 
d="M575 602l-76 -164q-19 22 -50 37t-57 15q-70 0 -89 -81h183l-29 -61h-160v-9v-28h143l-29 -61h-104q17 -60 78 -60q56 0 111 41l79 -181q-87 -60 -208 -60q-119 0 -193.5 68t-94.5 192h-51v61h44v28v9h-44v61h48q16 134 93 207.5t203 73.5q123 0 203 -88z" />
    <glyph glyph-name="cent.tf" 
d="M31 262q0 122 76 198.5t216 76.5q27 0 59 -5l30 109l59 -16l-30 -108q54 -19 97 -51l-90 -163q-29 20 -59 29l-41 -148q53 1 100 36l90 -163q-92 -71 -215 -71q-5 0 -15 0.5t-14 0.5l-35 -127l-58 16l33 120q-98 23 -150.5 94t-52.5 172zM255 262q0 -45 34 -65l39 141
q-37 -4 -55 -25t-18 -51z" />
    <glyph glyph-name="sterling.tf" 
d="M470 314h-130q9 -87 3 -142q16 -11 34 -11q49 0 41 81h159q16 -114 -21 -183t-133 -69q-61 0 -127 55q-30 -32 -64.5 -43.5t-90.5 -11.5q-59 0 -93 35.5t-34 91.5q0 50 31 81t79 31q20 0 38 -4q-1 32 -19 89h-88v61h69q-17 66 -17 115q0 89 58 144.5t174 55.5
q60 0 126 -17.5t98 -41.5l-59 -190q-64 49 -119 49q-57 0 -57 -57q0 -20 5 -58h137v-61zM128 116q-14 0 -22 -7.5t-8 -18.5q0 -22 22 -22q25 0 34 40q-10 8 -26 8z" />
    <glyph glyph-name="florin.tf" 
d="M511 314h-102v-316q0 -83 -49 -139.5t-140 -56.5q-84 0 -148 17l26 157q35 -11 58 -11q33 0 33 35v314h-93v61h93v149q0 83 49 139.5t140 56.5q84 0 148 -17l-26 -157q-35 11 -58 11q-33 0 -33 -35v-147h102v-61z" />
    <glyph glyph-name="yen.tf" 
d="M531 114h-124v-114h-220v114h-124v61h124v59h-124v61h104l-156 370v15h225l61 -259l71 259h225v-15l-166 -370h104v-61h-124v-59h124v-61z" />
    <glyph glyph-name="dollar.tf" 
d="M274 -129v119q-68 2 -135 20t-105 39l51 186q91 -62 189 -70v89l-90 25q-84 25 -122 69t-38 117q0 90 66.5 151t183.5 71v83h49v-81q67 -1 132 -16.5t107 -37.5l-61 -183q-89 55 -178 61v-81l69 -22q96 -30 138.5 -75.5t42.5 -113.5q0 -95 -66.5 -157.5t-183.5 -71.5
v-121h-49zM244 477q0 -20 30 -30v63q-30 -8 -30 -33zM351 208q0 18 -28 31v-69q28 12 28 38z" />
    <glyph glyph-name="zero.denom" horiz-adv-x="384" 
d="M28 180q0 88 42.5 137t120.5 49q80 0 122.5 -49t42.5 -137t-42.5 -136.5t-122.5 -48.5q-78 0 -120.5 48.5t-42.5 136.5zM140 180q0 -79 51 -79q52 0 52 79q0 80 -52 80q-51 0 -51 -80z" />
    <glyph glyph-name="one.denom" horiz-adv-x="295" 
d="M4 264l159 96h84v-360h-117v228l-81 -51z" />
    <glyph glyph-name="two.denom" horiz-adv-x="359" 
d="M38 0v86l126 94q37 26 37 54q0 11 -7.5 18.5t-20.5 7.5q-44 0 -44 -51l-105 20q2 64 41.5 100.5t109.5 36.5q71 0 108.5 -33.5t37.5 -88.5q0 -65 -78 -116l-42 -27h127v-101h-290z" />
    <glyph glyph-name="three.denom" horiz-adv-x="341" 
d="M71 226h74q38 0 38 23q0 19 -38 19q-41 0 -97 -18l-25 98q52 18 122 18q156 0 156 -105q0 -25 -15.5 -44.5t-43.5 -28.5q71 -19 71 -88q0 -49 -41.5 -77t-126.5 -28q-60 0 -120 19l28 96q44 -17 92 -17t48 25q0 23 -48 23h-74v85z" />
    <glyph glyph-name="four.denom" horiz-adv-x="381" 
d="M357 55h-48v-55h-117v55h-176v74l136 231h157v-220h48v-85zM131 140h61v105z" />
    <glyph glyph-name="five.denom" horiz-adv-x="338" 
d="M45 143l-5 4l18 213h239v-100h-141l-3 -33h3q153 0 153 -105q0 -62 -42 -94.5t-120 -32.5q-59 0 -126 21l28 95q43 -18 91 -18q50 0 50 27q0 23 -42 23h-103z" />
    <glyph glyph-name="six.denom" horiz-adv-x="372" 
d="M213 268q-58 0 -66 -51q31 18 68 18q131 0 131 -109q0 -61 -41 -96t-107 -35q-82 0 -126 50t-44 136q0 85 44.5 135t126.5 50q59 0 129 -21l-29 -95q-49 18 -86 18zM196 151q-25 0 -48 -9q10 -41 50 -41q32 0 32 25t-34 25z" />
    <glyph glyph-name="seven.denom" horiz-adv-x="318" 
d="M47 11l127 249h-152v100h282v-79l-130 -281h-127v11z" />
    <glyph glyph-name="eight.denom" horiz-adv-x="380" 
d="M190 -5q-81 0 -121.5 28t-40.5 77q0 70 69 88q-26 7 -41.5 27.5t-15.5 45.5q0 105 150 105t150 -105q0 -25 -15.5 -45.5t-41.5 -27.5q69 -18 69 -88q0 -49 -40.5 -77t-121.5 -28zM190 149q-22 0 -33 -9t-11 -22t11 -22t33 -9t33 9t11 22t-11 22t-33 9zM190 275
q-34 0 -34 -25q0 -26 34 -26t34 26q0 25 -34 25z" />
    <glyph glyph-name="nine.denom" horiz-adv-x="372" 
d="M159 93q55 0 65 49q-32 -17 -67 -17q-131 0 -131 109q0 61 41 96.5t107 35.5q81 0 125.5 -50t44.5 -136q0 -85 -44.5 -135t-126.5 -50q-63 0 -129 21l29 95q43 -18 86 -18zM175 210q25 0 48 9q-10 41 -49 41q-32 0 -32 -26q0 -24 33 -24z" />
    <glyph glyph-name="zero.num" horiz-adv-x="384" 
d="M28 499q0 88 42.5 137t120.5 49q80 0 122.5 -49t42.5 -137t-42.5 -136.5t-122.5 -48.5q-78 0 -120.5 48.5t-42.5 136.5zM140 499q0 -79 51 -79q52 0 52 79q0 80 -52 80q-51 0 -51 -80z" />
    <glyph glyph-name="one.num" horiz-adv-x="295" 
d="M4 584l159 96h84v-360h-117v228l-81 -51z" />
    <glyph glyph-name="two.num" horiz-adv-x="359" 
d="M38 319v86l126 94q37 26 37 54q0 11 -7.5 18.5t-20.5 7.5q-44 0 -44 -51l-105 20q2 64 41.5 100.5t109.5 36.5q71 0 108.5 -33.5t37.5 -88.5q0 -65 -78 -116l-42 -27h127v-101h-290z" />
    <glyph glyph-name="three.num" horiz-adv-x="341" 
d="M71 545h74q38 0 38 23q0 19 -38 19q-41 0 -97 -18l-25 98q52 18 122 18q156 0 156 -105q0 -25 -15.5 -44.5t-43.5 -28.5q71 -19 71 -88q0 -49 -41.5 -77t-126.5 -28q-60 0 -120 19l28 96q44 -17 92 -17t48 25q0 23 -48 23h-74v85z" />
    <glyph glyph-name="four.num" horiz-adv-x="381" 
d="M357 375h-48v-55h-117v55h-176v74l136 231h157v-220h48v-85zM131 460h61v105z" />
    <glyph glyph-name="five.num" horiz-adv-x="338" 
d="M45 463l-5 4l18 213h239v-100h-141l-3 -33h3q153 0 153 -105q0 -62 -42 -94.5t-120 -32.5q-59 0 -126 21l28 95q43 -18 91 -18q50 0 50 27q0 23 -42 23h-103z" />
    <glyph glyph-name="six.num" horiz-adv-x="371" 
d="M212 587q-58 0 -66 -51q31 18 68 18q131 0 131 -109q0 -61 -41 -96t-107 -35q-82 0 -126 50t-44 136q0 85 44.5 135t126.5 50q59 0 129 -21l-29 -95q-49 18 -86 18zM195 470q-25 0 -48 -9q10 -41 50 -41q32 0 32 25t-34 25z" />
    <glyph glyph-name="seven.num" horiz-adv-x="319" 
d="M47 331l127 249h-152v100h282v-79l-130 -281h-127v11z" />
    <glyph glyph-name="eight.num" horiz-adv-x="380" 
d="M190 314q-81 0 -121.5 28t-40.5 77q0 70 69 88q-26 7 -41.5 27.5t-15.5 45.5q0 105 150 105t150 -105q0 -25 -15.5 -45.5t-41.5 -27.5q69 -18 69 -88q0 -49 -40.5 -77t-121.5 -28zM190 468q-22 0 -33 -9t-11 -22t11 -22t33 -9t33 9t11 22t-11 22t-33 9zM190 594
q-34 0 -34 -25q0 -26 34 -26t34 26q0 25 -34 25z" />
    <glyph glyph-name="nine.num" horiz-adv-x="372" 
d="M159 412q55 0 65 49q-32 -17 -67 -17q-131 0 -131 109q0 61 41 96.5t107 35.5q81 0 125.5 -50t44.5 -136q0 -85 -44.5 -135t-126.5 -50q-63 0 -129 21l29 95q43 -18 86 -18zM175 529q25 0 48 9q-10 41 -49 41q-32 0 -32 -26q0 -24 33 -24z" />
    <glyph glyph-name="parenleft.case" horiz-adv-x="348" 
d="M326 731q-45 -73 -74 -174.5t-29 -215.5q0 -112 29 -213.5t74 -174.5l-121 -66q-64 56 -118.5 179t-54.5 276t54.5 276t118.5 179z" />
    <glyph glyph-name="parenright.case" horiz-adv-x="348" 
d="M22 731l121 66q64 -56 118.5 -179t54.5 -276t-54.5 -276t-118.5 -179l-121 66q45 73 74 174.5t29 213.5q0 114 -29 215.5t-74 174.5z" />
    <glyph glyph-name="hyphen.case" horiz-adv-x="544" 
d="M56 428h432v-170h-432v170z" />
    <glyph glyph-name="bracketleft.case" horiz-adv-x="381" 
d="M343 -108h-277v898h277v-170h-107v-558h107v-170z" />
    <glyph glyph-name="bracketright.case" horiz-adv-x="381" 
d="M38 790h277v-898h-277v170h107v558h-107v170z" />
    <glyph glyph-name="braceleft.case" horiz-adv-x="393" 
d="M353 790v-150h-45q-42 0 -42 -40q0 -21 20 -76.5t20 -87.5q0 -82 -94 -98q94 -16 94 -98q0 -32 -20 -88t-20 -77q0 -40 42 -40h45v-150h-67q-96 0 -143 34.5t-47 110.5q0 39 20 100t20 92t-25.5 42.5t-87.5 11.5v124q60 0 86.5 16.5t26.5 51.5q0 29 -20 88t-20 98
q0 136 190 136h67z" />
    <glyph glyph-name="bar.case" horiz-adv-x="302" 
d="M66 -108v898h170v-898h-170z" />
    <glyph glyph-name="braceright.case" horiz-adv-x="393" 
d="M40 790h67q190 0 190 -136q0 -39 -20 -98t-20 -88q0 -35 26.5 -51.5t86.5 -16.5v-124q-62 0 -87.5 -11.5t-25.5 -42.5t20 -92t20 -100q0 -76 -47 -110.5t-143 -34.5h-67v150h45q42 0 42 40q0 21 -20 77t-20 88q0 82 94 98q-94 16 -94 98q0 32 20 87.5t20 76.5
q0 40 -42 40h-45v150z" />
    <glyph glyph-name="guilsinglleft.case" horiz-adv-x="335" 
d="M35 321v40l165 211h15l80 -33l-79 -198l79 -196l-80 -35h-15z" />
    <glyph glyph-name="guilsinglright.case" horiz-adv-x="336" 
d="M301 361v-40l-165 -211h-15l-80 33l79 198l-79 196l80 35h15z" />
    <glyph glyph-name="guillemotleft.case" horiz-adv-x="598" 
d="M35 321v40l165 211h15l80 -33l-79 -198l79 -196l-80 -35h-15zM298 321v40l165 211h15l80 -33l-79 -198l79 -196l-80 -35h-15z" />
    <glyph glyph-name="guillemotright.case" horiz-adv-x="599" 
d="M301 361v-40l-165 -211h-15l-80 33l79 198l-79 196l80 35h15zM564 361v-40l-165 -211h-15l-80 33l79 198l-79 196l80 35h15z" />
    <glyph glyph-name="endash.case" horiz-adv-x="644" 
d="M56 428h532v-170h-532v170z" />
    <glyph glyph-name="emdash.case" horiz-adv-x="910" 
d="M56 428h798v-170h-798v170z" />
    <glyph glyph-name="bullet.case" horiz-adv-x="453" 
d="M63 342q0 78 42.5 121t120.5 43q77 0 120.5 -43.5t43.5 -120.5q0 -78 -43 -120.5t-121 -42.5t-120.5 42.5t-42.5 120.5z" />
    <glyph glyph-name="periodcentered.case" horiz-adv-x="333" 
d="M44 333q0 55 32 86t90 31t90.5 -31t32.5 -86t-32.5 -85.5t-90.5 -30.5t-90 30t-32 86z" />
    <glyph glyph-name="a.alt" horiz-adv-x="678" 
d="M31 262q0 119 65.5 194.5t168.5 75.5q77 0 134 -55v46h220v-523h-220v46q-53 -56 -134 -56q-103 0 -168.5 76.5t-65.5 195.5zM255 262q0 -39 20 -60.5t55 -21.5q41 0 69 20v122q-27 20 -69 20q-34 0 -54.5 -21t-20.5 -59z" />
    <glyph glyph-name="agrave.alt" horiz-adv-x="678" 
d="M31 262q0 119 65.5 194.5t168.5 75.5q77 0 134 -55v46h220v-523h-220v46q-53 -56 -134 -56q-103 0 -168.5 76.5t-65.5 195.5zM255 262q0 -39 20 -60.5t55 -21.5q41 0 69 20v122q-27 20 -69 20q-34 0 -54.5 -21t-20.5 -59zM284 573l-115 168h214l80 -168h-179z" />
    <glyph glyph-name="aacute.alt" horiz-adv-x="678" 
d="M31 262q0 119 65.5 194.5t168.5 75.5q77 0 134 -55v46h220v-523h-220v46q-53 -56 -134 -56q-103 0 -168.5 76.5t-65.5 195.5zM255 262q0 -39 20 -60.5t55 -21.5q41 0 69 20v122q-27 20 -69 20q-34 0 -54.5 -21t-20.5 -59zM543 741l-115 -168h-179l80 168h214z" />
    <glyph glyph-name="acircumflex.alt" horiz-adv-x="678" 
d="M31 262q0 119 65.5 194.5t168.5 75.5q77 0 134 -55v46h220v-523h-220v46q-53 -56 -134 -56q-103 0 -168.5 76.5t-65.5 195.5zM255 262q0 -39 20 -60.5t55 -21.5q41 0 69 20v122q-27 20 -69 20q-34 0 -54.5 -21t-20.5 -59zM395 573l-46 67l-46 -67h-156l97 168h210
l97 -168h-156z" />
    <glyph glyph-name="atilde.alt" horiz-adv-x="678" 
d="M31 262q0 119 65.5 194.5t168.5 75.5q77 0 134 -55v46h220v-523h-220v46q-53 -56 -134 -56q-103 0 -168.5 76.5t-65.5 195.5zM255 262q0 -39 20 -60.5t55 -21.5q41 0 69 20v122q-27 20 -69 20q-34 0 -54.5 -21t-20.5 -59zM206 584l-53 56q21 46 53.5 73.5t70.5 27.5
q44 0 93 -27.5t70 -27.5q42 0 67 44l55 -56q-28 -53 -57 -77t-68 -24t-91 27t-69 27q-39 0 -71 -43z" />
    <glyph glyph-name="adieresis.alt" horiz-adv-x="678" 
d="M31 262q0 119 65.5 194.5t168.5 75.5q77 0 134 -55v46h220v-523h-220v46q-53 -56 -134 -56q-103 0 -168.5 76.5t-65.5 195.5zM255 262q0 -39 20 -60.5t55 -21.5q41 0 69 20v122q-27 20 -69 20q-34 0 -54.5 -21t-20.5 -59zM117 657q0 87 108 87q106 0 106 -87
q0 -88 -106 -88q-108 0 -108 88zM379 657q0 87 108 87q105 0 105 -87q0 -88 -105 -88q-108 0 -108 88z" />
    <glyph glyph-name="amacron.alt" horiz-adv-x="678" 
d="M31 262q0 119 65.5 194.5t168.5 75.5q77 0 134 -55v46h220v-523h-220v46q-53 -56 -134 -56q-103 0 -168.5 76.5t-65.5 195.5zM255 262q0 -39 20 -60.5t55 -21.5q41 0 69 20v122q-27 20 -69 20q-34 0 -54.5 -21t-20.5 -59zM486 595h-271v120h271v-120z" />
    <glyph glyph-name="abreve.alt" horiz-adv-x="678" 
d="M31 262q0 119 65.5 194.5t168.5 75.5q77 0 134 -55v46h220v-523h-220v46q-53 -56 -134 -56q-103 0 -168.5 76.5t-65.5 195.5zM255 262q0 -39 20 -60.5t55 -21.5q41 0 69 20v122q-27 20 -69 20q-34 0 -54.5 -21t-20.5 -59zM184 669l48 70q17 -18 48.5 -32t67.5 -14
q35 0 66.5 14t49.5 33l48 -71q-52 -91 -163 -91t-165 91z" />
    <glyph glyph-name="aring.alt" horiz-adv-x="678" 
d="M31 262q0 119 65.5 194.5t168.5 75.5q77 0 134 -55v46h220v-523h-220v46q-53 -56 -134 -56q-103 0 -168.5 76.5t-65.5 195.5zM255 262q0 -39 20 -60.5t55 -21.5q41 0 69 20v122q-27 20 -69 20q-34 0 -54.5 -21t-20.5 -59zM252 670q0 40 29 69t69 29t69 -29t29 -69
t-29 -69t-69 -29t-69 29t-29 69zM318 670q0 -14 9 -23t23 -9t23 9t9 23t-9 23t-23 9t-23 -9t-9 -23z" />
    <glyph glyph-name="aringacute.alt" horiz-adv-x="678" 
d="M486 847l-83 -93h-127l58 93h152zM243 650q0 40 28 64t70 24t70 -24t28 -64t-28 -64t-70 -24t-70 24t-28 64zM309 650q0 -24 32 -24t32 24t-32 24t-32 -24zM31 262q0 119 65.5 194.5t168.5 75.5q77 0 134 -55v46h220v-523h-220v46q-53 -56 -134 -56q-103 0 -168.5 76.5
t-65.5 195.5zM255 262q0 -39 20 -60.5t55 -21.5q41 0 69 20v122q-27 20 -69 20q-34 0 -54.5 -21t-20.5 -59z" />
    <glyph glyph-name="aogonek.alt" horiz-adv-x="678" 
d="M31 262q0 119 65.5 194.5t168.5 75.5q77 0 134 -55v46h220v-523h-45q-31 0 -49 -17.5t-18 -42.5q0 -44 43 -44q22 0 50 21l20 -87q-40 -28 -98 -28q-52 0 -82 29.5t-30 76.5q0 63 51 92h-62v46q-53 -56 -134 -56q-103 0 -168.5 76.5t-65.5 195.5zM255 262q0 -39 20 -60.5
t55 -21.5q41 0 69 20v122q-27 20 -69 20q-34 0 -54.5 -21t-20.5 -59z" />
    <glyph glyph-name="g.alt" horiz-adv-x="674" 
d="M386 523h220v-425q0 -79 -27 -139t-71 -92.5t-92.5 -48.5t-98.5 -16q-77 0 -123 36t-46 98q0 63 63 99q-77 17 -124.5 82.5t-47.5 156.5q0 114 60.5 186t161.5 72q76 0 125 -56v47zM386 208v113q-28 21 -57 21t-47.5 -18t-18.5 -50q0 -66 74 -66h49zM331 -56
q22 0 38.5 24.5t16.5 54.5v5h-3q-41 0 -63 -16.5t-22 -37.5q0 -30 33 -30z" />
    <glyph glyph-name="y.alt" horiz-adv-x="642" 
d="M27 523h243l64 -288l75 288h220l-166 -494q-45 -134 -100.5 -180.5t-152.5 -46.5q-79 0 -125.5 39.5t-46.5 110.5q0 57 33 100.5t103 53.5zM244 9l3 15q-40 0 -65.5 -13t-25.5 -35q0 -32 37 -32q24 0 34 15.5t17 49.5z" />
    <glyph glyph-name="gcircumflex.alt" horiz-adv-x="655" 
d="M386 523h220v-425q0 -79 -27 -139t-71 -92.5t-92.5 -48.5t-98.5 -16q-77 0 -123 36t-46 98q0 63 63 99q-77 17 -124.5 82.5t-47.5 156.5q0 114 60.5 186t161.5 72q76 0 125 -56v47zM386 208v113q-28 21 -57 21t-47.5 -18t-18.5 -50q0 -66 74 -66h49zM331 -56
q22 0 38.5 24.5t16.5 54.5v5h-3q-41 0 -63 -16.5t-22 -37.5q0 -30 33 -30zM394 573l-46 67l-46 -67h-156l97 168h210l97 -168h-156z" />
    <glyph glyph-name="gbreve.alt" horiz-adv-x="655" 
d="M179 669l48 70q17 -18 48.5 -32t67.5 -14q35 0 66.5 14t49.5 33l48 -71q-52 -91 -163 -91t-165 91zM386 523h220v-425q0 -79 -27 -139t-71 -92.5t-92.5 -48.5t-98.5 -16q-77 0 -123 36t-46 98q0 63 63 99q-77 17 -124.5 82.5t-47.5 156.5q0 114 60.5 186t161.5 72
q76 0 125 -56v47zM386 208v113q-28 21 -57 21t-47.5 -18t-18.5 -50q0 -66 74 -66h49zM331 -56q22 0 38.5 24.5t16.5 54.5v5h-3q-41 0 -63 -16.5t-22 -37.5q0 -30 33 -30z" />
    <glyph glyph-name="gdotaccent.alt" horiz-adv-x="655" 
d="M386 523h220v-425q0 -79 -27 -139t-71 -92.5t-92.5 -48.5t-98.5 -16q-77 0 -123 36t-46 98q0 63 63 99q-77 17 -124.5 82.5t-47.5 156.5q0 114 60.5 186t161.5 72q76 0 125 -56v47zM386 208v113q-28 21 -57 21t-47.5 -18t-18.5 -50q0 -66 74 -66h49zM331 -56
q22 0 38.5 24.5t16.5 54.5v5h-3q-41 0 -63 -16.5t-22 -37.5q0 -30 33 -30zM237 659q0 93 117 93q115 0 115 -93q0 -94 -115 -94q-117 0 -117 94z" />
    <glyph glyph-name="gcommaaccent.alt" horiz-adv-x="655" 
d="M386 523h220v-425q0 -79 -27 -139t-71 -92.5t-92.5 -48.5t-98.5 -16q-77 0 -123 36t-46 98q0 63 63 99q-77 17 -124.5 82.5t-47.5 156.5q0 114 60.5 186t161.5 72q76 0 125 -56v47zM386 208v113q-28 21 -57 21t-47.5 -18t-18.5 -50q0 -66 74 -66h49zM331 -56
q22 0 38.5 24.5t16.5 54.5v5h-3q-41 0 -63 -16.5t-22 -37.5q0 -30 33 -30zM405 793l-24 -60q64 -18 64 -83q0 -41 -28 -65t-70 -24q-119 0 -119 107q0 67 78 161z" />
    <glyph glyph-name="yacute.alt" horiz-adv-x="625" 
d="M532 741l-115 -168h-179l80 168h214zM27 523h243l64 -288l75 288h220l-166 -494q-45 -134 -100.5 -180.5t-152.5 -46.5q-79 0 -125.5 39.5t-46.5 110.5q0 57 33 100.5t103 53.5zM244 9l3 15q-40 0 -65.5 -13t-25.5 -35q0 -32 37 -32q24 0 34 15.5t17 49.5z" />
    <glyph glyph-name="ycircumflex.alt" horiz-adv-x="625" 
d="M27 523h243l64 -288l75 288h220l-166 -494q-45 -134 -100.5 -180.5t-152.5 -46.5q-79 0 -125.5 39.5t-46.5 110.5q0 57 33 100.5t103 53.5zM244 9l3 15q-40 0 -65.5 -13t-25.5 -35q0 -32 37 -32q24 0 34 15.5t17 49.5zM374 573l-46 67l-46 -67h-156l97 168h210l97 -168
h-156z" />
    <glyph glyph-name="ydieresis.alt" horiz-adv-x="625" 
d="M27 523h243l64 -288l75 288h220l-166 -494q-45 -134 -100.5 -180.5t-152.5 -46.5q-79 0 -125.5 39.5t-46.5 110.5q0 57 33 100.5t103 53.5zM244 9l3 15q-40 0 -65.5 -13t-25.5 -35q0 -32 37 -32q24 0 34 15.5t17 49.5zM100 657q0 87 108 87q106 0 106 -87q0 -88 -106 -88
q-108 0 -108 88zM362 657q0 87 108 87q105 0 105 -87q0 -88 -105 -88q-108 0 -108 88z" />
    <glyph glyph-name="ygrave.alt" horiz-adv-x="625" 
d="M251 573l-115 168h214l80 -168h-179zM27 523h243l64 -288l75 288h220l-166 -494q-45 -134 -100.5 -180.5t-152.5 -46.5q-79 0 -125.5 39.5t-46.5 110.5q0 57 33 100.5t103 53.5zM244 9l3 15q-40 0 -65.5 -13t-25.5 -35q0 -32 37 -32q24 0 34 15.5t17 49.5z" />
    </font>
</defs>
</svg>
