<?xml version="1.0" standalone="no"?>
<!DOCTYPE svg PUBLIC "-//W3C//DTD SVG 1.1//EN" "http://www.w3.org/Graphics/SVG/1.1/DTD/svg11.dtd" >
<svg>
<metadata>
Created by FontForge 20110222 at Fri Jun  6 02:43:44 2014
 By deploy user
Copyright (c) 2012 by Hannes von Doehren. All rights reserved.
</metadata>
<defs>
<font id="PlutoSansExtraLight" horiz-adv-x="600" >
  <font-face 
    font-family="Pluto Sans ExtraLight"
    font-weight="350"
    font-stretch="normal"
    units-per-em="1000"
    panose-1="2 0 0 0 0 0 0 0 0 0"
    ascent="750"
    descent="-250"
    x-height="523"
    cap-height="680"
    bbox="-143 -235 1174 907"
    underline-thickness="50"
    underline-position="0"
    unicode-range="U+0020-FB02"
  />
<missing-glyph horiz-adv-x="612" 
d="M50 720h512v-720h-512v720zM266 283h48q0 26 14 47t34 36t40 29.5t34 36t14 48.5q0 51 -36.5 85t-101.5 34q-39 0 -67 -14.5t-41.5 -37t-19 -43.5t-5.5 -41h47q0 40 21 66.5t65 26.5q41 0 64 -21.5t23 -54.5q0 -23 -21 -45t-45.5 -38t-45.5 -46t-21 -68zM255 194v-71h68
v71h-68z" />
    <glyph glyph-name=".notdef" horiz-adv-x="612" 
d="M50 720h512v-720h-512v720zM266 283h48q0 26 14 47t34 36t40 29.5t34 36t14 48.5q0 51 -36.5 85t-101.5 34q-39 0 -67 -14.5t-41.5 -37t-19 -43.5t-5.5 -41h47q0 40 21 66.5t65 26.5q41 0 64 -21.5t23 -54.5q0 -23 -21 -45t-45.5 -38t-45.5 -46t-21 -68zM255 194v-71h68
v71h-68z" />
    <glyph glyph-name=".null" horiz-adv-x="0" 
 />
    <glyph glyph-name=".null" horiz-adv-x="0" 
 />
    <glyph glyph-name="nonmarkingreturn" horiz-adv-x="333" 
 />
    <glyph glyph-name="space" unicode=" " horiz-adv-x="240" 
 />
    <glyph glyph-name="exclam" unicode="!" horiz-adv-x="272" 
d="M118 197l-4 482h45l-5 -482h-36zM93 36q0 46 43 46q44 0 44 -46q0 -47 -44 -47q-43 0 -43 47z" />
    <glyph glyph-name="quotedbl" unicode="&#x22;" horiz-adv-x="420" 
d="M129 680l-1 -236h-36l-1 236h38zM329 680l-1 -236h-36l-1 236h38z" />
    <glyph glyph-name="numbersign" unicode="#" horiz-adv-x="694" 
d="M377 5l39 158h-233l-40 -163h-39v5l39 158h-99v38h109l71 284h-93v38h102l40 157h38v-4l-38 -153h233l39 157h39v-4l-38 -153h104v-38h-114l-70 -284h97v-38h-107l-40 -163h-39v5zM263 485l-70 -284h233l70 284h-233z" />
    <glyph glyph-name="dollar" unicode="$" horiz-adv-x="622" 
d="M297 -128v118q-65 1 -126.5 19t-98.5 41l13 42q37 -23 94.5 -41.5t117.5 -18.5v295l-84 20q-72 17 -112 56.5t-40 100.5q0 73 61 125.5t175 58.5v82h32v-81q61 -1 121.5 -17t100.5 -38l-15 -42q-35 21 -93.5 37.5t-113.5 17.5v-283l49 -12q92 -22 138.5 -60.5
t46.5 -105.5q0 -84 -64 -136t-170 -59v-119h-32zM362 312l-33 8v-287q85 6 137 46.5t52 104.5q0 49 -38.5 79.5t-117.5 48.5zM106 506q0 -89 122 -118l69 -17v275q-93 -5 -142 -45t-49 -95z" />
    <glyph glyph-name="percent" unicode="%" horiz-adv-x="832" 
d="M447 157q0 73 48 121.5t122 48.5t122 -48.5t48 -121.5q0 -72 -47.5 -119.5t-122.5 -47.5q-74 0 -122 47.5t-48 119.5zM485 157q0 -57 37 -94t95 -37q59 0 96 37t37 94q0 58 -37 96t-96 38q-58 0 -95 -38t-37 -96zM206 5l364 675h42v-4l-364 -676h-42v5zM44 520
q0 73 48 121t122 48q75 0 122.5 -48t47.5 -121q0 -72 -48 -120t-122 -48t-122 48t-48 120zM82 520q0 -57 37 -94.5t95 -37.5q59 0 96 37.5t37 94.5q0 58 -37 95.5t-96 37.5q-58 0 -95 -38t-37 -95z" />
    <glyph glyph-name="ampersand" unicode="&#x26;" horiz-adv-x="711" 
d="M622 376l39 -18q-35 -147 -111 -240l118 -111v-7h-57l-90 86q-95 -95 -224 -95q-104 0 -164.5 47.5t-60.5 129.5q0 117 171 186v1q-39 38 -54.5 54.5t-35 52t-19.5 69.5q0 72 51 115.5t139 43.5q82 0 137.5 -45t55.5 -112q0 -115 -130 -165l-70 -28l203 -193
q75 92 102 229zM300 31q106 0 192 84l-217 209q-72 -28 -115.5 -63.5t-43.5 -91.5q0 -63 49.5 -100.5t134.5 -37.5zM177 530q0 -11 3.5 -23t7.5 -21.5t13 -22.5t14.5 -20.5t17.5 -20t17.5 -18t18.5 -18t16 -15.5v-1l84 31q104 39 104 129q0 50 -43.5 85t-105.5 35
q-71 0 -109 -33t-38 -87z" />
    <glyph glyph-name="quotesingle" unicode="'" horiz-adv-x="220" 
d="M129 680l-1 -236h-36l-1 236h38z" />
    <glyph glyph-name="parenleft" unicode="(" horiz-adv-x="288" 
d="M242 696q-29 -37 -55 -87t-51.5 -146.5t-25.5 -201.5q0 -149 41.5 -260t90.5 -175l-30 -19q-29 34 -58 86t-57.5 154.5t-28.5 213.5q0 112 28.5 214t57.5 154t58 86z" />
    <glyph glyph-name="parenright" unicode=")" horiz-adv-x="288" 
d="M46 696l30 19q29 -34 58 -86t57.5 -154t28.5 -214q0 -111 -28.5 -213.5t-57.5 -154.5t-58 -86l-30 19q49 64 90.5 175t41.5 260q0 105 -25.5 201.5t-51.5 146.5t-55 87z" />
    <glyph glyph-name="asterisk" unicode="*" horiz-adv-x="486" 
d="M132 352l81 138l-150 38l11 37l151 -42l-2 157h39l-1 -157l152 42l10 -37l-153 -39l83 -136l-31 -20l-81 135l-77 -135z" />
    <glyph glyph-name="plus" unicode="+" horiz-adv-x="571" 
d="M304 527v-206h206v-38h-206v-205h-38v205h-205v38h205v206h38z" />
    <glyph glyph-name="comma" unicode="," horiz-adv-x="263" 
d="M85 -157l49 144q-23 1 -35.5 13.5t-12.5 29.5q0 49 45 49q22 0 34 -14t12 -35q0 -36 -23 -103t-40 -96z" />
    <glyph glyph-name="hyphen" unicode="-" horiz-adv-x="541" 
d="M90 322h361v-39h-361v39z" />
    <glyph glyph-name="period" unicode="." horiz-adv-x="263" 
d="M88 36q0 46 42 46q45 0 45 -46q0 -47 -45 -47q-42 0 -42 47z" />
    <glyph glyph-name="slash" unicode="/" horiz-adv-x="484" 
d="M39 5l364 675h42v-4l-364 -676h-42v5z" />
    <glyph glyph-name="zero" unicode="0" horiz-adv-x="714" 
d="M74 339q0 161 69.5 256t212.5 95q144 0 214.5 -95t70.5 -256q0 -159 -70.5 -254t-214.5 -95q-143 0 -212.5 95t-69.5 254zM117 339q0 -91 22.5 -157.5t77.5 -108t139 -41.5q125 0 183.5 83.5t58.5 223.5q0 141 -58.5 225t-183.5 84q-124 0 -181.5 -84t-57.5 -225z" />
    <glyph glyph-name="one" unicode="1" horiz-adv-x="467" 
d="M27 550l288 130h37v-680h-44v630l-265 -116z" />
    <glyph glyph-name="two" unicode="2" horiz-adv-x="627" 
d="M143 40h425v-40h-495v37l296 225q68 51 99.5 101t31.5 111q0 77 -48 125.5t-141 48.5q-97 0 -150.5 -52.5t-54.5 -137.5l-42 5q2 103 66.5 165t180.5 62q114 0 174 -60t60 -153q0 -70 -34 -128t-110 -115z" />
    <glyph glyph-name="three" unicode="3" horiz-adv-x="642" 
d="M151 332v40h185q78 0 122.5 41t44.5 98q0 66 -57 102.5t-146 36.5q-113 0 -210 -51l-14 38q104 53 224 53q112 0 179.5 -46.5t67.5 -129.5q0 -59 -38 -105t-100 -54q77 -13 119.5 -56.5t42.5 -114.5q0 -90 -75 -142t-196 -52q-108 0 -228 48l14 39q97 -47 214 -47
q97 0 161.5 42.5t64.5 115.5q0 66 -49.5 105t-140.5 39h-185z" />
    <glyph glyph-name="four" unicode="4" horiz-adv-x="701" 
d="M660 157h-158v-154h-43v154h-426v35l414 485l12 -1v1h43v-480h158v-40zM83 197h376v440z" />
    <glyph glyph-name="five" unicode="5" horiz-adv-x="637" 
d="M102 364l-3 4l26 312h425v-40h-387l-19 -239h153q126 0 200.5 -46t74.5 -142q0 -112 -81 -167.5t-198 -55.5q-127 0 -235 51l15 38q95 -49 218 -49q99 0 167.5 44.5t68.5 137.5q0 152 -232 152h-193z" />
    <glyph glyph-name="six" unicode="6" horiz-adv-x="694" 
d="M116 341q0 -23 1 -34q15 23 35 44.5t52 47t77.5 40.5t96.5 15q116 0 183.5 -60t67.5 -167q0 -104 -73 -170.5t-183 -66.5q-141 0 -221 95.5t-80 255.5q0 157 80.5 253t222.5 96q73 0 133 -21t94 -47l-20 -37q-31 26 -84.5 45.5t-119.5 19.5q-124 0 -193 -85t-69 -224z
M374 415q-51 0 -96.5 -17.5t-77 -46t-48.5 -49.5t-30 -42q18 -106 83.5 -167t167.5 -61q91 0 151.5 55.5t60.5 139.5q0 90 -58.5 139t-152.5 49z" />
    <glyph glyph-name="seven" unicode="7" horiz-adv-x="531" 
d="M144 5l315 635h-429v40h479v-36l-315 -644h-50v5z" />
    <glyph glyph-name="eight" unicode="8" horiz-adv-x="682" 
d="M341 -10q-121 0 -195.5 52t-74.5 142q0 71 48.5 115t132.5 56q-70 8 -113.5 54t-43.5 105q0 83 67 129.5t179 46.5t179 -46.5t67 -129.5q0 -59 -43.5 -105t-113.5 -54q84 -12 132.5 -56t48.5 -115q0 -90 -75 -142t-195 -52zM343 330q-115 0 -171.5 -38.5t-56.5 -104.5
q0 -72 64 -114.5t162 -42.5q97 0 161 42.5t64 114.5q0 67 -55 105t-168 38zM341 651q-91 0 -146.5 -35.5t-55.5 -102.5q0 -58 50.5 -98t153.5 -40q101 0 150.5 40t49.5 98q0 67 -55.5 102.5t-146.5 35.5z" />
    <glyph glyph-name="nine" unicode="9" horiz-adv-x="694" 
d="M112 95q31 -26 84.5 -45.5t119.5 -19.5q123 0 192.5 85t69.5 224q0 24 -1 35q-100 -148 -261 -148q-116 0 -183.5 60t-67.5 167q0 104 73 170.5t183 66.5q141 0 221 -95.5t80 -255.5q0 -157 -80.5 -253t-222.5 -96q-73 0 -133 21t-94 47zM320 265q51 0 96 17.5t76 45.5
t48.5 49t30.5 42q-18 106 -83.5 167.5t-166.5 61.5q-91 0 -151.5 -55.5t-60.5 -139.5q0 -90 58.5 -139t152.5 -49z" />
    <glyph glyph-name="colon" unicode=":" horiz-adv-x="266" 
d="M90 491q0 46 41 46q45 0 45 -46q0 -47 -45 -47q-41 0 -41 47zM90 36q0 46 41 46q45 0 45 -46q0 -47 -45 -47q-41 0 -41 47z" />
    <glyph glyph-name="semicolon" unicode=";" horiz-adv-x="278" 
d="M94 -156l48 143q-23 1 -35 13t-12 30q0 49 44 49q22 0 34 -14t12 -35q0 -36 -23 -102.5t-40 -95.5zM95 491q0 46 41 46q45 0 45 -46q0 -47 -45 -47q-41 0 -41 47z" />
    <glyph glyph-name="less" unicode="&#x3c;" horiz-adv-x="577" 
d="M49 284v37l444 213h5v-39l-410 -192l410 -192v-39h-5z" />
    <glyph glyph-name="equal" unicode="=" horiz-adv-x="633" 
d="M92 180h449v-38h-449v38zM92 463h449v-38h-449v38z" />
    <glyph glyph-name="greater" unicode="&#x3e;" horiz-adv-x="577" 
d="M528 321v-37l-444 -212h-5v39l410 192l-410 192v39h5z" />
    <glyph glyph-name="question" unicode="?" horiz-adv-x="472" 
d="M223 197h-40q-6 22 -6 34q0 26 9.5 43t34.5 39l68 64q25 23 38.5 38.5t26.5 43.5t13 60q0 60 -41 96t-103 36q-107 0 -157 -87l-22 31q57 95 184 95q80 0 131.5 -47t51.5 -122q0 -42 -16.5 -77t-30 -49t-46.5 -44l-69 -63q-19 -18 -25 -29t-6 -31q0 -13 5 -31zM161 36
q0 46 43 46q44 0 44 -46q0 -47 -44 -47q-43 0 -43 47z" />
    <glyph glyph-name="at" unicode="@" horiz-adv-x="1009" 
d="M704 491v-382q0 -32 12.5 -47.5t44.5 -15.5q63 0 114 72.5t51 203.5q0 156 -115 259t-296 103q-182 0 -300 -119t-118 -302q0 -182 118.5 -302t299.5 -120q106 0 194 43l14 -32q-95 -46 -208 -46q-195 0 -324.5 131t-129.5 326q0 196 129.5 326t324.5 130t320.5 -113.5
t125.5 -283.5q0 -148 -62.5 -229.5t-148.5 -81.5q-42 0 -61.5 17.5t-24.5 51.5q-67 -69 -167 -69q-105 0 -168.5 67.5t-63.5 174.5q0 108 63.5 177t168.5 69q100 0 164 -66v58h43zM661 119v270q-26 30 -67 50.5t-89 20.5q-89 0 -143 -58t-54 -149q0 -90 54 -146.5t143 -56.5
q47 0 88.5 20t67.5 49z" />
    <glyph glyph-name="A" unicode="A" horiz-adv-x="701" 
d="M31 0l299 680h49l282 -680h-45l-73 174h-390l-77 -174h-45zM354 634l-187 -423h363z" />
    <glyph glyph-name="B" unicode="B" horiz-adv-x="681" 
d="M114 0v680h227q105 0 163.5 -43.5t58.5 -130.5q0 -116 -128 -153q182 -24 182 -177q0 -82 -58.5 -129t-171.5 -47h-273zM158 40h226q91 0 139 36.5t48 102.5q0 76 -55.5 113t-156.5 37h-201v-289zM158 369h171q86 0 137.5 34.5t51.5 99.5q0 137 -181 137h-179v-271z" />
    <glyph glyph-name="C" unicode="C" horiz-adv-x="748" 
d="M112 340q0 -132 87 -220t219 -88q150 0 244 104l23 -32q-100 -114 -267 -114q-150 0 -250.5 100.5t-100.5 249.5t100.5 249.5t250.5 100.5q167 0 267 -114l-23 -32q-94 104 -244 104q-132 0 -219 -88t-87 -220z" />
    <glyph glyph-name="D" unicode="D" horiz-adv-x="785" 
d="M114 0v680h250q156 -1 253.5 -90.5t97.5 -250.5q0 -160 -97.5 -249.5t-253.5 -89.5h-250zM363 640h-205v-600h205q137 0 222 78.5t85 220.5q0 143 -84.5 221.5t-222.5 79.5z" />
    <glyph glyph-name="E" unicode="E" horiz-adv-x="689" 
d="M624 0h-510v680h510v-41h-467v-263h394v-40h-394v-295h467v-41z" />
    <glyph glyph-name="F" unicode="F" horiz-adv-x="652" 
d="M550 297h-393v-297h-43v680h490v-41h-447v-302h393v-40z" />
    <glyph glyph-name="G" unicode="G" horiz-adv-x="787" 
d="M710 346v-270q-49 -37 -126.5 -61.5t-153.5 -24.5q-156 0 -259 94.5t-103 254.5q0 161 103 256t259 95q144 0 254 -97l-24 -34q-100 89 -230 89q-136 0 -226.5 -83.5t-90.5 -225.5q0 -141 90.5 -224t227.5 -83q66 0 129 19t106 49v206h-265v40h309z" />
    <glyph glyph-name="H" unicode="H" horiz-adv-x="833" 
d="M675 0v321h-517v-321h-44v680h44v-318h517v318h44v-680h-44z" />
    <glyph glyph-name="I" unicode="I" horiz-adv-x="273" 
d="M114 0v680h44v-680h-44z" />
    <glyph glyph-name="J" unicode="J" horiz-adv-x="656" 
d="M507 680h44v-425q0 -119 -69 -193t-190 -74q-118 0 -182.5 69t-72.5 189l43 5q7 -105 59.5 -163t153.5 -58q102 0 158 61.5t56 165.5v423z" />
    <glyph glyph-name="K" unicode="K" horiz-adv-x="668" 
d="M114 0v680h44v-326h102l311 326h48v-7l-320 -341l350 -326v-6h-57l-333 313h-101v-313h-44z" />
    <glyph glyph-name="L" unicode="L" horiz-adv-x="585" 
d="M562 0h-448v680h44v-640h404v-40z" />
    <glyph glyph-name="M" unicode="M" horiz-adv-x="941" 
d="M782 0v609l-305 -371h-13l-306 371v-609h-44v680h42l314 -383l315 383h41v-680h-44z" />
    <glyph glyph-name="N" unicode="N" horiz-adv-x="830" 
d="M675 0l-517 609v-609h-44v680h41l516 -612v612h44v-680h-40z" />
    <glyph glyph-name="O" unicode="O" horiz-adv-x="835" 
d="M68 339q0 151 100 251t249 100q151 0 251 -100t100 -251q0 -149 -100 -249t-251 -100q-149 0 -249 100t-100 249zM111 339q0 -132 87 -219.5t219 -87.5q133 0 220 87.5t87 219.5q0 134 -87 221t-220 87q-132 0 -219 -87.5t-87 -220.5z" />
    <glyph glyph-name="P" unicode="P" horiz-adv-x="680" 
d="M114 0v680h281q101 0 167.5 -60t66.5 -175q0 -105 -68 -168t-166 -63h-237v-214h-44zM390 640h-232v-386h232q83 0 138.5 51.5t55.5 139.5q0 95 -55 145t-139 50z" />
    <glyph glyph-name="Q" unicode="Q" horiz-adv-x="835" 
d="M845 -121l8 -40q-55 -19 -125 -19q-58 0 -113.5 25t-89.5 55t-65 58t-44 32q-149 0 -248.5 100t-99.5 249q0 151 100 251t249 100q151 0 251 -100t100 -251q0 -132 -81.5 -227t-208.5 -115q10 -7 43.5 -37t57 -47.5t65.5 -34t86 -16.5q68 0 115 17zM111 339
q0 -132 87 -219.5t219 -87.5q133 0 220 87.5t87 219.5q0 133 -87 220.5t-220 87.5q-132 0 -219 -87.5t-87 -220.5z" />
    <glyph glyph-name="R" unicode="R" horiz-adv-x="715" 
d="M114 0v680h291q99 0 164 -54t65 -158q0 -97 -64 -153t-158 -56h-7l281 -253v-6h-57l-284 259h-187v-259h-44zM408 640h-250v-343h250q77 0 129 45.5t52 124.5q0 85 -52 129t-129 44z" />
    <glyph glyph-name="S" unicode="S" horiz-adv-x="631" 
d="M72 50l13 42q100 -60 216 -60q97 0 159.5 42t62.5 112q0 50 -37.5 79.5t-117.5 47.5l-139 32q-162 38 -162 162q0 78 65 130t191 52q64 0 126.5 -16t102.5 -39l-14 -41q-35 22 -97 38t-119 16q-103 0 -156.5 -39.5t-53.5 -97.5q0 -92 128 -122l144 -34q92 -22 138 -60
t46 -106q0 -90 -75 -144t-193 -54q-65 0 -127.5 18.5t-100.5 41.5z" />
    <glyph glyph-name="T" unicode="T" horiz-adv-x="622" 
d="M601 639h-259v-639h-44v639h-277v41h580v-41z" />
    <glyph glyph-name="U" unicode="U" horiz-adv-x="781" 
d="M149 680v-406q0 -113 60 -178.5t180 -65.5t181.5 68.5t61.5 176.5v405h44v-408q0 -121 -74.5 -202.5t-212.5 -81.5q-139 0 -211.5 77.5t-72.5 206.5v408h44z" />
    <glyph glyph-name="V" unicode="V" horiz-adv-x="703" 
d="M322 0l-282 680h47l261 -639l277 639h47l-299 -680h-51z" />
    <glyph glyph-name="W" unicode="W" horiz-adv-x="1083" 
d="M706 0l-164 392l-174 -392h-46l-282 680h46l261 -630l176 393l-98 237h47l257 -626l276 626h46l-299 -680h-46z" />
    <glyph glyph-name="X" unicode="X" horiz-adv-x="684" 
d="M649 680v-4l-276 -336l276 -335v-5h-50l-257 309l-256 -309h-51v5l275 335l-275 336v4h51l256 -309l257 309h50z" />
    <glyph glyph-name="Y" unicode="Y" horiz-adv-x="690" 
d="M323 0v293l-290 383v4h49l263 -346l263 346h49v-4l-290 -382v-294h-44z" />
    <glyph glyph-name="Z" unicode="Z" horiz-adv-x="598" 
d="M53 36l436 604h-436v40h492v-36l-435 -604h435v-40h-492v36z" />
    <glyph glyph-name="bracketleft" unicode="[" horiz-adv-x="339" 
d="M291 -188h-186v898h186v-38h-148v-821h148v-39z" />
    <glyph glyph-name="backslash" unicode="\" horiz-adv-x="484" 
d="M81 680l364 -675v-5h-42l-364 676v4h42z" />
    <glyph glyph-name="bracketright" unicode="]" horiz-adv-x="339" 
d="M49 710h185v-898h-185v39h147v821h-147v38z" />
    <glyph glyph-name="asciicircum" unicode="^" horiz-adv-x="544" 
d="M251 680h37l184 -262v-5h-43l-159 231l-155 -231h-43v5z" />
    <glyph glyph-name="underscore" unicode="_" horiz-adv-x="680" 
d="M90 -45h500v-39h-500v39z" />
    <glyph glyph-name="grave" unicode="`" 
d="M329 609l-87 132h48l82 -132h-43z" />
    <glyph glyph-name="a" unicode="a" horiz-adv-x="577" 
d="M119 455l-10 40q76 37 176 37q95 0 144.5 -49.5t49.5 -137.5v-345h-44v66q-80 -76 -189 -76q-87 0 -138 43t-51 117q0 94 71.5 139.5t189.5 45.5q66 0 117 -16v25q0 72 -39 110t-114 38q-89 0 -163 -37zM101 153q0 -58 41.5 -91.5t112.5 -33.5q100 0 180 75v182
q-42 14 -111 14q-101 0 -162 -35.5t-61 -110.5z" />
    <glyph glyph-name="b" unicode="b" horiz-adv-x="659" 
d="M591 262q0 -120 -71 -196t-188 -76q-110 0 -185 79v-69h-44v710h44v-257q77 79 185 79q117 0 188 -75t71 -195zM547 262q0 102 -61 166t-161 64q-54 0 -101.5 -24.5t-76.5 -58.5v-299q29 -33 76 -56.5t102 -23.5q100 0 161 64.5t61 167.5z" />
    <glyph glyph-name="c" unicode="c" 
d="M67 262q0 119 78 197t199 78q116 0 193 -71l-23 -34q-68 63 -169 63q-103 0 -168 -66t-65 -167t65 -167.5t168 -66.5q101 0 169 63l23 -34q-77 -71 -193 -71q-121 0 -199 78.5t-78 197.5z" />
    <glyph glyph-name="d" unicode="d" horiz-adv-x="659" 
d="M68 262q0 120 71 195t188 75q108 0 185 -79v257h44v-710h-44v69q-77 -79 -185 -79q-117 0 -188 76t-71 196zM113 262q0 -103 61 -167.5t161 -64.5q54 0 101 23t76 56v301q-30 34 -77 58t-100 24q-100 0 -161 -64t-61 -166z" />
    <glyph glyph-name="e" unicode="e" horiz-adv-x="637" 
d="M539 91l21 -34q-89 -71 -212 -71q-140 0 -210 77t-70 197q0 117 74 197t197 80q113 0 171.5 -61.5t58.5 -156.5q0 -42 -9 -76h-448q4 -97 62.5 -157.5t173.5 -60.5q103 0 191 66zM522 281q4 26 4 43q0 74 -47 124t-140 50q-100 0 -161.5 -63t-64.5 -154h409z" />
    <glyph glyph-name="f" unicode="f" horiz-adv-x="460" 
d="M418 451h-210v-451h-44v451h-114v38h114v57q0 79 39 126.5t119 47.5t132 -59l-18 -34q-45 52 -111 52q-117 0 -117 -133v-57h210v-38z" />
    <glyph glyph-name="g" unicode="g" horiz-adv-x="659" 
d="M69 280q0 107 72 179.5t187 72.5q105 0 184 -79v70h44v-483q0 -110 -66 -174t-162 -64q-18 0 -36 2t-31.5 4.5t-29 7.5t-24 8t-22.5 10l-18 9t-17 9l-12 8l13 40q86 -58 177 -58q77 0 130.5 51t53.5 141v74q-78 -78 -184 -78q-115 0 -187 72.5t-72 177.5zM114 280
q0 -89 61.5 -149.5t160.5 -60.5q53 0 100.5 23t75.5 56v262q-29 34 -75.5 57.5t-100.5 23.5q-99 0 -160.5 -61t-61.5 -151z" />
    <glyph glyph-name="h" unicode="h" horiz-adv-x="664" 
d="M103 710h44v-295q63 117 209 117q103 0 157 -64t54 -167v-301h-44v296q0 87 -45 140.5t-132 53.5q-76 0 -129.5 -41t-69.5 -105v-344h-44v710z" />
    <glyph glyph-name="i" unicode="i" horiz-adv-x="251" 
d="M92 673q0 34 34 34q32 0 32 -34q0 -35 -32 -35q-34 0 -34 35zM103 0v523h44v-523h-44z" />
    <glyph glyph-name="j" unicode="j" horiz-adv-x="251" 
d="M103 523h44v-511q0 -148 -135 -209l-23 32q56 29 85 69.5t29 107.5v511zM93 673q0 34 33 34q32 0 32 -34q0 -35 -32 -35q-33 0 -33 35z" />
    <glyph glyph-name="k" unicode="k" horiz-adv-x="550" 
d="M498 523v-7l-304 -238l321 -271v-7h-56l-312 268v-268h-44v710h44v-421l298 234h53z" />
    <glyph glyph-name="l" unicode="l" horiz-adv-x="309" 
d="M107 710h44v-602q0 -78 69 -78q34 0 68 23l9 -36q-36 -27 -88 -27q-102 0 -102 111v609z" />
    <glyph glyph-name="m" unicode="m" horiz-adv-x="1048" 
d="M103 523h44v-114q63 123 201 123q148 0 191 -136q26 61 80 98.5t130 37.5q101 0 151.5 -63.5t50.5 -167.5v-301h-44v296q0 88 -41.5 141t-127.5 53q-75 0 -123.5 -43.5t-64.5 -109.5v-337h-44v297q0 88 -41 140.5t-127 52.5q-75 0 -124.5 -43t-66.5 -109v-338h-44v523z
" />
    <glyph glyph-name="n" unicode="n" horiz-adv-x="664" 
d="M103 523h44v-109q30 56 83.5 87t125.5 31q103 0 157 -64t54 -167v-301h-44v296q0 87 -45 140.5t-132 53.5q-76 0 -129.5 -41t-69.5 -105v-344h-44v523z" />
    <glyph glyph-name="o" unicode="o" horiz-adv-x="688" 
d="M67 260q0 120 77.5 198.5t198.5 78.5q122 0 200 -78.5t78 -198.5q0 -119 -78 -196.5t-200 -77.5q-121 0 -198.5 78t-77.5 196zM110 260q0 -100 65.5 -166t167.5 -66q103 0 169 66t66 166q0 101 -66 168t-169 67q-102 0 -167.5 -67t-65.5 -168z" />
    <glyph glyph-name="p" unicode="p" horiz-adv-x="658" 
d="M590 260q0 -119 -71 -194.5t-188 -75.5q-107 0 -184 77v-255h-44v711h44v-70q77 79 184 79q117 0 188 -76t71 -196zM546 260q0 103 -61 167.5t-161 64.5q-55 0 -102 -24t-75 -58v-301q28 -33 75.5 -56t101.5 -23q100 0 161 64t61 166z" />
    <glyph glyph-name="q" unicode="q" horiz-adv-x="658" 
d="M68 260q0 120 71.5 196t187.5 76q105 0 184 -79v70h44v-711h-44v255q-77 -77 -184 -77q-116 0 -187.5 75.5t-71.5 194.5zM113 260q0 -102 61 -166t161 -64q53 0 99.5 23t76.5 55v304q-30 33 -76.5 56.5t-99.5 23.5q-100 0 -161 -64.5t-61 -167.5z" />
    <glyph glyph-name="r" unicode="r" horiz-adv-x="452" 
d="M103 0v523h44v-119q55 128 168 128q61 0 110 -42l-21 -36q-41 36 -93 36q-59 0 -100.5 -41t-63.5 -108v-341h-44z" />
    <glyph glyph-name="s" unicode="s" horiz-adv-x="534" 
d="M452 493l-13 -40q-78 40 -168 40q-73 0 -113 -29t-40 -81q0 -38 26 -56t92 -33l87 -21q76 -17 112.5 -47.5t36.5 -83.5q0 -66 -56 -109t-150 -43q-106 0 -191 45l10 41q85 -47 180 -47q74 0 118.5 31.5t44.5 79.5q0 37 -29 59t-90 35l-88 21q-78 17 -112 44.5t-34 81.5
q0 69 52 110t146 41q46 0 97 -12t82 -27z" />
    <glyph glyph-name="t" unicode="t" horiz-adv-x="474" 
d="M154 656h40v-133h226v-38h-226v-338q0 -56 27 -86.5t79 -30.5q70 0 131 43l17 -36q-71 -47 -158 -47q-67 0 -103.5 39t-36.5 112v344h-108v38h108z" />
    <glyph glyph-name="u" unicode="u" horiz-adv-x="664" 
d="M560 0h-44v109q-61 -118 -208 -118q-103 0 -157 64t-54 167v301h44v-296q0 -87 45 -140.5t132 -53.5q76 0 129 41t69 105v344h44v-523z" />
    <glyph glyph-name="v" unicode="v" horiz-adv-x="602" 
d="M511 523h48l-231 -523h-54l-231 523h48l210 -482z" />
    <glyph glyph-name="w" unicode="w" horiz-adv-x="999" 
d="M906 523h49l-213 -523h-53l-190 481l-190 -481h-54l-210 523h48l190 -482l191 482h52l189 -482z" />
    <glyph glyph-name="x" unicode="x" horiz-adv-x="573" 
d="M529 523v-4l-212 -259l212 -255v-5h-51l-192 231l-190 -231h-52v5l211 255l-211 259v4h50l192 -233l194 233h49z" />
    <glyph glyph-name="y" unicode="y" horiz-adv-x="612" 
d="M516 523h46l-247 -570q-33 -76 -72 -113.5t-105 -37.5q-63 0 -120 37l11 38q53 -35 109 -35q50 0 79.5 27.5t54.5 86.5l19 46l-257 521h49l229 -474z" />
    <glyph glyph-name="z" unicode="z" horiz-adv-x="530" 
d="M58 36l358 449h-358v38h414v-36l-358 -449h358v-38h-414v36z" />
    <glyph glyph-name="braceleft" unicode="{" horiz-adv-x="299" 
d="M239 710v-36h-29q-38 0 -61 -21t-23 -55q0 -30 33.5 -117.5t33.5 -133.5q0 -39 -16.5 -59.5t-55.5 -28.5q39 -8 55.5 -29t16.5 -63q0 -44 -33.5 -131.5t-33.5 -117.5q0 -34 23 -55.5t61 -21.5h29v-35h-33q-60 0 -89 30.5t-29 75.5q0 34 33.5 121t33.5 134q0 76 -95 76v32
q95 0 95 76q0 46 -33.5 132.5t-33.5 121.5q0 44 29 74.5t89 30.5h33z" />
    <glyph glyph-name="bar" unicode="|" horiz-adv-x="248" 
d="M105 -188v898h38v-898h-38z" />
    <glyph glyph-name="braceright" unicode="}" horiz-adv-x="299" 
d="M60 710h33q60 0 89 -30.5t29 -74.5q0 -35 -33.5 -121.5t-33.5 -132.5q0 -76 95 -76v-32q-95 0 -95 -76q0 -47 33.5 -134t33.5 -121q0 -45 -29 -75.5t-89 -30.5h-33v35h29q38 0 61 21.5t23 55.5q0 30 -33.5 117.5t-33.5 131.5q0 42 16.5 63t55.5 29q-39 8 -55.5 28.5
t-16.5 59.5q0 46 33.5 133.5t33.5 117.5q0 34 -23 55t-61 21h-29v36z" />
    <glyph glyph-name="asciitilde" unicode="~" horiz-adv-x="526" 
d="M416 346l23 -17q-7 -40 -31 -65t-60 -25q-23 0 -46.5 14t-40.5 31.5t-39.5 31.5t-43.5 14q-25 0 -44.5 -18t-23.5 -52l-23 17q5 38 29 64t61 26q29 0 60 -23t59 -46t51 -23q55 0 69 71z" />
    <glyph glyph-name="uni00A0" unicode="&#xa0;" horiz-adv-x="240" 
 />
    <glyph glyph-name="exclamdown" unicode="&#xa1;" horiz-adv-x="255" 
d="M146 329l4 -482h-45l4 482h37zM171 491q0 -47 -43 -47q-45 0 -45 47q0 46 45 46q43 0 43 -46z" />
    <glyph glyph-name="cent" unicode="&#xa2;" horiz-adv-x="619" 
d="M67 262q0 119 78 197t199 78q26 0 56 -5l29 103l31 -8l-29 -103q61 -18 106 -58l-23 -34q-41 38 -94 52l-125 -452q21 -4 50 -4q101 0 169 63l23 -34q-77 -71 -193 -71q-22 0 -60 6l-35 -126l-31 9l34 125q-84 26 -134.5 97t-50.5 165zM112 262q0 -79 41 -138.5
t111 -82.5l125 450q-28 4 -44 4q-103 0 -168 -66t-65 -167z" />
    <glyph glyph-name="sterling" unicode="&#xa3;" horiz-adv-x="631" 
d="M467 332h-242q1 -8 5.5 -29t5.5 -28.5t5 -28t4.5 -27.5t2.5 -27t1 -26t-1 -25q16 -9 52 -39t69 -51t59 -21q103 0 101 177h38q2 -102 -31.5 -159.5t-101.5 -57.5q-33 0 -68.5 21t-73 53.5t-51.5 40.5q-23 -115 -105 -115q-39 0 -60 24t-21 63q0 40 27 66t70 26
q37 0 57 -14q3 43 -26 177h-103v33h95q-14 73 -14 131q0 86 49 140t141 54q47 0 90.5 -20t64 -38t35.5 -37l-21 -36q-40 46 -67 62q-42 27 -96 27q-74 0 -113 -44t-39 -115q0 -48 13 -124h249v-33zM154 138q-29 0 -48 -16.5t-19 -44.5q0 -55 49 -55q59 0 70 100
q-24 16 -52 16z" />
    <glyph glyph-name="currency" unicode="&#xa4;" horiz-adv-x="552" 
d="M104 301q0 64 38 108l-57 57l28 27l57 -58q43 35 104 35q65 0 107 -37l59 60l28 -27l-60 -60q36 -44 36 -105q0 -57 -35 -104l59 -59l-28 -27l-59 59q-42 -36 -107 -36q-62 0 -105 34l-56 -57l-28 27l57 56q-38 44 -38 107zM140 301q0 -57 37.5 -95t96.5 -38t96.5 37.5
t37.5 95.5t-37.5 96.5t-96.5 38.5t-96.5 -38.5t-37.5 -96.5z" />
    <glyph glyph-name="yen" unicode="&#xa5;" horiz-adv-x="594" 
d="M501 168h-182v-168h-44v168h-182v33h182v81h-182v33h169l-216 361v4h46l205 -348l204 348h48v-4l-218 -361h170v-33h-182v-81h182v-33z" />
    <glyph glyph-name="brokenbar" unicode="&#xa6;" horiz-adv-x="253" 
d="M146 375h-39v335h39v-335zM107 159h39v-347h-39v347z" />
    <glyph glyph-name="section" unicode="&#xa7;" horiz-adv-x="648" 
d="M85 -52l12 39q108 -46 228 -46q89 0 146.5 26.5t57.5 74.5q0 36 -31.5 52.5t-101.5 29.5l-171 31q-79 15 -115 47.5t-36 90.5q0 47 32 86.5t96 58.5l-13 2q-47 8 -79 33.5t-32 71.5q0 60 64 102.5t178 42.5q130 0 240 -44l-13 -39q-101 45 -229 45q-93 0 -145 -31
t-52 -73q0 -59 83 -71l185 -29q87 -14 135.5 -54t48.5 -101q0 -50 -34 -86.5t-95 -52.5q63 -15 96 -40t33 -69q0 -67 -70.5 -105t-180.5 -38q-127 0 -237 46zM377 411l-84 13q-88 -3 -132.5 -41t-44.5 -86q0 -44 27.5 -68.5t93.5 -36.5l111 -20q84 1 133 32.5t49 85.5
q0 98 -153 121z" />
    <glyph glyph-name="dieresis" unicode="&#xa8;" 
d="M151 672q0 34 33 34q31 0 31 -34t-31 -34q-33 0 -33 34zM399 672q0 34 33 34q31 0 31 -34t-31 -34q-33 0 -33 34z" />
    <glyph glyph-name="copyright" unicode="&#xa9;" horiz-adv-x="836" 
d="M68 339q0 151 100 251t249 100q151 0 251 -100t100 -251q0 -149 -100 -249t-251 -100q-149 0 -249 100t-100 249zM100 339q0 -136 90.5 -227t226.5 -91q137 0 228 91t91 227q0 137 -91 228.5t-228 91.5q-136 0 -226.5 -91.5t-90.5 -228.5zM282 340q0 -61 39.5 -100
t100.5 -39q72 0 113 46l19 -26q-51 -56 -134 -56q-76 0 -125.5 49.5t-49.5 125.5q0 75 49.5 124.5t125.5 49.5q84 0 134 -56l-19 -26q-41 47 -113 47q-61 0 -100.5 -39.5t-39.5 -99.5z" />
    <glyph glyph-name="ordfeminine" unicode="&#xaa;" horiz-adv-x="501" 
d="M368 353q-44 0 -52 44q-46 -44 -108 -44q-53 0 -84.5 27.5t-31.5 75.5q0 56 44.5 84.5t118.5 28.5q25 0 59 -8v19q0 40 -19.5 58t-63.5 18q-57 0 -101 -23l-7 33q41 20 108 22q4 0 10 -0.5t9 -0.5q53 -6 76 -30t23 -75v-158q0 -40 30 -40q16 0 36 14l5 -29
q-28 -16 -52 -16zM103 260h299v-31h-299v31zM126 458q0 -34 24 -53.5t64 -19.5q57 0 100 41v108q-21 7 -59 7q-129 0 -129 -83z" />
    <glyph glyph-name="guillemotleft" unicode="&#xab;" horiz-adv-x="517" 
d="M67 297v12l158 196h5l16 -18l-138 -184l138 -184l-16 -18h-5zM264 297v12l158 196h5l16 -18l-138 -184l138 -184l-16 -18h-5z" />
    <glyph glyph-name="logicalnot" unicode="&#xac;" horiz-adv-x="640" 
d="M509 138v205h-412v38h450v-243h-38z" />
    <glyph glyph-name="uni00AD" unicode="&#xad;" horiz-adv-x="541" 
d="M90 322h361v-39h-361v39z" />
    <glyph glyph-name="registered" unicode="&#xae;" horiz-adv-x="836" 
d="M68 339q0 151 100 251t249 100q151 0 251 -100t100 -251q0 -149 -100 -249t-251 -100q-149 0 -249 100t-100 249zM100 339q0 -136 90.5 -227t226.5 -91q137 0 228 91t91 227q0 137 -91 228.5t-228 91.5q-136 0 -226.5 -91.5t-90.5 -228.5zM291 169v340h150q49 0 82 -27.5
t33 -80.5q0 -55 -36 -81t-77 -26h-3l132 -119v-6h-44l-138 125h-63v-125h-36zM440 478h-113v-154h113q34 0 57 20.5t23 55.5q0 38 -23 58t-57 20z" />
    <glyph glyph-name="macron" unicode="&#xaf;" 
d="M424 644h-235v36h235v-36z" />
    <glyph glyph-name="degree" unicode="&#xb0;" horiz-adv-x="478" 
d="M69 520q0 73 47.5 121t121.5 48q75 0 122.5 -48t47.5 -121q0 -72 -48 -120t-122 -48t-121.5 48t-47.5 120zM104 520q0 -57 37.5 -95t96.5 -38q60 0 97.5 37.5t37.5 95.5t-37.5 96.5t-97.5 38.5q-59 0 -96.5 -38.5t-37.5 -96.5z" />
    <glyph glyph-name="plusminus" unicode="&#xb1;" horiz-adv-x="653" 
d="M345 636v-205h206v-38h-206v-169h-38v169h-205v38h205v205h38zM102 129h449v-38h-449v38z" />
    <glyph glyph-name="twosuperior" unicode="&#xb2;" horiz-adv-x="327" 
d="M51 472v26l132 100q58 43 58 90q0 32 -20.5 52.5t-58.5 20.5q-41 0 -63.5 -22.5t-23.5 -59.5l-29 4q1 48 31.5 77.5t84.5 29.5t82 -28t28 -72q0 -61 -67 -112l-105 -78h182v-28h-231z" />
    <glyph glyph-name="threesuperior" unicode="&#xb3;" horiz-adv-x="327" 
d="M83 647h83q33 0 52 17.5t19 40.5q0 56 -85 56q-50 0 -96 -22l-8 28q51 23 104 23q54 0 85 -22t31 -61q0 -27 -15.5 -47.5t-43.5 -24.5q70 -12 70 -78q0 -41 -35 -65.5t-92 -24.5q-46 0 -105 22l8 27q46 -20 97 -20q41 0 68.5 17.5t27.5 47.5q0 27 -21.5 43t-60.5 16h-83
v27z" />
    <glyph glyph-name="acute" unicode="&#xb4;" 
d="M372 741l-87 -132h-43l82 132h48z" />
    <glyph glyph-name="mu" unicode="&#xb5;" horiz-adv-x="627" 
d="M147 523v-296q0 -90 41.5 -142.5t125.5 -52.5q72 0 122 40.5t67 100.5v350h44v-523h-44v100q-28 -51 -79.5 -80.5t-119.5 -29.5q-104 0 -157 72v-250h-44v711h44z" />
    <glyph glyph-name="paragraph" unicode="&#xb6;" horiz-adv-x="500" 
d="M207 -188v498h-57q-49 0 -79.5 28t-30.5 78t30.5 78t79.5 29h95v-711h-38zM356 -188v711h38v-711h-38z" />
    <glyph glyph-name="periodcentered" unicode="&#xb7;" horiz-adv-x="265" 
d="M89 299q0 46 42 46q45 0 45 -46q0 -47 -45 -47q-42 0 -42 47z" />
    <glyph glyph-name="cedilla" unicode="&#xb8;" 
d="M232 -95l25 95h28l-18 -70q18 4 35 4q38 0 60 -17t22 -44q0 -34 -27.5 -52.5t-68.5 -18.5q-37 0 -72 13l7 24q33 -12 64 -12q68 0 68 45q0 38 -60 38q-31 0 -60 -9z" />
    <glyph glyph-name="onesuperior" unicode="&#xb9;" horiz-adv-x="250" 
d="M24 721l132 63h27v-312h-31v278l-115 -54z" />
    <glyph glyph-name="ordmasculine" unicode="&#xba;" horiz-adv-x="521" 
d="M91 520q0 73 48 121t122 48q75 0 122.5 -48t47.5 -121q0 -72 -47.5 -120t-122.5 -48q-74 0 -122 48t-48 120zM124 520q0 -59 38.5 -97t98.5 -38t98 38t38 97t-38 98t-98 39t-98.5 -39t-38.5 -98zM112 260h299v-31h-299v31z" />
    <glyph glyph-name="guillemotright" unicode="&#xbb;" horiz-adv-x="517" 
d="M253 309v-12l-158 -196h-5l-15 18l137 184l-138 183l16 19h5zM450 309v-12l-158 -196h-5l-15 18l137 184l-138 183l16 19h5z" />
    <glyph glyph-name="onequarter" unicode="&#xbc;" horiz-adv-x="741" 
d="M125 5l368 675h32v-4l-368 -676h-32v5zM698 69h-70v-69h-31v69h-191v25l181 218h41v-217h70v-26zM441 95h156v189zM35 621l132 63h27v-312h-31v278l-115 -54z" />
    <glyph glyph-name="onehalf" unicode="&#xbd;" horiz-adv-x="708" 
d="M126 5l368 675h32v-4l-368 -676h-32v5zM426 0v26l132 99q57 42 57 91q0 32 -20 52t-59 20q-41 0 -63 -22.5t-23 -59.5l-29 5q1 48 31.5 77.5t84.5 29.5t82 -28t28 -73q0 -62 -68 -111l-104 -78h182v-28h-231zM36 616l132 63h27v-312h-31v278l-115 -54z" />
    <glyph glyph-name="threequarters" unicode="&#xbe;" horiz-adv-x="810" 
d="M196 5l368 675h32v-4l-368 -676h-32v5zM769 69h-70v-69h-31v69h-191v25l181 218h41v-217h70v-26zM512 95h156v189zM94 547h83q33 0 52 17.5t19 40.5q0 56 -85 56q-50 0 -96 -22l-8 28q51 23 104 23q54 0 85 -22t31 -61q0 -27 -15.5 -47.5t-43.5 -24.5q70 -12 70 -78
q0 -41 -35 -65.5t-92 -24.5q-46 0 -105 22l8 27q46 -20 97 -20q41 0 68.5 17.5t27.5 47.5q0 27 -21.5 43t-60.5 16h-83v27z" />
    <glyph glyph-name="questiondown" unicode="&#xbf;" horiz-adv-x="462" 
d="M243 329h39q5 -17 5 -33q0 -26 -9 -43t-33 -39l-69 -65q-25 -24 -38 -38.5t-26 -43t-13 -60.5q0 -59 40.5 -95t102.5 -36q109 0 156 87l23 -32q-57 -95 -183 -95q-80 0 -131 47.5t-51 122.5q0 32 7 57t24 47.5t26.5 32.5t34.5 32l69 64q19 17 24.5 28t5.5 32q0 15 -4 30z
M304 491q0 -47 -43 -47q-44 0 -44 47q0 46 44 46q43 0 43 -46z" />
    <glyph glyph-name="Agrave" unicode="&#xc0;" horiz-adv-x="701" 
d="M31 0l299 680h49l282 -680h-45l-73 174h-390l-77 -174h-45zM354 634l-187 -423h363zM336 766l-87 132h48l82 -132h-43z" />
    <glyph glyph-name="Aacute" unicode="&#xc1;" horiz-adv-x="701" 
d="M31 0l299 680h49l282 -680h-45l-73 174h-390l-77 -174h-45zM354 634l-187 -423h363zM450 898l-87 -132h-43l82 132h48z" />
    <glyph glyph-name="Acircumflex" unicode="&#xc2;" horiz-adv-x="701" 
d="M31 0l299 680h49l282 -680h-45l-73 174h-390l-77 -174h-45zM354 634l-187 -423h363zM447 766l-93 105l-91 -105h-43l111 132h47l111 -132h-42z" />
    <glyph glyph-name="Atilde" unicode="&#xc3;" horiz-adv-x="701" 
d="M31 0l299 680h49l282 -680h-45l-73 174h-390l-77 -174h-45zM354 634l-187 -423h363zM213 792l-20 22q34 64 91 64q27 0 74.5 -35.5t65.5 -35.5q44 0 70 52l20 -22q-35 -65 -90 -65q-26 0 -74 35.5t-66 35.5q-44 0 -71 -51z" />
    <glyph glyph-name="Adieresis" unicode="&#xc4;" horiz-adv-x="701" 
d="M31 0l299 680h49l282 -680h-45l-73 174h-390l-77 -174h-45zM354 634l-187 -423h363zM198 829q0 34 33 34q31 0 31 -34t-31 -34q-33 0 -33 34zM446 829q0 34 33 34q31 0 31 -34t-31 -34q-33 0 -33 34z" />
    <glyph glyph-name="Aring" unicode="&#xc5;" horiz-adv-x="701" 
d="M255 754q0 40 28.5 69t69.5 29t69.5 -29t28.5 -69q0 -31 -18 -56.5t-47 -35.5l275 -662h-45l-73 174h-390l-77 -174h-45l290 661q-29 10 -47.5 35.5t-18.5 57.5zM354 634l-187 -423h363zM282 754q0 -29 21 -50t50 -21t49.5 21t20.5 50t-20.5 49.5t-49.5 20.5t-50 -20.5
t-21 -49.5z" />
    <glyph glyph-name="AE" unicode="&#xc6;" horiz-adv-x="1052" 
d="M477 0v174h-297l-115 -174h-50l445 680h526v-41h-466v-264h393v-38h-393v-297h466v-40h-509zM202 211h275v421z" />
    <glyph glyph-name="Ccedilla" unicode="&#xc7;" horiz-adv-x="749" 
d="M356 -95l23 87q-136 14 -224 111.5t-88 236.5q0 149 100.5 249.5t250.5 100.5q167 0 267 -114l-23 -32q-94 104 -244 104q-132 0 -219 -88t-87 -220t87 -220t219 -88q150 0 244 104l23 -32q-100 -114 -267 -114q-2 0 -6 0.5t-6 0.5l-15 -61q18 4 35 4q38 0 60 -17t22 -44
q0 -34 -27.5 -52.5t-68.5 -18.5q-37 0 -72 13l7 24q33 -12 64 -12q68 0 68 45q0 38 -60 38q-31 0 -60 -9z" />
    <glyph glyph-name="Egrave" unicode="&#xc8;" horiz-adv-x="689" 
d="M624 0h-510v680h510v-41h-467v-263h394v-40h-394v-295h467v-41zM350 766l-87 132h48l82 -132h-43z" />
    <glyph glyph-name="Eacute" unicode="&#xc9;" horiz-adv-x="689" 
d="M624 0h-510v680h510v-41h-467v-263h394v-40h-394v-295h467v-41zM468 898l-87 -132h-43l82 132h48z" />
    <glyph glyph-name="Ecircumflex" unicode="&#xca;" horiz-adv-x="689" 
d="M624 0h-510v680h510v-41h-467v-263h394v-40h-394v-295h467v-41zM461 766l-93 105l-91 -105h-43l111 132h47l111 -132h-42z" />
    <glyph glyph-name="Edieresis" unicode="&#xcb;" horiz-adv-x="689" 
d="M624 0h-510v680h510v-41h-467v-263h394v-40h-394v-295h467v-41zM212 829q0 34 33 34q31 0 31 -34t-31 -34q-33 0 -33 34zM460 829q0 34 33 34q31 0 31 -34t-31 -34q-33 0 -33 34z" />
    <glyph glyph-name="Igrave" unicode="&#xcc;" horiz-adv-x="273" 
d="M114 0v680h44v-680h-44zM124 766l-87 132h48l82 -132h-43z" />
    <glyph glyph-name="Iacute" unicode="&#xcd;" horiz-adv-x="273" 
d="M114 0v680h44v-680h-44zM242 898l-87 -132h-43l82 132h48z" />
    <glyph glyph-name="Icircumflex" unicode="&#xce;" horiz-adv-x="273" 
d="M114 0v680h44v-680h-44zM228 766l-93 105l-91 -105h-43l111 132h47l111 -132h-42z" />
    <glyph glyph-name="Idieresis" unicode="&#xcf;" horiz-adv-x="273" 
d="M114 0v680h44v-680h-44zM-21 829q0 34 33 34q31 0 31 -34t-31 -34q-33 0 -33 34zM227 829q0 34 33 34q31 0 31 -34t-31 -34q-33 0 -33 34z" />
    <glyph glyph-name="Eth" unicode="&#xd0;" horiz-adv-x="791" 
d="M353 327h-298v30h298v-30zM120 0v680h44v-680h-44zM141 640v40h229q156 -1 253.5 -90.5t97.5 -250.5q0 -160 -97.5 -249.5t-253.5 -89.5h-233v40h232q137 0 222 78.5t85 220.5q0 143 -84.5 221.5t-222.5 79.5h-228z" />
    <glyph glyph-name="Ntilde" unicode="&#xd1;" horiz-adv-x="830" 
d="M675 0l-517 609v-609h-44v680h41l516 -612v612h44v-680h-40zM282 792l-20 22q34 64 91 64q27 0 74.5 -35.5t65.5 -35.5q44 0 70 52l20 -22q-35 -65 -90 -65q-26 0 -74 35.5t-66 35.5q-44 0 -71 -51z" />
    <glyph glyph-name="Ograve" unicode="&#xd2;" horiz-adv-x="835" 
d="M68 339q0 151 100 251t249 100q151 0 251 -100t100 -251q0 -149 -100 -249t-251 -100q-149 0 -249 100t-100 249zM111 339q0 -132 87 -219.5t219 -87.5q133 0 220 87.5t87 219.5q0 134 -87 221t-220 87q-132 0 -219 -87.5t-87 -220.5zM397 766l-87 132h48l82 -132h-43z
" />
    <glyph glyph-name="Oacute" unicode="&#xd3;" horiz-adv-x="835" 
d="M68 339q0 151 100 251t249 100q151 0 251 -100t100 -251q0 -149 -100 -249t-251 -100q-149 0 -249 100t-100 249zM111 339q0 -132 87 -219.5t219 -87.5q133 0 220 87.5t87 219.5q0 134 -87 221t-220 87q-132 0 -219 -87.5t-87 -220.5zM523 898l-87 -132h-43l82 132h48z
" />
    <glyph glyph-name="Ocircumflex" unicode="&#xd4;" horiz-adv-x="835" 
d="M68 339q0 151 100 251t249 100q151 0 251 -100t100 -251q0 -149 -100 -249t-251 -100q-149 0 -249 100t-100 249zM111 339q0 -132 87 -219.5t219 -87.5q133 0 220 87.5t87 219.5q0 134 -87 221t-220 87q-132 0 -219 -87.5t-87 -220.5zM509 766l-93 105l-91 -105h-43
l111 132h47l111 -132h-42z" />
    <glyph glyph-name="Otilde" unicode="&#xd5;" horiz-adv-x="835" 
d="M68 339q0 151 100 251t249 100q151 0 251 -100t100 -251q0 -149 -100 -249t-251 -100q-149 0 -249 100t-100 249zM111 339q0 -132 87 -219.5t219 -87.5q133 0 220 87.5t87 219.5q0 134 -87 221t-220 87q-132 0 -219 -87.5t-87 -220.5zM276 792l-20 22q34 64 91 64
q27 0 74.5 -35.5t65.5 -35.5q44 0 70 52l20 -22q-35 -65 -90 -65q-26 0 -74 35.5t-66 35.5q-44 0 -71 -51z" />
    <glyph glyph-name="Odieresis" unicode="&#xd6;" horiz-adv-x="835" 
d="M68 339q0 151 100 251t249 100q151 0 251 -100t100 -251q0 -149 -100 -249t-251 -100q-149 0 -249 100t-100 249zM111 339q0 -132 87 -219.5t219 -87.5q133 0 220 87.5t87 219.5q0 134 -87 221t-220 87q-132 0 -219 -87.5t-87 -220.5zM261 829q0 34 33 34q31 0 31 -34
t-31 -34q-33 0 -33 34zM509 829q0 34 33 34q31 0 31 -34t-31 -34q-33 0 -33 34z" />
    <glyph glyph-name="multiply" unicode="&#xd7;" horiz-adv-x="518" 
d="M431 447l-146 -145l146 -145l-27 -27l-145 145l-145 -145l-27 27l145 145l-145 145l27 27l145 -145l145 145z" />
    <glyph glyph-name="Oslash" unicode="&#xd8;" horiz-adv-x="835" 
d="M68 339q0 151 100 251t249 100q120 0 211 -66l46 56h37v-4l-58 -72q115 -102 115 -265q0 -149 -100 -249t-251 -100q-119 0 -209 65l-44 -55h-38v5l57 70q-115 102 -115 264zM111 339q0 -143 99 -231l391 482q-78 58 -184 58q-132 0 -219 -88t-87 -221zM724 339
q0 142 -98 232l-391 -483q78 -56 182 -56q133 0 220 87.5t87 219.5z" />
    <glyph glyph-name="Ugrave" unicode="&#xd9;" horiz-adv-x="781" 
d="M149 680v-406q0 -113 60 -178.5t180 -65.5t181.5 68.5t61.5 176.5v405h44v-408q0 -121 -74.5 -202.5t-212.5 -81.5q-139 0 -211.5 77.5t-72.5 206.5v408h44zM370 766l-87 132h48l82 -132h-43z" />
    <glyph glyph-name="Uacute" unicode="&#xda;" horiz-adv-x="781" 
d="M149 680v-406q0 -113 60 -178.5t180 -65.5t181.5 68.5t61.5 176.5v405h44v-408q0 -121 -74.5 -202.5t-212.5 -81.5q-139 0 -211.5 77.5t-72.5 206.5v408h44zM496 898l-87 -132h-43l82 132h48z" />
    <glyph glyph-name="Ucircumflex" unicode="&#xdb;" horiz-adv-x="781" 
d="M149 680v-406q0 -113 60 -178.5t180 -65.5t181.5 68.5t61.5 176.5v405h44v-408q0 -121 -74.5 -202.5t-212.5 -81.5q-139 0 -211.5 77.5t-72.5 206.5v408h44zM482 766l-93 105l-91 -105h-43l111 132h47l111 -132h-42z" />
    <glyph glyph-name="Udieresis" unicode="&#xdc;" horiz-adv-x="781" 
d="M149 680v-406q0 -113 60 -178.5t180 -65.5t181.5 68.5t61.5 176.5v405h44v-408q0 -121 -74.5 -202.5t-212.5 -81.5q-139 0 -211.5 77.5t-72.5 206.5v408h44zM234 829q0 34 33 34q31 0 31 -34t-31 -34q-33 0 -33 34zM482 829q0 34 33 34q31 0 31 -34t-31 -34q-33 0 -33 34
z" />
    <glyph glyph-name="Yacute" unicode="&#xdd;" horiz-adv-x="690" 
d="M323 0v293l-290 383v4h49l263 -346l263 346h49v-4l-290 -382v-294h-44zM450 898l-87 -132h-43l82 132h48z" />
    <glyph glyph-name="Thorn" unicode="&#xde;" horiz-adv-x="679" 
d="M114 0v680h44v-115h237q104 0 169 -52t65 -165q0 -104 -66.5 -159t-167.5 -55h-237v-134h-44zM391 525h-233v-351h233q84 0 138.5 44t54.5 130q0 93 -53 135t-140 42z" />
    <glyph glyph-name="germandbls" unicode="&#xdf;" horiz-adv-x="662" 
d="M334 720q91 0 150 -54t59 -132q0 -34 -16 -65.5t-35.5 -50.5t-35.5 -36t-16 -25q0 -7 25 -25t54.5 -39t54.5 -59t25 -80q0 -77 -53.5 -120.5t-138.5 -43.5q-89 0 -149 34l10 38q53 -32 131 -32q66 0 110 34t44 92q0 38 -25 71.5t-55 53t-55 39t-25 33.5t16.5 33.5t36 37
t36 47t16.5 61.5q0 65 -48.5 106.5t-118.5 41.5q-85 0 -134.5 -58.5t-49.5 -157.5v-464h-44v462q0 118 63.5 188t167.5 70z" />
    <glyph glyph-name="agrave" unicode="&#xe0;" horiz-adv-x="577" 
d="M282 609l-87 132h48l82 -132h-43zM119 455l-10 40q76 37 176 37q95 0 144.5 -49.5t49.5 -137.5v-345h-44v66q-80 -76 -189 -76q-87 0 -138 43t-51 117q0 94 71.5 139.5t189.5 45.5q66 0 117 -16v25q0 72 -39 110t-114 38q-89 0 -163 -37zM101 153q0 -58 41.5 -91.5
t112.5 -33.5q100 0 180 75v182q-42 14 -111 14q-101 0 -162 -35.5t-61 -110.5z" />
    <glyph glyph-name="aacute" unicode="&#xe1;" horiz-adv-x="577" 
d="M399 741l-87 -132h-43l82 132h48zM119 455l-10 40q76 37 176 37q95 0 144.5 -49.5t49.5 -137.5v-345h-44v66q-80 -76 -189 -76q-87 0 -138 43t-51 117q0 94 71.5 139.5t189.5 45.5q66 0 117 -16v25q0 72 -39 110t-114 38q-89 0 -163 -37zM101 153q0 -58 41.5 -91.5
t112.5 -33.5q100 0 180 75v182q-42 14 -111 14q-101 0 -162 -35.5t-61 -110.5z" />
    <glyph glyph-name="acircumflex" unicode="&#xe2;" horiz-adv-x="577" 
d="M385 609l-93 105l-91 -105h-43l111 132h47l111 -132h-42zM119 455l-10 40q76 37 176 37q95 0 144.5 -49.5t49.5 -137.5v-345h-44v66q-80 -76 -189 -76q-87 0 -138 43t-51 117q0 94 71.5 139.5t189.5 45.5q66 0 117 -16v25q0 72 -39 110t-114 38q-89 0 -163 -37zM101 153
q0 -58 41.5 -91.5t112.5 -33.5q100 0 180 75v182q-42 14 -111 14q-101 0 -162 -35.5t-61 -110.5z" />
    <glyph glyph-name="atilde" unicode="&#xe3;" horiz-adv-x="577" 
d="M157 635l-20 22q34 64 91 64q27 0 74.5 -35.5t65.5 -35.5q44 0 70 52l20 -22q-35 -65 -90 -65q-26 0 -74 35.5t-66 35.5q-44 0 -71 -51zM119 455l-10 40q76 37 176 37q95 0 144.5 -49.5t49.5 -137.5v-345h-44v66q-80 -76 -189 -76q-87 0 -138 43t-51 117q0 94 71.5 139.5
t189.5 45.5q66 0 117 -16v25q0 72 -39 110t-114 38q-89 0 -163 -37zM101 153q0 -58 41.5 -91.5t112.5 -33.5q100 0 180 75v182q-42 14 -111 14q-101 0 -162 -35.5t-61 -110.5z" />
    <glyph glyph-name="adieresis" unicode="&#xe4;" horiz-adv-x="577" 
d="M135 672q0 34 33 34q31 0 31 -34t-31 -34q-33 0 -33 34zM383 672q0 34 33 34q31 0 31 -34t-31 -34q-33 0 -33 34zM119 455l-10 40q76 37 176 37q95 0 144.5 -49.5t49.5 -137.5v-345h-44v66q-80 -76 -189 -76q-87 0 -138 43t-51 117q0 94 71.5 139.5t189.5 45.5
q66 0 117 -16v25q0 72 -39 110t-114 38q-89 0 -163 -37zM101 153q0 -58 41.5 -91.5t112.5 -33.5q100 0 180 75v182q-42 14 -111 14q-101 0 -162 -35.5t-61 -110.5z" />
    <glyph glyph-name="aring" unicode="&#xe5;" horiz-adv-x="577" 
d="M195 670q0 40 28.5 69t69.5 29t69.5 -29t28.5 -69t-28.5 -69t-69.5 -29t-69.5 29t-28.5 69zM222 670q0 -29 21 -50t50 -21t49.5 21t20.5 50t-20.5 49.5t-49.5 20.5t-50 -20.5t-21 -49.5zM119 455l-10 40q76 37 176 37q95 0 144.5 -49.5t49.5 -137.5v-345h-44v66
q-80 -76 -189 -76q-87 0 -138 43t-51 117q0 94 71.5 139.5t189.5 45.5q66 0 117 -16v25q0 72 -39 110t-114 38q-89 0 -163 -37zM101 153q0 -58 41.5 -91.5t112.5 -33.5q100 0 180 75v182q-42 14 -111 14q-101 0 -162 -35.5t-61 -110.5z" />
    <glyph glyph-name="ae" unicode="&#xe6;" horiz-adv-x="954" 
d="M877 245h-397q3 -103 46.5 -162t149.5 -59q93 0 179 66l21 -33q-89 -71 -203 -71q-79 0 -133.5 34t-75.5 95q-92 -125 -215 -125q-88 0 -140 43.5t-52 116.5q0 93 72 138.5t192 45.5q73 0 114 -10q0 93 -29 130.5t-117 37.5q-98 0 -170 -37l-10 40q73 36 185 36
q50 0 84 -10.5t52 -31.5t26 -43t13 -55q21 57 72 101.5t128 44.5q104 0 160 -62.5t56 -155.5q0 -45 -8 -74zM671 501q-62 0 -106.5 -35t-63 -83t-19.5 -103h361q3 20 3 42q0 76 -45.5 127.5t-129.5 51.5zM101 153q0 -59 41.5 -92t112.5 -33q60 0 106.5 33t73.5 78v151
q-51 11 -112 11q-102 -1 -162 -36.5t-60 -111.5z" />
    <glyph glyph-name="ccedilla" unicode="&#xe7;" horiz-adv-x="601" 
d="M281 -95l22 84q-105 13 -170 89t-65 184q0 119 78 197t199 78q116 0 193 -71l-23 -34q-68 63 -169 63q-103 0 -168 -66t-65 -167t65 -167.5t168 -66.5q101 0 169 63l23 -34q-77 -71 -193 -71h-15l-14 -56q18 4 35 4q38 0 60 -17t22 -44q0 -34 -27.5 -52.5t-68.5 -18.5
q-37 0 -72 13l7 24q33 -12 64 -12q68 0 68 45q0 38 -60 38q-31 0 -60 -9z" />
    <glyph glyph-name="egrave" unicode="&#xe8;" horiz-adv-x="637" 
d="M539 91l21 -34q-89 -71 -212 -71q-140 0 -210 77t-70 197q0 117 74 197t197 80q113 0 171.5 -61.5t58.5 -156.5q0 -42 -9 -76h-448q4 -97 62.5 -157.5t173.5 -60.5q103 0 191 66zM522 281q4 26 4 43q0 74 -47 124t-140 50q-100 0 -161.5 -63t-64.5 -154h409zM335 609
l-87 132h48l82 -132h-43z" />
    <glyph glyph-name="eacute" unicode="&#xe9;" horiz-adv-x="637" 
d="M539 91l21 -34q-89 -71 -212 -71q-140 0 -210 77t-70 197q0 117 74 197t197 80q113 0 171.5 -61.5t58.5 -156.5q0 -42 -9 -76h-448q4 -97 62.5 -157.5t173.5 -60.5q103 0 191 66zM522 281q4 26 4 43q0 74 -47 124t-140 50q-100 0 -161.5 -63t-64.5 -154h409zM441 741
l-87 -132h-43l82 132h48z" />
    <glyph glyph-name="ecircumflex" unicode="&#xea;" horiz-adv-x="637" 
d="M539 91l21 -34q-89 -71 -212 -71q-140 0 -210 77t-70 197q0 117 74 197t197 80q113 0 171.5 -61.5t58.5 -156.5q0 -42 -9 -76h-448q4 -97 62.5 -157.5t173.5 -60.5q103 0 191 66zM522 281q4 26 4 43q0 74 -47 124t-140 50q-100 0 -161.5 -63t-64.5 -154h409zM437 609
l-93 105l-91 -105h-43l111 132h47l111 -132h-42z" />
    <glyph glyph-name="edieresis" unicode="&#xeb;" horiz-adv-x="637" 
d="M539 91l21 -34q-89 -71 -212 -71q-140 0 -210 77t-70 197q0 117 74 197t197 80q113 0 171.5 -61.5t58.5 -156.5q0 -42 -9 -76h-448q4 -97 62.5 -157.5t173.5 -60.5q103 0 191 66zM522 281q4 26 4 43q0 74 -47 124t-140 50q-100 0 -161.5 -63t-64.5 -154h409zM188 672
q0 34 33 34q31 0 31 -34t-31 -34q-33 0 -33 34zM436 672q0 34 33 34q31 0 31 -34t-31 -34q-33 0 -33 34z" />
    <glyph glyph-name="igrave" unicode="&#xec;" horiz-adv-x="251" 
d="M112 609l-87 132h48l82 -132h-43zM147 0h-44v523h44v-523z" />
    <glyph glyph-name="iacute" unicode="&#xed;" horiz-adv-x="251" 
d="M233 741l-87 -132h-43l82 132h48zM147 0h-44v523h44v-523z" />
    <glyph glyph-name="icircumflex" unicode="&#xee;" horiz-adv-x="251" 
d="M147 0h-44v523h44v-523zM217 609l-93 105l-91 -105h-43l111 132h47l111 -132h-42z" />
    <glyph glyph-name="idieresis" unicode="&#xef;" horiz-adv-x="251" 
d="M-30 672q0 34 33 34q31 0 31 -34t-31 -34q-33 0 -33 34zM218 672q0 34 33 34q31 0 31 -34t-31 -34q-33 0 -33 34zM147 0h-44v523h44v-523z" />
    <glyph glyph-name="eth" unicode="&#xf0;" horiz-adv-x="641" 
d="M503 706l-67 -68q128 -119 128 -297q0 -160 -70.5 -255.5t-195.5 -95.5q-98 0 -162 66.5t-64 170.5q0 106 59 166.5t160 60.5q44 0 83 -15t67 -39.5t46 -46t32 -45.5q0 6 0.5 17t0.5 16q0 160 -113 268l-72 -74l-17 17l71 73q-55 44 -114 64l19 31q62 -18 123 -66l68 70z
M299 32q88 0 144 62t71 169q-11 21 -27 42.5t-43 48.5t-65.5 44t-81.5 17q-81 0 -131 -49.5t-50 -138.5q0 -83 52 -139t131 -56z" />
    <glyph glyph-name="ntilde" unicode="&#xf1;" horiz-adv-x="664" 
d="M103 523h44v-109q30 56 83.5 87t125.5 31q103 0 157 -64t54 -167v-301h-44v296q0 87 -45 140.5t-132 53.5q-76 0 -129.5 -41t-69.5 -105v-344h-44v523zM199 635l-20 22q34 64 91 64q27 0 74.5 -35.5t65.5 -35.5q44 0 70 52l20 -22q-35 -65 -90 -65q-26 0 -74 35.5
t-66 35.5q-44 0 -71 -51z" />
    <glyph glyph-name="ograve" unicode="&#xf2;" horiz-adv-x="688" 
d="M67 260q0 120 77.5 198.5t198.5 78.5q122 0 200 -78.5t78 -198.5q0 -119 -78 -196.5t-200 -77.5q-121 0 -198.5 78t-77.5 196zM110 260q0 -100 65.5 -166t167.5 -66q103 0 169 66t66 166q0 101 -66 168t-169 67q-102 0 -167.5 -67t-65.5 -168zM324 609l-87 132h48
l82 -132h-43z" />
    <glyph glyph-name="oacute" unicode="&#xf3;" horiz-adv-x="688" 
d="M67 260q0 120 77.5 198.5t198.5 78.5q122 0 200 -78.5t78 -198.5q0 -119 -78 -196.5t-200 -77.5q-121 0 -198.5 78t-77.5 196zM110 260q0 -100 65.5 -166t167.5 -66q103 0 169 66t66 166q0 101 -66 168t-169 67q-102 0 -167.5 -67t-65.5 -168zM449 741l-87 -132h-43
l82 132h48z" />
    <glyph glyph-name="ocircumflex" unicode="&#xf4;" horiz-adv-x="688" 
d="M67 260q0 120 77.5 198.5t198.5 78.5q122 0 200 -78.5t78 -198.5q0 -119 -78 -196.5t-200 -77.5q-121 0 -198.5 78t-77.5 196zM110 260q0 -100 65.5 -166t167.5 -66q103 0 169 66t66 166q0 101 -66 168t-169 67q-102 0 -167.5 -67t-65.5 -168zM435 609l-93 105l-91 -105
h-43l111 132h47l111 -132h-42z" />
    <glyph glyph-name="otilde" unicode="&#xf5;" horiz-adv-x="688" 
d="M67 260q0 120 77.5 198.5t198.5 78.5q122 0 200 -78.5t78 -198.5q0 -119 -78 -196.5t-200 -77.5q-121 0 -198.5 78t-77.5 196zM110 260q0 -100 65.5 -166t167.5 -66q103 0 169 66t66 166q0 101 -66 168t-169 67q-102 0 -167.5 -67t-65.5 -168zM202 635l-20 22
q34 64 91 64q27 0 74.5 -35.5t65.5 -35.5q44 0 70 52l20 -22q-35 -65 -90 -65q-26 0 -74 35.5t-66 35.5q-44 0 -71 -51z" />
    <glyph glyph-name="odieresis" unicode="&#xf6;" horiz-adv-x="688" 
d="M67 260q0 120 77.5 198.5t198.5 78.5q122 0 200 -78.5t78 -198.5q0 -119 -78 -196.5t-200 -77.5q-121 0 -198.5 78t-77.5 196zM110 260q0 -100 65.5 -166t167.5 -66q103 0 169 66t66 166q0 101 -66 168t-169 67q-102 0 -167.5 -67t-65.5 -168zM187 672q0 34 33 34
q31 0 31 -34t-31 -34q-33 0 -33 34zM435 672q0 34 33 34q31 0 31 -34t-31 -34q-33 0 -33 34z" />
    <glyph glyph-name="divide" unicode="&#xf7;" horiz-adv-x="625" 
d="M87 321h449v-38h-449v38zM259 472q0 46 43 46q44 0 44 -46t-44 -46q-43 0 -43 46zM259 133q0 46 43 46q44 0 44 -46q0 -47 -44 -47q-43 0 -43 47z" />
    <glyph glyph-name="oslash" unicode="&#xf8;" horiz-adv-x="688" 
d="M67 260q0 120 77.5 198.5t198.5 78.5q104 0 176 -58l35 43h32v-4l-46 -57q81 -78 81 -201q0 -119 -78 -196.5t-200 -77.5q-89 0 -155 43l-23 -29h-32v5l32 40q-98 79 -98 215zM110 260q0 -114 82 -182l300 368q-63 49 -149 49q-102 0 -167.5 -67t-65.5 -168zM578 260
q0 102 -66 168l-297 -366q55 -35 128 -35q103 0 169 66.5t66 166.5z" />
    <glyph glyph-name="ugrave" unicode="&#xf9;" horiz-adv-x="664" 
d="M560 0h-44v109q-61 -118 -208 -118q-103 0 -157 64t-54 167v301h44v-296q0 -87 45 -140.5t132 -53.5q76 0 129 41t69 105v344h44v-523zM311 609l-87 132h48l82 -132h-43z" />
    <glyph glyph-name="uacute" unicode="&#xfa;" horiz-adv-x="664" 
d="M560 0h-44v109q-61 -118 -208 -118q-103 0 -157 64t-54 167v301h44v-296q0 -87 45 -140.5t132 -53.5q76 0 129 41t69 105v344h44v-523zM444 741l-87 -132h-43l82 132h48z" />
    <glyph glyph-name="ucircumflex" unicode="&#xfb;" horiz-adv-x="664" 
d="M560 0h-44v109q-61 -118 -208 -118q-103 0 -157 64t-54 167v301h44v-296q0 -87 45 -140.5t132 -53.5q76 0 129 41t69 105v344h44v-523zM423 609l-93 105l-91 -105h-43l111 132h47l111 -132h-42z" />
    <glyph glyph-name="udieresis" unicode="&#xfc;" horiz-adv-x="664" 
d="M560 0h-44v109q-61 -118 -208 -118q-103 0 -157 64t-54 167v301h44v-296q0 -87 45 -140.5t132 -53.5q76 0 129 41t69 105v344h44v-523zM172 672q0 34 33 34q31 0 31 -34t-31 -34q-33 0 -33 34zM420 672q0 34 33 34q31 0 31 -34t-31 -34q-33 0 -33 34z" />
    <glyph glyph-name="yacute" unicode="&#xfd;" horiz-adv-x="612" 
d="M516 523h46l-247 -570q-33 -76 -72 -113.5t-105 -37.5q-63 0 -120 37l11 38q53 -35 109 -35q50 0 79.5 27.5t54.5 86.5l19 46l-257 521h49l229 -474zM409 741l-87 -132h-43l82 132h48z" />
    <glyph glyph-name="thorn" unicode="&#xfe;" horiz-adv-x="658" 
d="M590 260q0 -119 -71 -194.5t-188 -75.5q-107 0 -184 77v-255h-44v898h44v-257q77 79 184 79q117 0 188 -76t71 -196zM546 260q0 103 -61 167.5t-161 64.5q-54 0 -101 -23.5t-76 -57.5v-302q28 -33 75.5 -56t101.5 -23q100 0 161 64t61 166z" />
    <glyph glyph-name="ydieresis" unicode="&#xff;" horiz-adv-x="612" 
d="M516 523h46l-247 -570q-33 -76 -72 -113.5t-105 -37.5q-63 0 -120 37l11 38q53 -35 109 -35q50 0 79.5 27.5t54.5 86.5l19 46l-257 521h49l229 -474zM151 672q0 34 33 34q31 0 31 -34t-31 -34q-33 0 -33 34zM399 672q0 34 33 34q31 0 31 -34t-31 -34q-33 0 -33 34z" />
    <glyph glyph-name="Amacron" unicode="&#x100;" horiz-adv-x="701" 
d="M31 0l299 680h49l282 -680h-45l-73 174h-390l-77 -174h-45zM354 634l-187 -423h363zM472 801h-235v36h235v-36z" />
    <glyph glyph-name="amacron" unicode="&#x101;" horiz-adv-x="577" 
d="M405 644h-235v36h235v-36zM119 455l-10 40q76 37 176 37q95 0 144.5 -49.5t49.5 -137.5v-345h-44v66q-80 -76 -189 -76q-87 0 -138 43t-51 117q0 94 71.5 139.5t189.5 45.5q66 0 117 -16v25q0 72 -39 110t-114 38q-89 0 -163 -37zM101 153q0 -58 41.5 -91.5t112.5 -33.5
q100 0 180 75v182q-42 14 -111 14q-101 0 -162 -35.5t-61 -110.5z" />
    <glyph glyph-name="Abreve" unicode="&#x102;" horiz-adv-x="701" 
d="M31 0l299 680h49l282 -680h-45l-73 174h-390l-77 -174h-45zM354 634l-187 -423h363zM228 850l19 20q40 -58 108 -58q72 0 106 58l20 -20q-42 -73 -126 -73t-127 73z" />
    <glyph glyph-name="abreve" unicode="&#x103;" horiz-adv-x="577" 
d="M165 693l19 20q40 -58 108 -58q72 0 106 58l20 -20q-42 -73 -126 -73t-127 73zM119 455l-10 40q76 37 176 37q95 0 144.5 -49.5t49.5 -137.5v-345h-44v66q-80 -76 -189 -76q-87 0 -138 43t-51 117q0 94 71.5 139.5t189.5 45.5q66 0 117 -16v25q0 72 -39 110t-114 38
q-89 0 -163 -37zM101 153q0 -58 41.5 -91.5t112.5 -33.5q100 0 180 75v182q-42 14 -111 14q-101 0 -162 -35.5t-61 -110.5z" />
    <glyph glyph-name="Aogonek" unicode="&#x104;" horiz-adv-x="701" 
d="M31 0l299 680h49l282 -680h-15q-44 -2 -74 -22.5t-30 -56.5q0 -29 17.5 -45t46.5 -16q31 0 59 16l6 -29q-36 -16 -69 -16q-40 0 -64.5 22.5t-24.5 63.5t30.5 66t67.5 28l-68 163h-390l-77 -174h-45zM354 634l-187 -423h363z" />
    <glyph glyph-name="aogonek" unicode="&#x105;" horiz-adv-x="577" 
d="M119 455l-10 40q76 37 176 37q95 0 144.5 -49.5t49.5 -137.5v-345h-5q-44 -2 -74 -22.5t-30 -56.5q0 -29 17.5 -45t46.5 -16q31 0 59 16l6 -29q-36 -16 -69 -16q-40 0 -64.5 22.5t-24.5 63.5q0 39 29 64t65 30v55q-80 -76 -189 -76q-87 0 -138 43t-51 117
q0 94 71.5 139.5t189.5 45.5q66 0 117 -16v25q0 72 -39 110t-114 38q-89 0 -163 -37zM101 153q0 -58 41.5 -91.5t112.5 -33.5q100 0 180 75v182q-42 14 -111 14q-101 0 -162 -35.5t-61 -110.5z" />
    <glyph glyph-name="Cacute" unicode="&#x106;" horiz-adv-x="748" 
d="M112 340q0 -132 87 -220t219 -88q150 0 244 104l23 -32q-100 -114 -267 -114q-150 0 -250.5 100.5t-100.5 249.5t100.5 249.5t250.5 100.5q167 0 267 -114l-23 -32q-94 104 -244 104q-132 0 -219 -88t-87 -220zM531 898l-87 -132h-43l82 132h48z" />
    <glyph glyph-name="cacute" unicode="&#x107;" 
d="M67 262q0 119 78 197t199 78q116 0 193 -71l-23 -34q-68 63 -169 63q-103 0 -168 -66t-65 -167t65 -167.5t168 -66.5q101 0 169 63l23 -34q-77 -71 -193 -71q-121 0 -199 78.5t-78 197.5zM445 741l-87 -132h-43l82 132h48z" />
    <glyph glyph-name="Ccircumflex" unicode="&#x108;" horiz-adv-x="748" 
d="M112 340q0 -132 87 -220t219 -88q150 0 244 104l23 -32q-100 -114 -267 -114q-150 0 -250.5 100.5t-100.5 249.5t100.5 249.5t250.5 100.5q167 0 267 -114l-23 -32q-94 104 -244 104q-132 0 -219 -88t-87 -220zM510 766l-93 105l-91 -105h-43l111 132h47l111 -132h-42z
" />
    <glyph glyph-name="ccircumflex" unicode="&#x109;" 
d="M67 262q0 119 78 197t199 78q116 0 193 -71l-23 -34q-68 63 -169 63q-103 0 -168 -66t-65 -167t65 -167.5t168 -66.5q101 0 169 63l23 -34q-77 -71 -193 -71q-121 0 -199 78.5t-78 197.5zM437 609l-93 105l-91 -105h-43l111 132h47l111 -132h-42z" />
    <glyph glyph-name="Cdotaccent" unicode="&#x10a;" horiz-adv-x="748" 
d="M112 340q0 -132 87 -220t219 -88q150 0 244 104l23 -32q-100 -114 -267 -114q-150 0 -250.5 100.5t-100.5 249.5t100.5 249.5t250.5 100.5q167 0 267 -114l-23 -32q-94 104 -244 104q-132 0 -219 -88t-87 -220zM388 830q0 34 34 34q32 0 32 -34q0 -35 -32 -35
q-34 0 -34 35z" />
    <glyph glyph-name="cdotaccent" unicode="&#x10b;" 
d="M67 262q0 119 78 197t199 78q116 0 193 -71l-23 -34q-68 63 -169 63q-103 0 -168 -66t-65 -167t65 -167.5t168 -66.5q101 0 169 63l23 -34q-77 -71 -193 -71q-121 0 -199 78.5t-78 197.5zM311 673q0 34 34 34q32 0 32 -34q0 -35 -32 -35q-34 0 -34 35z" />
    <glyph glyph-name="Ccaron" unicode="&#x10c;" horiz-adv-x="748" 
d="M112 340q0 -132 87 -220t219 -88q150 0 244 104l23 -32q-100 -114 -267 -114q-150 0 -250.5 100.5t-100.5 249.5t100.5 249.5t250.5 100.5q167 0 267 -114l-23 -32q-94 104 -244 104q-132 0 -219 -88t-87 -220zM328 898l92 -105l92 105h42l-111 -132h-47l-111 132h43z
" />
    <glyph glyph-name="ccaron" unicode="&#x10d;" 
d="M67 262q0 119 78 197t199 78q116 0 193 -71l-23 -34q-68 63 -169 63q-103 0 -168 -66t-65 -167t65 -167.5t168 -66.5q101 0 169 63l23 -34q-77 -71 -193 -71q-121 0 -199 78.5t-78 197.5zM255 741l92 -105l92 105h42l-111 -132h-47l-111 132h43z" />
    <glyph glyph-name="Dcaron" unicode="&#x10e;" horiz-adv-x="785" 
d="M114 0v680h250q156 -1 253.5 -90.5t97.5 -250.5q0 -160 -97.5 -249.5t-253.5 -89.5h-250zM363 640h-205v-600h205q137 0 222 78.5t85 220.5q0 143 -84.5 221.5t-222.5 79.5zM244 898l92 -105l92 105h42l-111 -132h-47l-111 132h43z" />
    <glyph glyph-name="dcaron" unicode="&#x10f;" horiz-adv-x="674" 
d="M68 262q0 120 71 195t188 75q108 0 185 -79v257h44v-710h-44v69q-77 -79 -185 -79q-117 0 -188 76t-71 196zM113 262q0 -103 61 -167.5t161 -64.5q54 0 101 23t76 56v301q-30 34 -77 58t-100 24q-100 0 -161 -64t-61 -166zM651 536l23 71q-23 1 -35 11.5t-12 26.5
q0 43 41 43q21 0 33 -12.5t12 -32.5q0 -61 -35 -117z" />
    <glyph glyph-name="Dcroat" unicode="&#x110;" horiz-adv-x="791" 
d="M120 357v323h250q156 -1 253.5 -90.5t97.5 -250.5q0 -160 -97.5 -249.5t-253.5 -89.5h-250v327h-65v30h65zM164 357h189v-30h-189v-287h205q137 0 222 78.5t85 220.5q0 143 -84.5 221.5t-222.5 79.5h-205v-283z" />
    <glyph glyph-name="dcroat" unicode="&#x111;" horiz-adv-x="659" 
d="M68 262q0 120 71 195t188 75q108 0 185 -79v146h-144v30h144v81h44v-81h110v-30h-110v-599h-44v69q-77 -79 -185 -79q-117 0 -188 76t-71 196zM113 262q0 -103 61 -167.5t161 -64.5q54 0 101 23t76 56v301q-30 34 -77 58t-100 24q-100 0 -161 -64t-61 -166z" />
    <glyph glyph-name="Emacron" unicode="&#x112;" horiz-adv-x="689" 
d="M624 0h-510v680h510v-41h-467v-263h394v-40h-394v-295h467v-41zM485 801h-235v36h235v-36z" />
    <glyph glyph-name="emacron" unicode="&#x113;" horiz-adv-x="637" 
d="M539 91l21 -34q-89 -71 -212 -71q-140 0 -210 77t-70 197q0 117 74 197t197 80q113 0 171.5 -61.5t58.5 -156.5q0 -42 -9 -76h-448q4 -97 62.5 -157.5t173.5 -60.5q103 0 191 66zM522 281q4 26 4 43q0 74 -47 124t-140 50q-100 0 -161.5 -63t-64.5 -154h409zM456 644
h-235v36h235v-36z" />
    <glyph glyph-name="Ebreve" unicode="&#x114;" horiz-adv-x="689" 
d="M624 0h-510v680h510v-41h-467v-263h394v-40h-394v-295h467v-41zM241 850l19 20q40 -58 108 -58q72 0 106 58l20 -20q-42 -73 -126 -73t-127 73z" />
    <glyph glyph-name="ebreve" unicode="&#x115;" horiz-adv-x="637" 
d="M539 91l21 -34q-89 -71 -212 -71q-140 0 -210 77t-70 197q0 117 74 197t197 80q113 0 171.5 -61.5t58.5 -156.5q0 -42 -9 -76h-448q4 -97 62.5 -157.5t173.5 -60.5q103 0 191 66zM522 281q4 26 4 43q0 74 -47 124t-140 50q-100 0 -161.5 -63t-64.5 -154h409zM216 693
l19 20q40 -58 108 -58q72 0 106 58l20 -20q-42 -73 -126 -73t-127 73z" />
    <glyph glyph-name="Edotaccent" unicode="&#x116;" horiz-adv-x="689" 
d="M624 0h-510v680h510v-41h-467v-263h394v-40h-394v-295h467v-41zM333 830q0 34 34 34q32 0 32 -34q0 -35 -32 -35q-34 0 -34 35z" />
    <glyph glyph-name="edotaccent" unicode="&#x117;" horiz-adv-x="637" 
d="M539 91l21 -34q-89 -71 -212 -71q-140 0 -210 77t-70 197q0 117 74 197t197 80q113 0 171.5 -61.5t58.5 -156.5q0 -42 -9 -76h-448q4 -97 62.5 -157.5t173.5 -60.5q103 0 191 66zM522 281q4 26 4 43q0 74 -47 124t-140 50q-100 0 -161.5 -63t-64.5 -154h409zM310 673
q0 34 34 34q32 0 32 -34q0 -35 -32 -35q-34 0 -34 35z" />
    <glyph glyph-name="Eogonek" unicode="&#x118;" horiz-adv-x="689" 
d="M624 0h-10q-44 -2 -74 -22.5t-30 -56.5q0 -29 17.5 -45t46.5 -16q31 0 59 16l6 -29q-36 -16 -69 -16q-40 0 -64.5 22.5t-24.5 63.5q0 56 57 83h-424v680h510v-41h-467v-263h394v-40h-394v-295h467v-41z" />
    <glyph glyph-name="eogonek" unicode="&#x119;" horiz-adv-x="638" 
d="M539 91l21 -34q-69 -55 -162 -68q-52 -20 -52 -68q0 -29 17.5 -45t46.5 -16q31 0 59 16l6 -29q-36 -16 -69 -16q-40 0 -64.5 22.5t-24.5 63.5t35 69h-4q-140 0 -210 77t-70 197q0 117 74 197t197 80q113 0 171.5 -61.5t58.5 -156.5q0 -42 -9 -76h-448q4 -97 62.5 -157.5
t173.5 -60.5q103 0 191 66zM522 281q4 26 4 43q0 74 -47 124t-140 50q-100 0 -161.5 -63t-64.5 -154h409z" />
    <glyph glyph-name="Ecaron" unicode="&#x11a;" horiz-adv-x="689" 
d="M624 0h-510v680h510v-41h-467v-263h394v-40h-394v-295h467v-41zM276 898l92 -105l92 105h42l-111 -132h-47l-111 132h43z" />
    <glyph glyph-name="ecaron" unicode="&#x11b;" horiz-adv-x="637" 
d="M539 91l21 -34q-89 -71 -212 -71q-140 0 -210 77t-70 197q0 117 74 197t197 80q113 0 171.5 -61.5t58.5 -156.5q0 -42 -9 -76h-448q4 -97 62.5 -157.5t173.5 -60.5q103 0 191 66zM522 281q4 26 4 43q0 74 -47 124t-140 50q-100 0 -161.5 -63t-64.5 -154h409zM248 741
l92 -105l92 105h42l-111 -132h-47l-111 132h43z" />
    <glyph glyph-name="Gcircumflex" unicode="&#x11c;" horiz-adv-x="787" 
d="M710 346v-270q-49 -37 -126.5 -61.5t-153.5 -24.5q-156 0 -259 94.5t-103 254.5q0 161 103 256t259 95q144 0 254 -97l-24 -34q-100 89 -230 89q-136 0 -226.5 -83.5t-90.5 -225.5q0 -141 90.5 -224t227.5 -83q66 0 129 19t106 49v206h-265v40h309zM521 766l-93 105
l-91 -105h-43l111 132h47l111 -132h-42z" />
    <glyph glyph-name="gcircumflex" unicode="&#x11d;" horiz-adv-x="659" 
d="M69 280q0 107 72 179.5t187 72.5q105 0 184 -79v70h44v-483q0 -110 -66 -174t-162 -64q-18 0 -36 2t-31.5 4.5t-29 7.5t-24 8t-22.5 10l-18 9t-17 9l-12 8l13 40q86 -58 177 -58q77 0 130.5 51t53.5 141v74q-78 -78 -184 -78q-115 0 -187 72.5t-72 177.5zM114 280
q0 -89 61.5 -149.5t160.5 -60.5q53 0 100.5 23t75.5 56v262q-29 34 -75.5 57.5t-100.5 23.5q-99 0 -160.5 -61t-61.5 -151zM428 609l-93 105l-91 -105h-43l111 132h47l111 -132h-42z" />
    <glyph glyph-name="Gbreve" unicode="&#x11e;" horiz-adv-x="787" 
d="M710 346v-270q-49 -37 -126.5 -61.5t-153.5 -24.5q-156 0 -259 94.5t-103 254.5q0 161 103 256t259 95q144 0 254 -97l-24 -34q-100 89 -230 89q-136 0 -226.5 -83.5t-90.5 -225.5q0 -141 90.5 -224t227.5 -83q66 0 129 19t106 49v206h-265v40h309zM305 850l19 20
q40 -58 108 -58q72 0 106 58l20 -20q-42 -73 -126 -73t-127 73z" />
    <glyph glyph-name="gbreve" unicode="&#x11f;" horiz-adv-x="659" 
d="M69 280q0 107 72 179.5t187 72.5q105 0 184 -79v70h44v-483q0 -110 -66 -174t-162 -64q-18 0 -36 2t-31.5 4.5t-29 7.5t-24 8t-22.5 10l-18 9t-17 9l-12 8l13 40q86 -58 177 -58q77 0 130.5 51t53.5 141v74q-78 -78 -184 -78q-115 0 -187 72.5t-72 177.5zM114 280
q0 -89 61.5 -149.5t160.5 -60.5q53 0 100.5 23t75.5 56v262q-29 34 -75.5 57.5t-100.5 23.5q-99 0 -160.5 -61t-61.5 -151zM214 693l19 20q40 -58 108 -58q72 0 106 58l20 -20q-42 -73 -126 -73t-127 73z" />
    <glyph glyph-name="Gdotaccent" unicode="&#x120;" horiz-adv-x="787" 
d="M710 346v-270q-49 -37 -126.5 -61.5t-153.5 -24.5q-156 0 -259 94.5t-103 254.5q0 161 103 256t259 95q144 0 254 -97l-24 -34q-100 89 -230 89q-136 0 -226.5 -83.5t-90.5 -225.5q0 -141 90.5 -224t227.5 -83q66 0 129 19t106 49v206h-265v40h309zM392 830q0 34 34 34
q32 0 32 -34q0 -35 -32 -35q-34 0 -34 35z" />
    <glyph glyph-name="gdotaccent" unicode="&#x121;" horiz-adv-x="659" 
d="M69 280q0 107 72 179.5t187 72.5q105 0 184 -79v70h44v-483q0 -110 -66 -174t-162 -64q-18 0 -36 2t-31.5 4.5t-29 7.5t-24 8t-22.5 10l-18 9t-17 9l-12 8l13 40q86 -58 177 -58q77 0 130.5 51t53.5 141v74q-78 -78 -184 -78q-115 0 -187 72.5t-72 177.5zM114 280
q0 -89 61.5 -149.5t160.5 -60.5q53 0 100.5 23t75.5 56v262q-29 34 -75.5 57.5t-100.5 23.5q-99 0 -160.5 -61t-61.5 -151zM312 673q0 34 34 34q32 0 32 -34q0 -35 -32 -35q-34 0 -34 35z" />
    <glyph glyph-name="Gcommaaccent" unicode="&#x122;" horiz-adv-x="787" 
d="M710 346v-270q-49 -37 -126.5 -61.5t-153.5 -24.5q-156 0 -259 94.5t-103 254.5q0 161 103 256t259 95q144 0 254 -97l-24 -34q-100 89 -230 89q-136 0 -226.5 -83.5t-90.5 -225.5q0 -141 90.5 -224t227.5 -83q66 0 129 19t106 49v206h-265v40h309zM399 -225l23 71
q-23 1 -35 11.5t-12 26.5q0 43 41 43q21 0 33 -12.5t12 -32.5q0 -61 -35 -117z" />
    <glyph glyph-name="gcommaaccent" unicode="&#x123;" horiz-adv-x="659" 
d="M69 280q0 107 72 179.5t187 72.5q105 0 184 -79v70h44v-483q0 -110 -66 -174t-162 -64q-18 0 -36 2t-31.5 4.5t-29 7.5t-24 8t-22.5 10l-18 9t-17 9l-12 8l13 40q86 -58 177 -58q77 0 130.5 51t53.5 141v74q-78 -78 -184 -78q-115 0 -187 72.5t-72 177.5zM114 280
q0 -89 61.5 -149.5t160.5 -60.5q53 0 100.5 23t75.5 56v262q-29 34 -75.5 57.5t-100.5 23.5q-99 0 -160.5 -61t-61.5 -151zM360 763l-22 -72q23 -1 35 -11.5t12 -26.5q0 -43 -41 -43q-22 0 -33.5 12.5t-11.5 32.5q0 63 34 118z" />
    <glyph glyph-name="Hcircumflex" unicode="&#x124;" horiz-adv-x="833" 
d="M675 0v321h-517v-321h-44v680h44v-318h517v318h44v-680h-44zM507 766l-93 105l-91 -105h-43l111 132h47l111 -132h-42z" />
    <glyph glyph-name="hcircumflex" unicode="&#x125;" horiz-adv-x="664" 
d="M103 710h44v-295q63 117 209 117q103 0 157 -64t54 -167v-301h-44v296q0 87 -45 140.5t-132 53.5q-76 0 -129.5 -41t-69.5 -105v-344h-44v710zM430 754l-93 105l-91 -105h-43l111 132h47l111 -132h-42z" />
    <glyph glyph-name="Hbar" unicode="&#x126;" horiz-adv-x="842" 
d="M118 0v504h-46v30h46v146h44v-146h517v146h44v-146h53v-30h-53v-504h-44v321h-517v-321h-44zM162 504v-142h517v142h-517z" />
    <glyph glyph-name="hbar" unicode="&#x127;" horiz-adv-x="664" 
d="M103 710h44v-81h170v-30h-170v-184q63 117 209 117q103 0 157 -64t54 -167v-301h-44v296q0 87 -45 140.5t-132 53.5q-76 0 -129.5 -41t-69.5 -105v-344h-44v599h-85v30h85v81z" />
    <glyph glyph-name="Itilde" unicode="&#x128;" horiz-adv-x="273" 
d="M114 0v680h44v-680h-44zM-5 792l-20 22q34 64 91 64q27 0 74.5 -35.5t65.5 -35.5q44 0 70 52l20 -22q-35 -65 -90 -65q-26 0 -74 35.5t-66 35.5q-44 0 -71 -51z" />
    <glyph glyph-name="itilde" unicode="&#x129;" horiz-adv-x="251" 
d="M-16 635l-20 22q34 64 91 64q27 0 74.5 -35.5t65.5 -35.5q44 0 70 52l20 -22q-35 -65 -90 -65q-26 0 -74 35.5t-66 35.5q-44 0 -71 -51zM147 0h-44v523h44v-523z" />
    <glyph glyph-name="Imacron" unicode="&#x12a;" horiz-adv-x="273" 
d="M114 0v680h44v-680h-44zM253 801h-235v36h235v-36z" />
    <glyph glyph-name="imacron" unicode="&#x12b;" horiz-adv-x="251" 
d="M243 644h-235v36h235v-36zM147 0h-44v523h44v-523z" />
    <glyph glyph-name="Ibreve" unicode="&#x12c;" horiz-adv-x="273" 
d="M114 0v680h44v-680h-44zM9 850l19 20q40 -58 108 -58q72 0 106 58l20 -20q-42 -73 -126 -73t-127 73z" />
    <glyph glyph-name="ibreve" unicode="&#x12d;" horiz-adv-x="251" 
d="M-1 693l19 20q40 -58 108 -58q72 0 106 58l20 -20q-42 -73 -126 -73t-127 73zM147 0h-44v523h44v-523z" />
    <glyph glyph-name="Iogonek" unicode="&#x12e;" horiz-adv-x="275" 
d="M160 0h-12q-44 -2 -74 -22.5t-30 -56.5q0 -29 17.5 -45t46.5 -16q31 0 59 16l6 -29q-36 -16 -69 -16q-40 0 -64.5 22.5t-24.5 63.5t32 66.5t69 28.5v668h44v-680z" />
    <glyph glyph-name="iogonek" unicode="&#x12f;" horiz-adv-x="253" 
d="M150 0h-3q-44 -2 -74 -22.5t-30 -56.5q0 -29 17.5 -45t46.5 -16q31 0 59 16l6 -29q-36 -16 -69 -16q-40 0 -64.5 22.5t-24.5 63.5q0 39 28 63.5t64 30.5v512h44v-523zM94 673q0 34 34 34q32 0 32 -34q0 -35 -32 -35q-34 0 -34 35z" />
    <glyph glyph-name="Idotaccent" unicode="&#x130;" horiz-adv-x="273" 
d="M114 0v680h44v-680h-44zM102 830q0 34 34 34q32 0 32 -34q0 -35 -32 -35q-34 0 -34 35z" />
    <glyph glyph-name="dotlessi" unicode="&#x131;" horiz-adv-x="251" 
d="M147 0h-44v523h44v-523z" />
    <glyph glyph-name="IJ" unicode="&#x132;" horiz-adv-x="929" 
d="M114 0v680h44v-680h-44zM780 680h44v-425q0 -119 -69 -193t-190 -74q-118 0 -182.5 69t-72.5 189l43 5q7 -105 59.5 -163t153.5 -58q102 0 158 61.5t56 165.5v423z" />
    <glyph glyph-name="ij" unicode="&#x133;" horiz-adv-x="533" 
d="M92 673q0 34 34 34q32 0 32 -34q0 -35 -32 -35q-34 0 -34 35zM103 0v523h44v-523h-44zM385 523h44v-511q0 -148 -135 -209l-23 32q56 29 85 69.5t29 107.5v511zM375 673q0 34 33 34q32 0 32 -34q0 -35 -32 -35q-33 0 -33 35z" />
    <glyph glyph-name="Jcircumflex" unicode="&#x134;" horiz-adv-x="656" 
d="M507 680h44v-425q0 -119 -69 -193t-190 -74q-118 0 -182.5 69t-72.5 189l43 5q7 -105 59.5 -163t153.5 -58q102 0 158 61.5t56 165.5v423zM620 766l-93 105l-91 -105h-43l111 132h47l111 -132h-42z" />
    <glyph glyph-name="jcircumflex" unicode="&#x135;" horiz-adv-x="251" 
d="M12 -197l-23 30q55 29 84.5 70.5t29.5 107.5v512h44v-511q0 -148 -135 -209zM216 609l-93 105l-91 -105h-43l111 132h47l111 -132h-42z" />
    <glyph glyph-name="Kcommaaccent" unicode="&#x136;" horiz-adv-x="668" 
d="M114 0v680h44v-326h102l311 326h48v-7l-320 -341l350 -326v-6h-57l-333 313h-101v-313h-44zM312 -225l23 71q-23 1 -35 11.5t-12 26.5q0 43 41 43q21 0 33 -12.5t12 -32.5q0 -61 -35 -117z" />
    <glyph glyph-name="kcommaaccent" unicode="&#x137;" horiz-adv-x="550" 
d="M498 523v-7l-304 -238l321 -271v-7h-56l-312 268v-268h-44v710h44v-421l298 234h53zM265 -225l23 71q-23 1 -35 11.5t-12 26.5q0 43 41 43q21 0 33 -12.5t12 -32.5q0 -61 -35 -117z" />
    <glyph glyph-name="kgreenlandic" unicode="&#x138;" horiz-adv-x="549" 
d="M498 523v-7l-304 -264l321 -245v-7h-57l-311 241v-241h-44v523h44v-261l298 261h53z" />
    <glyph glyph-name="Lacute" unicode="&#x139;" horiz-adv-x="585" 
d="M562 0h-448v680h44v-640h404v-40zM242 898l-87 -132h-43l82 132h48z" />
    <glyph glyph-name="lacute" unicode="&#x13a;" horiz-adv-x="309" 
d="M107 710h44v-602q0 -78 69 -78q34 0 68 23l9 -36q-36 -27 -88 -27q-102 0 -102 111v609zM228 886l-87 -132h-43l82 132h48z" />
    <glyph glyph-name="Lcommaaccent" unicode="&#x13b;" horiz-adv-x="585" 
d="M562 0h-448v680h44v-640h404v-40zM311 -225l23 71q-23 1 -35 11.5t-12 26.5q0 43 41 43q21 0 33 -12.5t12 -32.5q0 -61 -35 -117z" />
    <glyph glyph-name="lcommaaccent" unicode="&#x13c;" horiz-adv-x="309" 
d="M107 710h44v-602q0 -78 69 -78q34 0 68 23l9 -36q-36 -27 -88 -27q-102 0 -102 111v609zM165 -225l23 71q-23 1 -35 11.5t-12 26.5q0 43 41 43q21 0 33 -12.5t12 -32.5q0 -61 -35 -117z" />
    <glyph glyph-name="Lcaron" unicode="&#x13d;" horiz-adv-x="588" 
d="M562 0h-448v680h44v-640h404v-40zM426 537l23 71q-23 1 -35 11.5t-12 26.5q0 43 41 43q21 0 33 -12.5t12 -32.5q0 -61 -35 -117z" />
    <glyph glyph-name="lcaron" unicode="&#x13e;" horiz-adv-x="318" 
d="M107 710h44v-602q0 -78 69 -78q34 0 68 23l9 -36q-36 -27 -88 -27q-102 0 -102 111v609zM247 536l23 71q-23 1 -35 11.5t-12 26.5q0 43 41 43q21 0 33 -12.5t12 -32.5q0 -61 -35 -117z" />
    <glyph glyph-name="Ldot" unicode="&#x13f;" horiz-adv-x="593" 
d="M562 0h-448v680h44v-640h404v-40zM339 359q0 45 42 45q44 0 44 -45q0 -46 -44 -46q-42 0 -42 46z" />
    <glyph glyph-name="ldot" unicode="&#x140;" horiz-adv-x="359" 
d="M107 710h44v-602q0 -78 69 -78q34 0 68 23l9 -36q-36 -27 -88 -27q-102 0 -102 111v609zM256 359q0 45 42 45q44 0 44 -45q0 -46 -44 -46q-42 0 -42 46z" />
    <glyph glyph-name="Lslash" unicode="&#x141;" horiz-adv-x="590" 
d="M567 0h-447v291l-59 -30v40l59 30v349h44v-326l151 78v-41l-151 -78v-273h403v-40z" />
    <glyph glyph-name="lslash" unicode="&#x142;" horiz-adv-x="315" 
d="M292 53l10 -36q-38 -27 -89 -27q-47 0 -74 27t-27 84v241l-54 -28v41l54 27v328h44v-305l97 50v-40l-97 -50v-257q0 -78 68 -78q34 0 68 23z" />
    <glyph glyph-name="Nacute" unicode="&#x143;" horiz-adv-x="830" 
d="M675 0l-517 609v-609h-44v680h41l516 -612v612h44v-680h-40zM518 898l-87 -132h-43l82 132h48z" />
    <glyph glyph-name="nacute" unicode="&#x144;" horiz-adv-x="664" 
d="M103 523h44v-109q30 56 83.5 87t125.5 31q103 0 157 -64t54 -167v-301h-44v296q0 87 -45 140.5t-132 53.5q-76 0 -129.5 -41t-69.5 -105v-344h-44v523zM444 741l-87 -132h-43l82 132h48z" />
    <glyph glyph-name="Ncommaaccent" unicode="&#x145;" horiz-adv-x="830" 
d="M675 0l-517 609v-609h-44v680h41l516 -612v612h44v-680h-40zM379 -225l23 71q-23 1 -35 11.5t-12 26.5q0 43 41 43q21 0 33 -12.5t12 -32.5q0 -61 -35 -117z" />
    <glyph glyph-name="ncommaaccent" unicode="&#x146;" horiz-adv-x="664" 
d="M103 523h44v-109q30 56 83.5 87t125.5 31q103 0 157 -64t54 -167v-301h-44v296q0 87 -45 140.5t-132 53.5q-76 0 -129.5 -41t-69.5 -105v-344h-44v523zM314 -225l23 71q-23 1 -35 11.5t-12 26.5q0 43 41 43q21 0 33 -12.5t12 -32.5q0 -61 -35 -117z" />
    <glyph glyph-name="Ncaron" unicode="&#x147;" horiz-adv-x="830" 
d="M675 0l-517 609v-609h-44v680h41l516 -612v612h44v-680h-40zM336 898l92 -105l92 105h42l-111 -132h-47l-111 132h43z" />
    <glyph glyph-name="ncaron" unicode="&#x148;" horiz-adv-x="664" 
d="M103 523h44v-109q30 56 83.5 87t125.5 31q103 0 157 -64t54 -167v-301h-44v296q0 87 -45 140.5t-132 53.5q-76 0 -129.5 -41t-69.5 -105v-344h-44v523zM245 741l92 -105l92 105h42l-111 -132h-47l-111 132h43z" />
    <glyph glyph-name="napostrophe" unicode="&#x149;" horiz-adv-x="711" 
d="M150 523h44v-109q30 56 83.5 87t125.5 31q103 0 157 -64t54 -167v-301h-44v296q0 87 -45 140.5t-132 53.5q-76 0 -129.5 -41t-69.5 -105v-344h-44v523zM61 539l23 71q-23 1 -35 11.5t-12 26.5q0 43 41 43q21 0 33 -12.5t12 -32.5q0 -61 -35 -117z" />
    <glyph glyph-name="Eng" unicode="&#x14a;" horiz-adv-x="830" 
d="M671 8l-513 601v-609h-44v680h41l516 -610v610h44v-668q0 -146 -135 -209l-23 30q114 61 114 175z" />
    <glyph glyph-name="eng" unicode="&#x14b;" horiz-adv-x="664" 
d="M524 11v289q0 87 -45 140.5t-132 53.5q-76 0 -129.5 -41t-69.5 -105v-344h-44v523h44v-109q29 56 83 87t125 31q103 0 157.5 -64t54.5 -167v-293q0 -146 -136 -209l-23 30q56 30 85.5 71t29.5 107z" />
    <glyph glyph-name="Omacron" unicode="&#x14c;" horiz-adv-x="835" 
d="M68 339q0 151 100 251t249 100q151 0 251 -100t100 -251q0 -149 -100 -249t-251 -100q-149 0 -249 100t-100 249zM111 339q0 -132 87 -219.5t219 -87.5q133 0 220 87.5t87 219.5q0 134 -87 221t-220 87q-132 0 -219 -87.5t-87 -220.5zM534 801h-235v36h235v-36z" />
    <glyph glyph-name="omacron" unicode="&#x14d;" horiz-adv-x="688" 
d="M67 260q0 120 77.5 198.5t198.5 78.5q122 0 200 -78.5t78 -198.5q0 -119 -78 -196.5t-200 -77.5q-121 0 -198.5 78t-77.5 196zM110 260q0 -100 65.5 -166t167.5 -66q103 0 169 66t66 166q0 101 -66 168t-169 67q-102 0 -167.5 -67t-65.5 -168zM460 644h-235v36h235v-36z
" />
    <glyph glyph-name="Obreve" unicode="&#x14e;" horiz-adv-x="835" 
d="M68 339q0 151 100 251t249 100q151 0 251 -100t100 -251q0 -149 -100 -249t-251 -100q-149 0 -249 100t-100 249zM111 339q0 -132 87 -219.5t219 -87.5q133 0 220 87.5t87 219.5q0 134 -87 221t-220 87q-132 0 -219 -87.5t-87 -220.5zM290 850l19 20q40 -58 108 -58
q72 0 106 58l20 -20q-42 -73 -126 -73t-127 73z" />
    <glyph glyph-name="obreve" unicode="&#x14f;" horiz-adv-x="688" 
d="M67 260q0 120 77.5 198.5t198.5 78.5q122 0 200 -78.5t78 -198.5q0 -119 -78 -196.5t-200 -77.5q-121 0 -198.5 78t-77.5 196zM110 260q0 -100 65.5 -166t167.5 -66q103 0 169 66t66 166q0 101 -66 168t-169 67q-102 0 -167.5 -67t-65.5 -168zM216 693l19 20
q40 -58 108 -58q72 0 106 58l20 -20q-42 -73 -126 -73t-127 73z" />
    <glyph glyph-name="Ohungarumlaut" unicode="&#x150;" horiz-adv-x="835" 
d="M68 339q0 151 100 251t249 100q151 0 251 -100t100 -251q0 -149 -100 -249t-251 -100q-149 0 -249 100t-100 249zM111 339q0 -132 87 -219.5t219 -87.5q133 0 220 87.5t87 219.5q0 134 -87 221t-220 87q-132 0 -219 -87.5t-87 -220.5zM461 898l-87 -132h-43l82 132h48z
M617 898l-87 -132h-43l83 132h47z" />
    <glyph glyph-name="ohungarumlaut" unicode="&#x151;" horiz-adv-x="688" 
d="M67 260q0 120 77.5 198.5t198.5 78.5q122 0 200 -78.5t78 -198.5q0 -119 -78 -196.5t-200 -77.5q-121 0 -198.5 78t-77.5 196zM110 260q0 -100 65.5 -166t167.5 -66q103 0 169 66t66 166q0 101 -66 168t-169 67q-102 0 -167.5 -67t-65.5 -168zM376 741l-87 -132h-43
l82 132h48zM532 741l-87 -132h-43l83 132h47z" />
    <glyph glyph-name="OE" unicode="&#x152;" horiz-adv-x="1214" 
d="M639 0v70q-98 -80 -223 -80q-149 0 -248.5 100t-99.5 249q0 151 99.5 251t248.5 100q126 0 223 -82v72h509v-41h-466v-264h393v-38h-393v-297h466v-40h-509zM111 339q0 -132 87 -219.5t220 -87.5q131 0 221 88v438q-92 90 -222 90q-132 0 -219 -88t-87 -221z" />
    <glyph glyph-name="oe" unicode="&#x153;" horiz-adv-x="1155" 
d="M1078 245h-450q2 -98 62 -159.5t178 -61.5q102 0 188 66l21 -33q-89 -71 -212 -71q-110 0 -175.5 49t-87.5 132q-25 -83 -94.5 -132t-164.5 -49q-121 0 -198.5 78t-77.5 196q0 120 77.5 198.5t198.5 78.5q96 0 166 -51t94 -136q24 83 91 135t163 52q113 0 171 -62
t58 -156q0 -45 -8 -74zM110 260q0 -100 65.5 -166.5t167.5 -66.5q103 0 169 66.5t66 166.5q0 101 -66 168t-169 67q-102 0 -167.5 -67t-65.5 -168zM857 500q-101 0 -163 -63t-66 -157h416q4 26 4 43q0 76 -49.5 126.5t-141.5 50.5z" />
    <glyph glyph-name="Racute" unicode="&#x154;" horiz-adv-x="715" 
d="M114 0v680h291q99 0 164 -54t65 -158q0 -97 -64 -153t-158 -56h-7l281 -253v-6h-57l-284 259h-187v-259h-44zM408 640h-250v-343h250q77 0 129 45.5t52 124.5q0 85 -52 129t-129 44zM442 898l-87 -132h-43l82 132h48z" />
    <glyph glyph-name="racute" unicode="&#x155;" horiz-adv-x="452" 
d="M103 0v523h44v-119q55 128 168 128q61 0 110 -42l-21 -36q-41 36 -93 36q-59 0 -100.5 -41t-63.5 -108v-341h-44zM330 741l-87 -132h-43l82 132h48z" />
    <glyph glyph-name="Rcommaaccent" unicode="&#x156;" horiz-adv-x="715" 
d="M114 0v680h291q99 0 164 -54t65 -158q0 -97 -64 -153t-158 -56h-7l281 -253v-6h-57l-284 259h-187v-259h-44zM408 640h-250v-343h250q77 0 129 45.5t52 124.5q0 85 -52 129t-129 44zM323 -225l23 71q-23 1 -35 11.5t-12 26.5q0 43 41 43q21 0 33 -12.5t12 -32.5
q0 -61 -35 -117z" />
    <glyph glyph-name="rcommaaccent" unicode="&#x157;" horiz-adv-x="452" 
d="M103 0v523h44v-119q55 128 168 128q61 0 110 -42l-21 -36q-41 36 -93 36q-59 0 -100.5 -41t-63.5 -108v-341h-44zM105 -225l23 71q-23 1 -35 11.5t-12 26.5q0 43 41 43q21 0 33 -12.5t12 -32.5q0 -61 -35 -117z" />
    <glyph glyph-name="Rcaron" unicode="&#x158;" horiz-adv-x="715" 
d="M114 0v680h291q99 0 164 -54t65 -158q0 -97 -64 -153t-158 -56h-7l281 -253v-6h-57l-284 259h-187v-259h-44zM408 640h-250v-343h250q77 0 129 45.5t52 124.5q0 85 -52 129t-129 44zM236 898l92 -105l92 105h42l-111 -132h-47l-111 132h43z" />
    <glyph glyph-name="rcaron" unicode="&#x159;" horiz-adv-x="452" 
d="M103 0v523h44v-119q55 128 168 128q61 0 110 -42l-21 -36q-41 36 -93 36q-59 0 -100.5 -41t-63.5 -108v-341h-44zM154 741l92 -105l92 105h42l-111 -132h-47l-111 132h43z" />
    <glyph glyph-name="Sacute" unicode="&#x15a;" horiz-adv-x="631" 
d="M72 50l13 42q100 -60 216 -60q97 0 159.5 42t62.5 112q0 50 -37.5 79.5t-117.5 47.5l-139 32q-162 38 -162 162q0 78 65 130t191 52q64 0 126.5 -16t102.5 -39l-14 -41q-35 22 -97 38t-119 16q-103 0 -156.5 -39.5t-53.5 -97.5q0 -92 128 -122l144 -34q92 -22 138 -60
t46 -106q0 -90 -75 -144t-193 -54q-65 0 -127.5 18.5t-100.5 41.5zM425 898l-87 -132h-43l82 132h48z" />
    <glyph glyph-name="sacute" unicode="&#x15b;" horiz-adv-x="534" 
d="M452 493l-13 -40q-78 40 -168 40q-73 0 -113 -29t-40 -81q0 -38 26 -56t92 -33l87 -21q76 -17 112.5 -47.5t36.5 -83.5q0 -66 -56 -109t-150 -43q-106 0 -191 45l10 41q85 -47 180 -47q74 0 118.5 31.5t44.5 79.5q0 37 -29 59t-90 35l-88 21q-78 17 -112 44.5t-34 81.5
q0 69 52 110t146 41q46 0 97 -12t82 -27zM367 741l-87 -132h-43l82 132h48z" />
    <glyph glyph-name="Scircumflex" unicode="&#x15c;" horiz-adv-x="631" 
d="M72 50l13 42q100 -60 216 -60q97 0 159.5 42t62.5 112q0 50 -37.5 79.5t-117.5 47.5l-139 32q-162 38 -162 162q0 78 65 130t191 52q64 0 126.5 -16t102.5 -39l-14 -41q-35 22 -97 38t-119 16q-103 0 -156.5 -39.5t-53.5 -97.5q0 -92 128 -122l144 -34q92 -22 138 -60
t46 -106q0 -90 -75 -144t-193 -54q-65 0 -127.5 18.5t-100.5 41.5zM408 766l-93 105l-91 -105h-43l111 132h47l111 -132h-42z" />
    <glyph glyph-name="scircumflex" unicode="&#x15d;" horiz-adv-x="534" 
d="M452 493l-13 -40q-78 40 -168 40q-73 0 -113 -29t-40 -81q0 -38 26 -56t92 -33l87 -21q76 -17 112.5 -47.5t36.5 -83.5q0 -66 -56 -109t-150 -43q-106 0 -191 45l10 41q85 -47 180 -47q74 0 118.5 31.5t44.5 79.5q0 37 -29 59t-90 35l-88 21q-78 17 -112 44.5t-34 81.5
q0 69 52 110t146 41q46 0 97 -12t82 -27zM362 609l-93 105l-91 -105h-43l111 132h47l111 -132h-42z" />
    <glyph glyph-name="Scedilla" unicode="&#x15e;" horiz-adv-x="631" 
d="M249 -95l22 86q-119 9 -199 59l13 42q100 -60 216 -60q97 0 159.5 42t62.5 112q0 50 -37.5 79.5t-117.5 47.5l-139 32q-162 38 -162 162q0 78 65 130t191 52q64 0 126.5 -16t102.5 -39l-14 -41q-35 22 -97 38t-119 16q-103 0 -156.5 -39.5t-53.5 -97.5q0 -92 128 -122
l144 -34q92 -22 138 -60t46 -106q0 -90 -75 -144t-193 -54h-1l-15 -60q18 4 35 4q38 0 60 -17t22 -44q0 -34 -27.5 -52.5t-68.5 -18.5q-37 0 -72 13l7 24q33 -12 64 -12q68 0 68 45q0 38 -60 38q-31 0 -60 -9z" />
    <glyph glyph-name="scedilla" unicode="&#x15f;" horiz-adv-x="534" 
d="M206 -95l23 87q-85 6 -154 43l10 41q85 -47 180 -47q74 0 118.5 31.5t44.5 79.5q0 37 -29 59t-90 35l-88 21q-78 17 -112 44.5t-34 81.5q0 69 52 110t146 41q46 0 97 -12t82 -27l-13 -40q-78 40 -168 40q-73 0 -113 -29t-40 -81q0 -38 26 -56t92 -33l87 -21
q76 -17 112.5 -47.5t36.5 -83.5q0 -66 -56 -109t-150 -43h-10l-15 -60q18 4 35 4q38 0 60 -17t22 -44q0 -34 -27.5 -52.5t-68.5 -18.5q-37 0 -72 13l7 24q33 -12 64 -12q68 0 68 45q0 38 -60 38q-31 0 -60 -9z" />
    <glyph glyph-name="Scaron" unicode="&#x160;" horiz-adv-x="631" 
d="M72 50l13 42q100 -60 216 -60q97 0 159.5 42t62.5 112q0 50 -37.5 79.5t-117.5 47.5l-139 32q-162 38 -162 162q0 78 65 130t191 52q64 0 126.5 -16t102.5 -39l-14 -41q-35 22 -97 38t-119 16q-103 0 -156.5 -39.5t-53.5 -97.5q0 -92 128 -122l144 -34q92 -22 138 -60
t46 -106q0 -90 -75 -144t-193 -54q-65 0 -127.5 18.5t-100.5 41.5zM216 898l92 -105l92 105h42l-111 -132h-47l-111 132h43z" />
    <glyph glyph-name="scaron" unicode="&#x161;" horiz-adv-x="534" 
d="M452 493l-13 -40q-78 40 -168 40q-73 0 -113 -29t-40 -81q0 -38 26 -56t92 -33l87 -21q76 -17 112.5 -47.5t36.5 -83.5q0 -66 -56 -109t-150 -43q-106 0 -191 45l10 41q85 -47 180 -47q74 0 118.5 31.5t44.5 79.5q0 37 -29 59t-90 35l-88 21q-78 17 -112 44.5t-34 81.5
q0 69 52 110t146 41q46 0 97 -12t82 -27zM178 741l92 -105l92 105h42l-111 -132h-47l-111 132h43z" />
    <glyph glyph-name="Tcommaaccent" unicode="&#x162;" horiz-adv-x="622" 
d="M601 639h-259v-639h-11l-17 -70q18 4 35 4q38 0 60 -17t22 -44q0 -34 -27.5 -52.5t-68.5 -18.5q-37 0 -72 13l7 24q33 -12 64 -12q68 0 68 45q0 38 -60 38q-31 0 -60 -9l-3 4l25 95h-6v639h-277v41h580v-41z" />
    <glyph glyph-name="tcommaaccent" unicode="&#x163;" horiz-adv-x="474" 
d="M224 -95l23 90q-97 23 -97 146v344h-108v38h108l4 133h40v-133h226v-38h-226v-338q0 -56 27 -86.5t79 -30.5q70 0 131 43l17 -36q-71 -47 -158 -47q-11 0 -16 1l-15 -61q18 4 35 4q38 0 60 -17t22 -44q0 -34 -27.5 -52.5t-68.5 -18.5q-37 0 -72 13l7 24q33 -12 64 -12
q68 0 68 45q0 38 -60 38q-31 0 -60 -9z" />
    <glyph glyph-name="Tcaron" unicode="&#x164;" horiz-adv-x="622" 
d="M601 639h-259v-639h-44v639h-277v41h580v-41zM228 898l92 -105l92 105h42l-111 -132h-47l-111 132h43z" />
    <glyph glyph-name="tcaron" unicode="&#x165;" horiz-adv-x="472" 
d="M154 656h40v-133h226v-38h-226v-338q0 -56 27 -86.5t79 -30.5q70 0 131 43l17 -36q-71 -47 -158 -47q-67 0 -103.5 39t-36.5 112v344h-108v38h108zM441 536l23 71q-23 1 -35 11.5t-12 26.5q0 43 41 43q21 0 33 -12.5t12 -32.5q0 -61 -35 -117z" />
    <glyph glyph-name="Tbar" unicode="&#x166;" horiz-adv-x="622" 
d="M601 639h-259v-287h128v-30h-128v-322h-44v322h-127v30h127v287h-277v41h580v-41z" />
    <glyph glyph-name="tbar" unicode="&#x167;" horiz-adv-x="478" 
d="M197 485v-195h164v-30h-164v-113q0 -57 27.5 -87t79.5 -30q31 0 68 12.5t62 31.5l18 -37q-71 -47 -158 -47q-67 0 -104 39t-37 112v119h-90v30h90v195h-107v38h110l3 133h38v-133h227v-38h-227z" />
    <glyph glyph-name="Utilde" unicode="&#x168;" horiz-adv-x="781" 
d="M149 680v-406q0 -113 60 -178.5t180 -65.5t181.5 68.5t61.5 176.5v405h44v-408q0 -121 -74.5 -202.5t-212.5 -81.5q-139 0 -211.5 77.5t-72.5 206.5v408h44zM249 792l-20 22q34 64 91 64q27 0 74.5 -35.5t65.5 -35.5q44 0 70 52l20 -22q-35 -65 -90 -65q-26 0 -74 35.5
t-66 35.5q-44 0 -71 -51z" />
    <glyph glyph-name="utilde" unicode="&#x169;" horiz-adv-x="664" 
d="M560 0h-44v109q-61 -118 -208 -118q-103 0 -157 64t-54 167v301h44v-296q0 -87 45 -140.5t132 -53.5q76 0 129 41t69 105v344h44v-523zM194 635l-20 22q34 64 91 64q27 0 74.5 -35.5t65.5 -35.5q44 0 70 52l20 -22q-35 -65 -90 -65q-26 0 -74 35.5t-66 35.5
q-44 0 -71 -51z" />
    <glyph glyph-name="Umacron" unicode="&#x16a;" horiz-adv-x="781" 
d="M149 680v-406q0 -113 60 -178.5t180 -65.5t181.5 68.5t61.5 176.5v405h44v-408q0 -121 -74.5 -202.5t-212.5 -81.5q-139 0 -211.5 77.5t-72.5 206.5v408h44zM507 801h-235v36h235v-36z" />
    <glyph glyph-name="umacron" unicode="&#x16b;" horiz-adv-x="664" 
d="M560 0h-44v109q-61 -118 -208 -118q-103 0 -157 64t-54 167v301h44v-296q0 -87 45 -140.5t132 -53.5q76 0 129 41t69 105v344h44v-523zM450 644h-235v36h235v-36z" />
    <glyph glyph-name="Ubreve" unicode="&#x16c;" horiz-adv-x="781" 
d="M149 680v-406q0 -113 60 -178.5t180 -65.5t181.5 68.5t61.5 176.5v405h44v-408q0 -121 -74.5 -202.5t-212.5 -81.5q-139 0 -211.5 77.5t-72.5 206.5v408h44zM263 850l19 20q40 -58 108 -58q72 0 106 58l20 -20q-42 -73 -126 -73t-127 73z" />
    <glyph glyph-name="ubreve" unicode="&#x16d;" horiz-adv-x="664" 
d="M560 0h-44v109q-61 -118 -208 -118q-103 0 -157 64t-54 167v301h44v-296q0 -87 45 -140.5t132 -53.5q76 0 129 41t69 105v344h44v-523zM210 693l19 20q40 -58 108 -58q72 0 106 58l20 -20q-42 -73 -126 -73t-127 73z" />
    <glyph glyph-name="Uring" unicode="&#x16e;" horiz-adv-x="781" 
d="M149 680v-406q0 -113 60 -178.5t180 -65.5t181.5 68.5t61.5 176.5v405h44v-408q0 -121 -74.5 -202.5t-212.5 -81.5q-139 0 -211.5 77.5t-72.5 206.5v408h44zM292 787q0 41 29 69.5t69 28.5t69 -28.5t29 -69.5t-29 -69.5t-69 -28.5t-69 28.5t-29 69.5zM319 787
q0 -29 21 -50t50 -21t49.5 21t20.5 50t-20.5 49.5t-49.5 20.5t-50 -20.5t-21 -49.5z" />
    <glyph glyph-name="uring" unicode="&#x16f;" horiz-adv-x="664" 
d="M560 0h-44v109q-61 -118 -208 -118q-103 0 -157 64t-54 167v301h44v-296q0 -87 45 -140.5t132 -53.5q76 0 129 41t69 105v344h44v-523zM229 670q0 40 28.5 69t69.5 29t69.5 -29t28.5 -69t-28.5 -69t-69.5 -29t-69.5 29t-28.5 69zM256 670q0 -29 21 -50t50 -21t49.5 21
t20.5 50t-20.5 49.5t-49.5 20.5t-50 -20.5t-21 -49.5z" />
    <glyph glyph-name="Uhungarumlaut" unicode="&#x170;" horiz-adv-x="781" 
d="M149 680v-406q0 -113 60 -178.5t180 -65.5t181.5 68.5t61.5 176.5v405h44v-408q0 -121 -74.5 -202.5t-212.5 -81.5q-139 0 -211.5 77.5t-72.5 206.5v408h44zM418 898l-87 -132h-43l82 132h48zM574 898l-87 -132h-43l83 132h47z" />
    <glyph glyph-name="uhungarumlaut" unicode="&#x171;" horiz-adv-x="664" 
d="M560 0h-44v109q-61 -118 -208 -118q-103 0 -157 64t-54 167v301h44v-296q0 -87 45 -140.5t132 -53.5q76 0 129 41t69 105v344h44v-523zM354 741l-87 -132h-43l82 132h48zM510 741l-87 -132h-43l83 132h47z" />
    <glyph glyph-name="Uogonek" unicode="&#x172;" horiz-adv-x="781" 
d="M457 12l26 -11q-44 -6 -73.5 -25.5t-29.5 -54.5q0 -29 17.5 -45t46.5 -16q31 0 59 16l5 -29q-34 -16 -68 -16q-40 0 -65 22.5t-25 63.5q0 44 41 71h-2q-139 0 -211.5 77.5t-72.5 206.5v408h44v-406q0 -113 60 -178.5t180 -65.5t181.5 68.5t61.5 176.5v405h44v-408
q0 -121 -74 -202t-211 -82q27 18 66 24z" />
    <glyph glyph-name="uogonek" unicode="&#x173;" horiz-adv-x="664" 
d="M560 0h-4q-44 -2 -74 -22.5t-30 -56.5q0 -29 17.5 -45t46.5 -16q31 0 59 16l6 -29q-36 -16 -69 -16q-40 0 -64.5 22.5t-24.5 63.5q0 39 28.5 63.5t64.5 30.5v98q-61 -118 -208 -118q-103 0 -157 64t-54 167v301h44v-296q0 -87 45 -140.5t132 -53.5q76 0 129 41t69 105
v344h44v-523z" />
    <glyph glyph-name="Wcircumflex" unicode="&#x174;" horiz-adv-x="1083" 
d="M706 0l-164 392l-174 -392h-46l-282 680h46l261 -630l176 393l-98 237h47l257 -626l276 626h46l-299 -680h-46zM635 766l-93 105l-91 -105h-43l111 132h47l111 -132h-42z" />
    <glyph glyph-name="wcircumflex" unicode="&#x175;" horiz-adv-x="999" 
d="M906 523h49l-213 -523h-53l-190 481l-190 -481h-54l-210 523h48l190 -482l191 482h52l189 -482zM594 609l-93 105l-91 -105h-43l111 132h47l111 -132h-42z" />
    <glyph glyph-name="Ycircumflex" unicode="&#x176;" horiz-adv-x="690" 
d="M323 0v293l-290 383v4h49l263 -346l263 346h49v-4l-290 -382v-294h-44zM437 766l-93 105l-91 -105h-43l111 132h47l111 -132h-42z" />
    <glyph glyph-name="ycircumflex" unicode="&#x177;" horiz-adv-x="612" 
d="M516 523h46l-247 -570q-33 -76 -72 -113.5t-105 -37.5q-63 0 -120 37l11 38q53 -35 109 -35q50 0 79.5 27.5t54.5 86.5l19 46l-257 521h49l229 -474zM398 609l-93 105l-91 -105h-43l111 132h47l111 -132h-42z" />
    <glyph glyph-name="Ydieresis" unicode="&#x178;" horiz-adv-x="690" 
d="M323 0v293l-290 383v4h49l263 -346l263 346h49v-4l-290 -382v-294h-44zM188 829q0 34 33 34q31 0 31 -34t-31 -34q-33 0 -33 34zM436 829q0 34 33 34q31 0 31 -34t-31 -34q-33 0 -33 34z" />
    <glyph glyph-name="Zacute" unicode="&#x179;" horiz-adv-x="598" 
d="M53 36l436 604h-436v40h492v-36l-435 -604h435v-40h-492v36zM404 898l-87 -132h-43l82 132h48z" />
    <glyph glyph-name="zacute" unicode="&#x17a;" horiz-adv-x="530" 
d="M58 36l358 449h-358v38h414v-36l-358 -449h358v-38h-414v36zM368 741l-87 -132h-43l82 132h48z" />
    <glyph glyph-name="Zdotaccent" unicode="&#x17b;" horiz-adv-x="598" 
d="M53 36l436 604h-436v40h492v-36l-435 -604h435v-40h-492v36zM271 830q0 34 34 34q32 0 32 -34q0 -35 -32 -35q-34 0 -34 35z" />
    <glyph glyph-name="zdotaccent" unicode="&#x17c;" horiz-adv-x="530" 
d="M58 36l358 449h-358v38h414v-36l-358 -449h358v-38h-414v36zM241 673q0 34 34 34q32 0 32 -34q0 -35 -32 -35q-34 0 -34 35z" />
    <glyph glyph-name="Zcaron" unicode="&#x17d;" horiz-adv-x="598" 
d="M53 36l436 604h-436v40h492v-36l-435 -604h435v-40h-492v36zM212 898l92 -105l92 105h42l-111 -132h-47l-111 132h43z" />
    <glyph glyph-name="zcaron" unicode="&#x17e;" horiz-adv-x="530" 
d="M58 36l358 449h-358v38h414v-36l-358 -449h358v-38h-414v36zM179 741l92 -105l92 105h42l-111 -132h-47l-111 132h43z" />
    <glyph glyph-name="florin" unicode="&#x192;" horiz-adv-x="519" 
d="M455 332h-173v-377q0 -69 -34 -111t-100 -42q-70 0 -110 49l16 35q38 -43 87 -43q97 0 97 112v377h-170v33h170v205q0 68 34 109t100 41q68 0 110 -49l-15 -36q-39 44 -88 44q-97 0 -97 -111v-203h173v-33z" />
    <glyph glyph-name="Aringacute" unicode="&#x1fa;" horiz-adv-x="701" 
d="M31 0l291 661q-64 13 -64 75q0 39 27 58t70 19t69.5 -19t26.5 -58q0 -62 -64 -75l274 -661h-45l-73 174h-390l-77 -174h-45zM354 634l-187 -423h363zM284 736q0 -53 71 -53q70 0 70 53q0 52 -70 52q-71 0 -71 -52zM417 907l-47 -70h-37l44 70h40z" />
    <glyph glyph-name="aringacute" unicode="&#x1fb;" horiz-adv-x="577" 
d="M119 455l-10 40q76 37 176 37q95 0 144.5 -49.5t49.5 -137.5v-345h-44v66q-80 -76 -189 -76q-87 0 -138 43t-51 117q0 94 71.5 139.5t189.5 45.5q66 0 117 -16v25q0 72 -39 110t-114 38q-89 0 -163 -37zM101 153q0 -58 41.5 -91.5t112.5 -33.5q100 0 180 75v182
q-42 14 -111 14q-101 0 -162 -35.5t-61 -110.5zM199 658q0 39 27.5 59t70.5 20t70.5 -20t27.5 -59t-27.5 -59t-70.5 -20t-70.5 20t-27.5 59zM226 658q0 -53 71 -53q70 0 70 53q0 52 -70 52q-71 0 -71 -52zM359 829l-47 -70h-37l44 70h40z" />
    <glyph glyph-name="AEacute" unicode="&#x1fc;" horiz-adv-x="1052" 
d="M477 0v174h-297l-115 -174h-50l445 680h526v-41h-466v-264h393v-38h-393v-297h466v-40h-509zM202 211h275v421zM799 898l-87 -132h-43l82 132h48z" />
    <glyph glyph-name="aeacute" unicode="&#x1fd;" horiz-adv-x="954" 
d="M877 245h-397q3 -103 46.5 -162t149.5 -59q93 0 179 66l21 -33q-89 -71 -203 -71q-79 0 -133.5 34t-75.5 95q-92 -125 -215 -125q-88 0 -140 43.5t-52 116.5q0 93 72 138.5t192 45.5q73 0 114 -10q0 93 -29 130.5t-117 37.5q-98 0 -170 -37l-10 40q73 36 185 36
q50 0 84 -10.5t52 -31.5t26 -43t13 -55q21 57 72 101.5t128 44.5q104 0 160 -62.5t56 -155.5q0 -45 -8 -74zM671 501q-62 0 -106.5 -35t-63 -83t-19.5 -103h361q3 20 3 42q0 76 -45.5 127.5t-129.5 51.5zM101 153q0 -59 41.5 -92t112.5 -33q60 0 106.5 33t73.5 78v151
q-51 11 -112 11q-102 -1 -162 -36.5t-60 -111.5zM583 741l-87 -132h-43l82 132h48z" />
    <glyph glyph-name="Oslashacute" unicode="&#x1fe;" horiz-adv-x="835" 
d="M523 898l-87 -132h-43l82 132h48zM68 339q0 151 100 251t249 100q120 0 211 -66l46 56h37v-4l-58 -72q115 -102 115 -265q0 -149 -100 -249t-251 -100q-119 0 -209 65l-44 -55h-38v5l57 70q-115 102 -115 264zM111 339q0 -143 99 -231l391 482q-78 58 -184 58
q-132 0 -219 -88t-87 -221zM724 339q0 142 -98 232l-391 -483q78 -56 182 -56q133 0 220 87.5t87 219.5z" />
    <glyph glyph-name="oslashacute" unicode="&#x1ff;" horiz-adv-x="688" 
d="M449 741l-87 -132h-43l82 132h48zM67 260q0 120 77.5 198.5t198.5 78.5q104 0 176 -58l35 43h32v-4l-46 -57q81 -78 81 -201q0 -119 -78 -196.5t-200 -77.5q-89 0 -155 43l-23 -29h-32v5l32 40q-98 79 -98 215zM110 260q0 -114 82 -182l300 368q-63 49 -149 49
q-102 0 -167.5 -67t-65.5 -168zM578 260q0 102 -66 168l-297 -366q55 -35 128 -35q103 0 169 66.5t66 166.5z" />
    <glyph glyph-name="Scommaaccent" unicode="&#x218;" horiz-adv-x="631" 
d="M72 50l13 42q100 -60 216 -60q97 0 159.5 42t62.5 112q0 50 -37.5 79.5t-117.5 47.5l-139 32q-162 38 -162 162q0 78 65 130t191 52q64 0 126.5 -16t102.5 -39l-14 -41q-35 22 -97 38t-119 16q-103 0 -156.5 -39.5t-53.5 -97.5q0 -92 128 -122l144 -34q92 -22 138 -60
t46 -106q0 -90 -75 -144t-193 -54q-65 0 -127.5 18.5t-100.5 41.5zM280 -225l23 71q-23 1 -35 11.5t-12 26.5q0 43 41 43q21 0 33 -12.5t12 -32.5q0 -61 -35 -117z" />
    <glyph glyph-name="scommaaccent" unicode="&#x219;" horiz-adv-x="534" 
d="M452 493l-13 -40q-78 40 -168 40q-73 0 -113 -29t-40 -81q0 -38 26 -56t92 -33l87 -21q76 -17 112.5 -47.5t36.5 -83.5q0 -66 -56 -109t-150 -43q-106 0 -191 45l10 41q85 -47 180 -47q74 0 118.5 31.5t44.5 79.5q0 37 -29 59t-90 35l-88 21q-78 17 -112 44.5t-34 81.5
q0 69 52 110t146 41q46 0 97 -12t82 -27zM241 -225l23 71q-23 1 -35 11.5t-12 26.5q0 43 41 43q21 0 33 -12.5t12 -32.5q0 -61 -35 -117z" />
    <glyph glyph-name="uni021A" unicode="&#x21a;" horiz-adv-x="622" 
d="M601 639h-259v-639h-44v639h-277v41h580v-41zM292 -225l23 71q-23 1 -35 11.5t-12 26.5q0 43 41 43q21 0 33 -12.5t12 -32.5q0 -61 -35 -117z" />
    <glyph glyph-name="uni021B" unicode="&#x21b;" horiz-adv-x="474" 
d="M154 656h40v-133h226v-38h-226v-338q0 -56 27 -86.5t79 -30.5q70 0 131 43l17 -36q-71 -47 -158 -47q-67 0 -103.5 39t-36.5 112v344h-108v38h108zM249 -225l23 71q-23 1 -35 11.5t-12 26.5q0 43 41 43q21 0 33 -12.5t12 -32.5q0 -61 -35 -117z" />
    <glyph glyph-name="dotlessj" unicode="&#x237;" horiz-adv-x="251" 
d="M12 -197l-23 30q55 29 84.5 70.5t29.5 107.5v512h44v-511q0 -148 -135 -209z" />
    <glyph glyph-name="circumflex" unicode="&#x2c6;" 
d="M399 609l-93 105l-91 -105h-43l111 132h47l111 -132h-42z" />
    <glyph glyph-name="caron" unicode="&#x2c7;" 
d="M215 741l92 -105l92 105h42l-111 -132h-47l-111 132h43z" />
    <glyph glyph-name="breve" unicode="&#x2d8;" 
d="M180 693l19 20q40 -58 108 -58q72 0 106 58l20 -20q-42 -73 -126 -73t-127 73z" />
    <glyph glyph-name="dotaccent" unicode="&#x2d9;" 
d="M274 673q0 34 34 34q32 0 32 -34q0 -35 -32 -35q-34 0 -34 35z" />
    <glyph glyph-name="ring" unicode="&#x2da;" 
d="M209 630q0 40 28.5 69t69.5 29t69.5 -29t28.5 -69t-28.5 -69t-69.5 -29t-69.5 29t-28.5 69zM236 630q0 -29 21 -50t50 -21t49.5 21t20.5 50t-20.5 49.5t-49.5 20.5t-50 -20.5t-21 -49.5z" />
    <glyph glyph-name="ogonek" unicode="&#x2db;" 
d="M327 12l27 -12q-44 -2 -74 -22.5t-30 -56.5q0 -29 17.5 -45t46.5 -16q31 0 59 16l6 -29q-36 -16 -69 -16q-40 0 -64.5 22.5t-24.5 63.5q0 43 34 68.5t72 26.5z" />
    <glyph glyph-name="tilde" unicode="&#x2dc;" 
d="M166 635l-20 22q34 64 91 64q27 0 74.5 -35.5t65.5 -35.5q44 0 70 52l20 -22q-35 -65 -90 -65q-26 0 -74 35.5t-66 35.5q-44 0 -71 -51z" />
    <glyph glyph-name="hungarumlaut" unicode="&#x2dd;" 
d="M294 741l-87 -132h-43l82 132h48zM450 741l-87 -132h-43l83 132h47z" />
    <glyph glyph-name="uni0394" unicode="&#x394;" horiz-adv-x="701" 
d="M35 0l299 680h49l281 -680h-629zM357 634l-263 -597h512z" />
    <glyph glyph-name="uni03A9" unicode="&#x3a9;" horiz-adv-x="842" 
d="M478 0v38q109 25 179.5 107t70.5 194q0 134 -87 221.5t-221 87.5q-133 0 -219.5 -87.5t-86.5 -221.5q0 -115 69 -197t179 -104v-38h-271v38h180q-90 38 -145 120t-55 186q0 147 99.5 246.5t249.5 99.5q151 0 251 -99t100 -247q0 -102 -55.5 -184.5t-144.5 -121.5h180v-38
h-273z" />
    <glyph glyph-name="uni03BC" unicode="&#x3bc;" horiz-adv-x="651" 
d="M148 523v-296q0 -90 41.5 -142.5t125.5 -52.5q72 0 122 40.5t67 100.5v350h44v-523h-44v100q-28 -51 -79.5 -80.5t-119.5 -29.5q-104 0 -157 72v-250h-44v711h44z" />
    <glyph glyph-name="pi" unicode="&#x3c0;" horiz-adv-x="716" 
d="M33 523h640v-38h-148v-386q0 -69 52 -69q27 0 59 23l9 -36q-33 -27 -80 -27q-84 0 -84 103v392h-267v-485h-44v485h-137v38z" />
    <glyph glyph-name="Wgrave" unicode="&#x1e80;" horiz-adv-x="1083" 
d="M706 0l-164 392l-174 -392h-46l-282 680h46l261 -630l176 393l-98 237h47l257 -626l276 626h46l-299 -680h-46zM525 766l-87 132h48l82 -132h-43z" />
    <glyph glyph-name="wgrave" unicode="&#x1e81;" horiz-adv-x="999" 
d="M906 523h49l-213 -523h-53l-190 481l-190 -481h-54l-210 523h48l190 -482l191 482h52l189 -482zM489 609l-87 132h48l82 -132h-43z" />
    <glyph glyph-name="Wacute" unicode="&#x1e82;" horiz-adv-x="1083" 
d="M706 0l-164 392l-174 -392h-46l-282 680h46l261 -630l176 393l-98 237h47l257 -626l276 626h46l-299 -680h-46zM640 898l-87 -132h-43l82 132h48z" />
    <glyph glyph-name="wacute" unicode="&#x1e83;" horiz-adv-x="999" 
d="M906 523h49l-213 -523h-53l-190 481l-190 -481h-54l-210 523h48l190 -482l191 482h52l189 -482zM596 741l-87 -132h-43l82 132h48z" />
    <glyph glyph-name="Wdieresis" unicode="&#x1e84;" horiz-adv-x="1083" 
d="M706 0l-164 392l-174 -392h-46l-282 680h46l261 -630l176 393l-98 237h47l257 -626l276 626h46l-299 -680h-46zM387 829q0 34 33 34q31 0 31 -34t-31 -34q-33 0 -33 34zM635 829q0 34 33 34q31 0 31 -34t-31 -34q-33 0 -33 34z" />
    <glyph glyph-name="wdieresis" unicode="&#x1e85;" horiz-adv-x="999" 
d="M906 523h49l-213 -523h-53l-190 481l-190 -481h-54l-210 523h48l190 -482l191 482h52l189 -482zM345 672q0 34 33 34q31 0 31 -34t-31 -34q-33 0 -33 34zM593 672q0 34 33 34q31 0 31 -34t-31 -34q-33 0 -33 34z" />
    <glyph glyph-name="Ygrave" unicode="&#x1ef2;" horiz-adv-x="690" 
d="M323 0v293l-290 383v4h49l263 -346l263 346h49v-4l-290 -382v-294h-44zM325 766l-87 132h48l82 -132h-43z" />
    <glyph glyph-name="ygrave" unicode="&#x1ef3;" horiz-adv-x="612" 
d="M516 523h46l-247 -570q-33 -76 -72 -113.5t-105 -37.5q-63 0 -120 37l11 38q53 -35 109 -35q50 0 79.5 27.5t54.5 86.5l19 46l-257 521h49l229 -474zM297 609l-87 132h48l82 -132h-43z" />
    <glyph glyph-name="endash" unicode="&#x2013;" horiz-adv-x="632" 
d="M90 322h453v-39h-453v39z" />
    <glyph glyph-name="emdash" unicode="&#x2014;" horiz-adv-x="859" 
d="M90 322h679v-39h-679v39z" />
    <glyph glyph-name="quoteleft" unicode="&#x2018;" horiz-adv-x="250" 
d="M167 678l-47 -144q23 -1 35.5 -13.5t12.5 -29.5q0 -49 -45 -49q-22 0 -34 14t-12 35q0 37 22 103t39 96z" />
    <glyph glyph-name="quoteright" unicode="&#x2019;" horiz-adv-x="247" 
d="M84 452l49 144q-23 1 -35.5 13.5t-12.5 29.5q0 49 45 49q22 0 34 -14t12 -35q0 -36 -23 -103t-40 -96z" />
    <glyph glyph-name="quotesinglbase" unicode="&#x201a;" horiz-adv-x="263" 
d="M85 -157l49 144q-23 1 -35.5 13.5t-12.5 29.5q0 49 45 49q22 0 34 -14t12 -35q0 -36 -23 -103t-40 -96z" />
    <glyph glyph-name="quotedblleft" unicode="&#x201c;" horiz-adv-x="417" 
d="M334 679l-46 -143q22 -1 34.5 -12.5t12.5 -28.5q0 -47 -43 -47q-21 0 -32.5 13.5t-11.5 33.5q0 36 22 101t38 94zM163 679l-46 -143q23 -1 35 -12.5t12 -28.5q0 -47 -43 -47q-21 0 -32.5 13.5t-11.5 33.5q0 36 22 101t38 94z" />
    <glyph glyph-name="quotedblright" unicode="&#x201d;" horiz-adv-x="414" 
d="M85 458l46 142q-22 1 -34.5 13t-12.5 29q0 46 43 46q21 0 32.5 -13t11.5 -33q0 -35 -22 -102t-37 -93zM256 458l46 142q-23 1 -35 13t-12 29q0 46 43 46q21 0 32.5 -13t11.5 -33q0 -35 -22 -101.5t-38 -93.5z" />
    <glyph glyph-name="quotedblbase" unicode="&#x201e;" horiz-adv-x="430" 
d="M87 -158l46 143q-22 1 -34.5 12.5t-12.5 28.5q0 47 43 47q21 0 32.5 -13.5t11.5 -33.5q0 -35 -22 -101t-38 -94zM258 -158l46 143q-23 1 -35 12.5t-12 28.5q0 47 43 47q21 0 32.5 -13.5t11.5 -33.5q0 -35 -22 -101t-38 -94z" />
    <glyph glyph-name="dagger" unicode="&#x2020;" horiz-adv-x="608" 
d="M573 384h-249v-572h-39v572h-250v39h250v287h39v-287h249v-39z" />
    <glyph glyph-name="daggerdbl" unicode="&#x2021;" horiz-adv-x="665" 
d="M601 84h-249v-272h-39v272h-250v39h250v261h-250v39h250v287h39v-287h249v-39h-249v-261h249v-39z" />
    <glyph glyph-name="bullet" unicode="&#x2022;" horiz-adv-x="362" 
d="M110 302q0 37 18.5 56.5t51.5 19.5q35 0 53.5 -19.5t18.5 -56.5q0 -77 -72 -77q-70 0 -70 77z" />
    <glyph glyph-name="ellipsis" unicode="&#x2026;" horiz-adv-x="687" 
d="M88 32q0 47 43 47q45 0 45 -47t-45 -47q-43 0 -43 47zM300 32q0 47 43 47q45 0 45 -47t-45 -47q-43 0 -43 47zM512 32q0 47 43 47q45 0 45 -47t-45 -47q-43 0 -43 47z" />
    <glyph glyph-name="perthousand" unicode="&#x2030;" horiz-adv-x="1216" 
d="M834 157q0 73 48 121.5t122 48.5t122 -48.5t48 -121.5q0 -72 -47.5 -119.5t-122.5 -47.5q-74 0 -122 47.5t-48 119.5zM871 157q0 -57 37.5 -94t95.5 -37q59 0 96 37t37 94q0 58 -37 96t-96 38q-58 0 -95.5 -38t-37.5 -96zM448 157q0 73 47.5 121.5t121.5 48.5t122 -48.5
t48 -121.5q0 -72 -47.5 -119.5t-122.5 -47.5q-74 0 -121.5 47.5t-47.5 119.5zM485 157q0 -57 37 -94t95 -37q59 0 96.5 37t37.5 94q0 58 -37.5 96t-96.5 38q-58 0 -95 -38t-37 -96zM206 5l364 675h42v-4l-364 -676h-42v5zM45 520q0 73 47.5 121t121.5 48q75 0 122.5 -48
t47.5 -121q0 -72 -48 -120t-122 -48t-121.5 48t-47.5 120zM82 520q0 -57 37 -94.5t95 -37.5q59 0 96.5 37.5t37.5 94.5t-37.5 95t-96.5 38q-58 0 -95 -38t-37 -95z" />
    <glyph glyph-name="guilsinglleft" unicode="&#x2039;" horiz-adv-x="320" 
d="M67 297v12l158 196h5l16 -18l-138 -184l138 -184l-16 -18h-5z" />
    <glyph glyph-name="guilsinglright" unicode="&#x203a;" horiz-adv-x="320" 
d="M253 309v-12l-158 -196h-5l-15 18l137 184l-138 183l16 19h5z" />
    <glyph glyph-name="fraction" unicode="&#x2044;" horiz-adv-x="114" 
d="M-143 5l368 675h32v-4l-368 -676h-32v5z" />
    <glyph glyph-name="zerosuperior" unicode="&#x2070;" horiz-adv-x="363" 
d="M49 629q0 74 33 117.5t99 43.5t99.5 -43.5t33.5 -117.5t-33.5 -118t-99.5 -44t-99 44t-33 118zM79 629q0 -60 24.5 -96t77.5 -36q102 0 102 132q0 60 -24.5 96t-77.5 36q-52 0 -77 -36.5t-25 -95.5z" />
    <glyph glyph-name="foursuperior" unicode="&#x2074;" horiz-adv-x="354" 
d="M322 541h-70v-69h-31v69h-191v24l181 219h41v-217h70v-26zM65 567h156v189z" />
    <glyph glyph-name="fivesuperior" unicode="&#x2075;" horiz-adv-x="325" 
d="M61 633l-1 1l13 150h196v-28h-170l-8 -97h61q128 0 128 -88q0 -52 -37 -78t-93 -26q-58 0 -108 22l9 28q44 -22 97 -22q42 0 71.5 18.5t29.5 56.5q0 63 -98 63h-90z" />
    <glyph glyph-name="sixsuperior" unicode="&#x2076;" horiz-adv-x="351" 
d="M79 629v-8q42 59 113 59q54 0 84.5 -27t30.5 -76q0 -48 -34 -79t-85 -31q-66 0 -103 44.5t-37 117.5t37 117t103 44q62 0 107 -30l-12 -26q-37 28 -91 28t-83.5 -36.5t-29.5 -96.5zM188 653q-67 0 -106 -61q8 -44 35.5 -69.5t70.5 -25.5q38 0 63.5 23t25.5 57
q0 38 -24.5 57t-64.5 19z" />
    <glyph glyph-name="sevensuperior" unicode="&#x2077;" horiz-adv-x="276" 
d="M77 475l139 281h-187v28h221v-25l-139 -287h-34v3z" />
    <glyph glyph-name="eightsuperior" unicode="&#x2078;" horiz-adv-x="349" 
d="M174 467q-57 0 -91.5 24.5t-34.5 65.5q0 66 81 79q-31 4 -50.5 24.5t-19.5 46.5q0 39 31 61t84 22q54 0 85 -22t31 -61q0 -26 -19.5 -46.5t-50.5 -24.5q38 -6 59.5 -26.5t21.5 -52.5q0 -41 -35 -65.5t-92 -24.5zM175 622q-95 0 -95 -61q0 -30 26.5 -48.5t67.5 -18.5
t68 18.5t27 48.5q0 61 -94 61zM174 763q-37 0 -60.5 -15t-23.5 -43q0 -24 21 -41.5t64 -17.5q42 0 62.5 17.5t20.5 41.5q0 28 -23 43t-61 15z" />
    <glyph glyph-name="ninesuperior" unicode="&#x2079;" horiz-adv-x="352" 
d="M273 629v6q-41 -58 -113 -58q-54 0 -84.5 27.5t-30.5 75.5t34 79t86 31q65 0 102 -43.5t37 -117.5q0 -73 -37 -117.5t-103 -44.5q-64 0 -106 30l11 27q34 -28 91 -28q54 0 83.5 36t29.5 97zM164 604q66 0 106 60q-9 44 -36 70.5t-69 26.5q-38 0 -63.5 -23t-25.5 -58
q0 -37 24 -56.5t64 -19.5z" />
    <glyph glyph-name="zeroinferior" unicode="&#x2080;" horiz-adv-x="361" 
d="M48 56q0 74 33 118t99 44t99.5 -44t33.5 -118t-33.5 -117.5t-99.5 -43.5t-99 43.5t-33 117.5zM78 56q0 -59 24.5 -95t77.5 -36q102 0 102 131q0 132 -102 132q-53 0 -77.5 -36t-24.5 -96z" />
    <glyph glyph-name="oneinferior" unicode="&#x2081;" horiz-adv-x="249" 
d="M25 149l131 63h27v-312h-31v277l-115 -52z" />
    <glyph glyph-name="twoinferior" unicode="&#x2082;" horiz-adv-x="326" 
d="M51 -100v26l132 99q57 42 57 91q0 32 -20 52t-59 20q-41 0 -63 -22.5t-23 -59.5l-29 5q1 48 31.5 77.5t84.5 29.5t82 -28t28 -73q0 -62 -68 -111l-104 -78h182v-28h-231z" />
    <glyph glyph-name="threeinferior" unicode="&#x2083;" horiz-adv-x="328" 
d="M84 75h83q33 0 52 17t19 40q0 57 -85 57q-47 0 -96 -22l-8 27q51 24 104 24t84.5 -22t31.5 -61q0 -27 -15.5 -47.5t-43.5 -24.5q70 -13 70 -78q0 -42 -34.5 -66t-92.5 -24q-44 0 -106 22l9 27q45 -21 97 -21q41 0 68.5 18t27.5 48q0 27 -21.5 42.5t-60.5 15.5h-83v28z
" />
    <glyph glyph-name="fourinferior" unicode="&#x2084;" horiz-adv-x="355" 
d="M322 -31h-70v-69h-31v69h-191v25l181 218h41v-217h70v-26zM65 -5h156v189z" />
    <glyph glyph-name="fiveinferior" unicode="&#x2085;" horiz-adv-x="324" 
d="M61 61l-2 2l13 149h197v-27h-171l-7 -98h60q128 0 128 -88q0 -52 -37.5 -78t-92.5 -26t-108 23l9 27q50 -22 98 -22q42 0 71 18.5t29 56.5q0 63 -98 63h-89z" />
    <glyph glyph-name="sixinferior" unicode="&#x2086;" horiz-adv-x="350" 
d="M78 56v-7q42 59 113 59q54 0 84.5 -27.5t30.5 -75.5t-34 -79t-85 -31q-66 0 -103 44t-37 117t37 117.5t103 44.5q62 0 107 -30l-12 -27q-34 28 -91 28q-54 0 -83.5 -36t-29.5 -97zM187 81q-67 0 -106 -61q8 -44 35.5 -70t70.5 -26q38 0 63.5 23t25.5 58q0 37 -24.5 56.5
t-64.5 19.5z" />
    <glyph glyph-name="seveninferior" unicode="&#x2087;" horiz-adv-x="278" 
d="M78 -97l141 282h-189v27h223v-25l-142 -287h-33v3z" />
    <glyph glyph-name="eightinferior" unicode="&#x2088;" horiz-adv-x="348" 
d="M174 -105q-57 0 -91.5 24t-34.5 66q0 32 21.5 52.5t59.5 25.5q-32 4 -51.5 25t-19.5 47q0 39 31.5 61t84.5 22t84.5 -22t31.5 -61q0 -26 -19.5 -47t-51.5 -25q38 -5 60 -25.5t22 -52.5q0 -42 -34.5 -66t-92.5 -24zM175 50q-48 0 -72 -16.5t-24 -44.5q0 -30 27 -48t68 -18
q42 0 69 18t27 48q0 28 -24 44.5t-71 16.5zM174 190q-38 0 -61.5 -15t-23.5 -43q0 -24 21.5 -41t64.5 -17q42 0 63 17t21 41q0 28 -23 43t-62 15z" />
    <glyph glyph-name="nineinferior" unicode="&#x2089;" horiz-adv-x="351" 
d="M272 56v7q-41 -58 -113 -58q-54 0 -84.5 27t-30.5 76q0 48 34 79t86 31q65 0 102 -44t37 -118q0 -73 -37 -117t-103 -44q-63 0 -106 30l11 26q40 -28 92 -28q53 0 82.5 36.5t29.5 96.5zM163 32q64 0 106 59q-8 45 -35 71t-70 26q-38 0 -63.5 -23t-25.5 -57q0 -38 24 -57
t64 -19z" />
    <glyph glyph-name="Euro" unicode="&#x20ac;" horiz-adv-x="637" 
d="M566 613l-17 -36q-79 71 -172 71q-88 0 -145 -60.5t-70 -177.5h308l-15 -33h-296q-1 -12 -1 -38q0 -30 1 -44h259l-15 -33h-241q15 -113 71 -171.5t143 -58.5q97 0 177 63l18 -37q-85 -68 -197 -68q-104 0 -172.5 70.5t-84.5 201.5h-55v33h52q-1 14 -1 44q0 7 0.5 19
t0.5 19h-52v33h54q15 135 84 207.5t174 72.5q106 0 192 -77z" />
    <glyph glyph-name="afii61289" unicode="&#x2113;" horiz-adv-x="409" 
d="M84 129l-30 48l65 45v273q0 91 35 142.5t99 51.5q105 0 105 -133q0 -106 -52 -204t-119 -156v-61q0 -84 69 -84q35 0 67 21l-1 -70q-27 -12 -75 -12q-63 0 -95.5 29.5t-32.5 97.5v38zM187 500v-230q115 111 115 293q0 70 -47 70q-29 0 -48.5 -34t-19.5 -99z" />
    <glyph glyph-name="uni2117" unicode="&#x2117;" horiz-adv-x="836" 
d="M68 339q0 151 100 251t249 100q151 0 251 -100t100 -251q0 -149 -100 -249t-251 -100q-149 0 -249 100t-100 249zM100 339q0 -136 90.5 -227t226.5 -91q137 0 228 91t91 227q0 137 -91 228.5t-228 91.5q-136 0 -226.5 -91.5t-90.5 -228.5zM320 169v340h146
q50 0 83.5 -30.5t33.5 -88.5q0 -54 -34 -85.5t-83 -31.5h-110v-104h-36zM461 478h-105v-173h105q37 0 61.5 23t24.5 62q0 42 -24.5 65t-61.5 23z" />
    <glyph glyph-name="trademark" unicode="&#x2122;" horiz-adv-x="844" 
d="M714 357v258l-130 -160h-8l-129 160v-258h-31v306h28l136 -166l136 166h29v-306h-31zM333 632h-112v-275h-31v275h-118v31h261v-31z" />
    <glyph glyph-name="Omega" unicode="&#x2126;" horiz-adv-x="843" 
d="M478 0v38q109 25 179.5 107t70.5 194q0 134 -87 221.5t-221 87.5q-133 0 -219 -87.5t-86 -221.5q0 -116 68.5 -197.5t179.5 -103.5v-38h-272v38h180q-90 38 -145 120t-55 186q0 147 99.5 246.5t249.5 99.5q152 0 251.5 -99t99.5 -247q0 -103 -55 -185t-144 -121h179v-38
h-273z" />
    <glyph glyph-name="estimated" unicode="&#x212e;" horiz-adv-x="695" 
d="M353 601q71 0 126 -25.5t87.5 -69.5t49 -98t16.5 -114v-26h-431v-169q60 -58 152 -58q130 0 184 104h66q-30 -73 -93 -115t-157 -42q-93 0 -157.5 45t-92.5 112.5t-28 148.5q0 82 28 149.5t92.5 112.5t157.5 45zM353 548q-94 0 -152 -58v-170h304v170q-58 58 -152 58z
" />
    <glyph glyph-name="onethird" unicode="&#x2153;" horiz-adv-x="740" 
d="M126 5l368 675h32v-4l-368 -676h-32v5zM36 616l132 63h27v-312h-31v278l-115 -54zM491 174h83q33 0 52 17t19 40q0 57 -85 57q-47 0 -96 -22l-8 27q51 24 104 24t84.5 -22t31.5 -61q0 -27 -15.5 -47.5t-43.5 -24.5q70 -13 70 -78q0 -42 -34.5 -66t-92.5 -24
q-44 0 -106 22l9 27q45 -21 97 -21q41 0 68.5 18t27.5 48q0 27 -21.5 42.5t-60.5 15.5h-83v28z" />
    <glyph glyph-name="twothirds" unicode="&#x2154;" horiz-adv-x="816" 
d="M206 5l368 675h32v-4l-368 -676h-32v5zM571 174h83q33 0 52 17t19 40q0 57 -85 57q-47 0 -96 -22l-8 27q51 24 104 24t84.5 -22t31.5 -61q0 -27 -15.5 -47.5t-43.5 -24.5q70 -13 70 -78q0 -42 -34.5 -66t-92.5 -24q-44 0 -106 22l9 27q45 -21 97 -21q41 0 68.5 18
t27.5 48q0 27 -21.5 42.5t-60.5 15.5h-83v28zM62 372v26l132 100q58 43 58 90q0 32 -20.5 52.5t-58.5 20.5q-41 0 -63.5 -22.5t-23.5 -59.5l-29 4q1 48 31.5 77.5t84.5 29.5t82 -28t28 -72q0 -61 -67 -112l-105 -78h182v-28h-231z" />
    <glyph glyph-name="oneeighth" unicode="&#x215b;" horiz-adv-x="737" 
d="M125 5l368 675h32v-4l-368 -676h-32v5zM560 -6q-57 0 -91.5 24t-34.5 66q0 32 21.5 52.5t59.5 25.5q-32 4 -51.5 25t-19.5 47q0 39 31.5 61t84.5 22t84.5 -22t31.5 -61q0 -26 -19.5 -47t-51.5 -25q38 -5 60 -25.5t22 -52.5q0 -42 -34.5 -66t-92.5 -24zM561 149
q-48 0 -72 -16.5t-24 -44.5q0 -30 27 -48t68 -18q42 0 69 18t27 48q0 28 -24 44.5t-71 16.5zM560 289q-38 0 -61.5 -15t-23.5 -43q0 -24 21.5 -41t64.5 -17q42 0 63 17t21 41q0 28 -23 43t-62 15zM35 621l132 63h27v-312h-31v278l-115 -54z" />
    <glyph glyph-name="threeeighths" unicode="&#x215c;" horiz-adv-x="806" 
d="M196 5l368 675h32v-4l-368 -676h-32v5zM630 -6q-57 0 -91.5 24t-34.5 66q0 32 21.5 52.5t59.5 25.5q-32 4 -51.5 25t-19.5 47q0 39 31.5 61t84.5 22t84.5 -22t31.5 -61q0 -26 -19.5 -47t-51.5 -25q38 -5 60 -25.5t22 -52.5q0 -42 -34.5 -66t-92.5 -24zM631 149
q-48 0 -72 -16.5t-24 -44.5q0 -30 27 -48t68 -18q42 0 69 18t27 48q0 28 -24 44.5t-71 16.5zM630 289q-38 0 -61.5 -15t-23.5 -43q0 -24 21.5 -41t64.5 -17q42 0 63 17t21 41q0 28 -23 43t-62 15zM93 547h83q33 0 52 17.5t19 40.5q0 56 -85 56q-50 0 -96 -22l-8 28
q51 23 104 23q54 0 85 -22t31 -61q0 -27 -15.5 -47.5t-43.5 -24.5q70 -12 70 -78q0 -41 -35 -65.5t-92 -24.5q-46 0 -105 22l8 27q46 -20 97 -20q41 0 68.5 17.5t27.5 47.5q0 27 -21.5 43t-60.5 16h-83v27z" />
    <glyph glyph-name="fiveeighths" unicode="&#x215d;" horiz-adv-x="806" 
d="M195 5l368 675h32v-4l-368 -676h-32v5zM629 -6q-57 0 -91.5 24t-34.5 66q0 32 21.5 52.5t59.5 25.5q-32 4 -51.5 25t-19.5 47q0 39 31.5 61t84.5 22t84.5 -22t31.5 -61q0 -26 -19.5 -47t-51.5 -25q38 -5 60 -25.5t22 -52.5q0 -42 -34.5 -66t-92.5 -24zM630 149
q-48 0 -72 -16.5t-24 -44.5q0 -30 27 -48t68 -18q42 0 69 18t27 48q0 28 -24 44.5t-71 16.5zM629 289q-38 0 -61.5 -15t-23.5 -43q0 -24 21.5 -41t64.5 -17q42 0 63 17t21 41q0 28 -23 43t-62 15zM71 533l-1 1l13 150h196v-28h-170l-8 -97h61q128 0 128 -88q0 -52 -37 -78
t-93 -26q-58 0 -108 22l9 28q44 -22 97 -22q42 0 71.5 18.5t29.5 56.5q0 63 -98 63h-90z" />
    <glyph glyph-name="seveneighths" unicode="&#x215e;" horiz-adv-x="745" 
d="M134 5l368 675h32v-4l-368 -676h-32v5zM569 -6q-57 0 -91.5 24t-34.5 66q0 32 21.5 52.5t59.5 25.5q-32 4 -51.5 25t-19.5 47q0 39 31.5 61t84.5 22t84.5 -22t31.5 -61q0 -26 -19.5 -47t-51.5 -25q38 -5 60 -25.5t22 -52.5q0 -42 -34.5 -66t-92.5 -24zM570 149
q-48 0 -72 -16.5t-24 -44.5q0 -30 27 -48t68 -18q42 0 69 18t27 48q0 28 -24 44.5t-71 16.5zM569 289q-38 0 -61.5 -15t-23.5 -43q0 -24 21.5 -41t64.5 -17q42 0 63 17t21 41q0 28 -23 43t-62 15zM86 375l139 281h-187v28h221v-25l-139 -287h-34v3z" />
    <glyph glyph-name="arrowleft" unicode="&#x2190;" horiz-adv-x="724" 
d="M149 320h495v-38h-495l196 -189l-24 -25l-240 233l240 231l25 -27z" />
    <glyph glyph-name="arrowup" unicode="&#x2191;" horiz-adv-x="724" 
d="M382 512v-494h-38v494l-189 -196l-25 25l233 240l231 -241l-28 -25z" />
    <glyph glyph-name="arrowright" unicode="&#x2192;" horiz-adv-x="724" 
d="M575 280h-494v37h494l-196 190l25 25l240 -234l-241 -230l-25 27z" />
    <glyph glyph-name="arrowdown" unicode="&#x2193;" horiz-adv-x="724" 
d="M341 86v495h38v-494l189 195l26 -24l-234 -240l-230 240l27 25z" />
    <glyph glyph-name="uni2196" unicode="&#x2196;" horiz-adv-x="724" 
d="M226 465l349 -350l-26 -27l-350 349l5 -272h-35l-5 335l333 -7l-1 -37z" />
    <glyph glyph-name="uni2197" unicode="&#x2197;" horiz-adv-x="724" 
d="M527 436l-350 -350l-27 27l349 349l-272 -5v36l335 5l-7 -334l-37 2z" />
    <glyph glyph-name="uni2198" unicode="&#x2198;" horiz-adv-x="724" 
d="M499 135l-350 349l27 27l349 -349l-5 272l35 1l5 -335l-333 7l1 36z" />
    <glyph glyph-name="uni2199" unicode="&#x2199;" horiz-adv-x="724" 
d="M197 163l349 349l27 -26l-349 -349l272 4v-35l-334 -5l6 333l37 -1z" />
    <glyph glyph-name="partialdiff" unicode="&#x2202;" horiz-adv-x="611" 
d="M267 454q58 0 108.5 -28t75.5 -57t45 -62q0 5 0.5 16.5t0.5 17.5q0 131 -73 223t-172 125l18 31q109 -31 190 -133.5t81 -245.5q0 -160 -71 -255.5t-196 -95.5q-97 0 -161 66.5t-64 170.5q0 106 59 166.5t159 60.5zM275 32q88 0 144.5 62t71.5 168q-12 21 -27 42t-42 49
t-65.5 45t-82.5 17q-81 0 -131.5 -49.5t-50.5 -138.5q0 -83 52 -139t131 -56z" />
    <glyph glyph-name="Delta" unicode="&#x2206;" horiz-adv-x="696" 
d="M33 0l299 680h49l281 -680h-629zM355 634l-264 -597h513z" />
    <glyph glyph-name="product" unicode="&#x220f;" horiz-adv-x="692" 
d="M152 -188h-42v868h472v-868h-42v827h-388v-827z" />
    <glyph glyph-name="summation" unicode="&#x2211;" horiz-adv-x="509" 
d="M56 0v30l219 310l-221 311v29h396v-38h-341l215 -302l-212 -302h338v-38h-394z" />
    <glyph glyph-name="minus" unicode="&#x2212;" horiz-adv-x="633" 
d="M92 321h449v-38h-449v38z" />
    <glyph glyph-name="uni2215" unicode="&#x2215;" horiz-adv-x="441" 
d="M21 5l368 675h32v-4l-368 -676h-32v5z" />
    <glyph glyph-name="uni2219" unicode="&#x2219;" horiz-adv-x="265" 
d="M89 299q0 46 42 46q45 0 45 -46q0 -47 -45 -47q-42 0 -42 47z" />
    <glyph glyph-name="radical" unicode="&#x221a;" horiz-adv-x="623" 
d="M160 432l194 -382l200 644l30 -12l-214 -682h-34l-197 379l-94 -51l-18 32z" />
    <glyph glyph-name="infinity" unicode="&#x221e;" horiz-adv-x="841" 
d="M113 298q0 -59 34 -92t88 -33q64 0 115 65l47 60l-47 60q-48 65 -115 65q-54 0 -88 -33t-34 -92zM421 273l-47 -59q-61 -76 -142 -76q-68 0 -112 43.5t-44 116.5q0 74 44 117.5t112 43.5q83 0 142 -76l46 -59l48 59q62 76 141 76q69 0 112.5 -43.5t43.5 -117.5
q0 -73 -43.5 -116.5t-112.5 -43.5q-79 0 -142 76zM728 298q0 59 -34 92t-88 33q-64 0 -115 -65l-47 -60l47 -60q53 -65 115 -65q54 0 88 33t34 92z" />
    <glyph glyph-name="integral" unicode="&#x222b;" horiz-adv-x="463" 
d="M210 -46v615q0 68 33.5 109t99.5 41q65 0 111 -48l-16 -37q-36 45 -88 45q-96 0 -96 -112v-613q0 -69 -34.5 -111t-100.5 -42q-68 0 -110 49l17 35q38 -43 87 -43q50 0 73.5 31t23.5 81z" />
    <glyph glyph-name="approxequal" unicode="&#x2248;" horiz-adv-x="642" 
d="M533 464l17 -27q-43 -57 -107 -57q-39 0 -124.5 35.5t-119.5 35.5q-58 0 -91 -45l-17 27q38 57 106 57q40 0 127.5 -35.5t117.5 -35.5q54 0 91 45zM532 184l18 -26q-43 -58 -107 -58q-39 0 -124.5 36t-119.5 36q-58 0 -91 -46l-17 27q38 57 106 57q40 0 127.5 -35.5
t116.5 -35.5q56 0 91 45z" />
    <glyph glyph-name="notequal" unicode="&#x2260;" horiz-adv-x="623" 
d="M193 44l35 98h-142v38h156l89 245h-245v38h259l42 114l31 -10l-38 -104h155v-38h-169l-88 -245h257v-38h-271l-39 -108z" />
    <glyph glyph-name="lessequal" unicode="&#x2264;" horiz-adv-x="650" 
d="M95 129h449v-38h-449v38zM95 393v38l446 190h4v-38l-407 -171l407 -170v-38h-4z" />
    <glyph glyph-name="greaterequal" unicode="&#x2265;" horiz-adv-x="649" 
d="M105 129h449v-38h-449v38zM554 431v-38l-445 -189h-5v38l408 170l-408 171v38h5z" />
    <glyph glyph-name="lozenge" unicode="&#x25ca;" horiz-adv-x="569" 
d="M517 329l-217 -329h-33l-215 329l215 350h33zM475 328l-191 311l-191 -311l191 -290z" />
    <glyph glyph-name="commaaccent" unicode="&#xf6c3;" 
d="M285 -225l23 71q-23 1 -35 11.5t-12 26.5q0 43 41 43q21 0 33 -12.5t12 -32.5q0 -61 -35 -117z" />
    <glyph glyph-name="uniF8FF" unicode="&#xf8ff;" horiz-adv-x="728" 
d="M108 720h512v-720h-512v720zM324 283h48q0 26 14 47t34 36t40 29.5t34 36t14 48.5q0 51 -36.5 85t-101.5 34q-39 0 -67 -14.5t-41.5 -37t-19 -43.5t-5.5 -41h47q0 40 21 66.5t65 26.5q41 0 64 -21.5t23 -54.5q0 -23 -21 -45t-45.5 -38t-45.5 -46t-21 -68zM313 194v-71h68
v71h-68z" />
    <glyph glyph-name="fi" unicode="&#xfb01;" horiz-adv-x="718" 
d="M418 451h-210v-451h-44v451h-114v38h114v57q0 79 39 126.5t119 47.5t132 -59l-18 -34q-45 52 -111 52q-117 0 -117 -133v-57h210v-38zM561 673q0 34 34 34q32 0 32 -34q0 -35 -32 -35q-34 0 -34 35zM572 0v523h44v-523h-44z" />
    <glyph glyph-name="fl" unicode="&#xfb02;" horiz-adv-x="765" 
d="M418 451h-210v-451h-44v451h-114v38h114v57q0 79 39 126.5t119 47.5t132 -59l-18 -34q-45 52 -111 52q-117 0 -117 -133v-57h210v-38zM562 710h44v-602q0 -78 69 -78q33 0 68 23l9 -36q-36 -27 -88 -27q-102 0 -102 111v609z" />
    <glyph glyph-name="commaaccent.alt" 
d="M313 759l-22 -72q23 -1 35 -11.5t12 -26.5q0 -43 -41 -43q-22 0 -33.5 12.5t-11.5 32.5q0 63 34 118z" />
    <glyph glyph-name="zero.tf" 
d="M47 339q0 161 62 256t190 95q129 0 191.5 -95t62.5 -256q0 -160 -62.5 -254.5t-191.5 -94.5q-128 0 -190 94.5t-62 254.5zM90 339q0 -91 19.5 -157t67.5 -107.5t122 -41.5q110 0 160.5 83t50.5 223q0 142 -50.5 225.5t-160.5 83.5q-109 0 -159 -84t-50 -225z" />
    <glyph glyph-name="one.tf" 
d="M560 0h-475v40h248v591l-233 -106l-15 37l255 118h37v-640h183v-40z" />
    <glyph glyph-name="two.tf" 
d="M67 0v37l285 225q65 51 95 101t30 111q0 77 -45.5 125.5t-134.5 48.5q-93 0 -144 -52.5t-53 -137.5l-41 5q2 103 64.5 165t173.5 62t168 -59t57 -154q0 -136 -137 -243l-250 -194h410v-40h-478z" />
    <glyph glyph-name="three.tf" 
d="M131 372h184q78 0 122 41t44 98q0 66 -56.5 102.5t-145.5 36.5q-112 0 -209 -51l-14 38q104 53 223 53q112 0 179 -46.5t67 -129.5q0 -59 -39 -105t-102 -54q77 -12 121 -56t44 -115q0 -90 -74.5 -142t-195.5 -52q-107 0 -227 48l14 41q101 -49 213 -49q97 0 161.5 42.5
t64.5 115.5q0 66 -49.5 105t-140.5 39h-184v40z" />
    <glyph glyph-name="four.tf" 
d="M555 157h-91v-157h-44v157h-393v34l383 489h54v-486h91v-37zM74 194h346v434z" />
    <glyph glyph-name="five.tf" 
d="M96 364l-3 4l24 312h401v-40h-363l-18 -239h142q119 0 189.5 -46t70.5 -142q0 -76 -39 -128t-96.5 -73.5t-127.5 -21.5q-120 0 -222 51l15 40q93 -51 205 -51q92 0 156.5 44.5t64.5 137.5q0 152 -217 152h-182z" />
    <glyph glyph-name="six.tf" 
d="M100 341q0 -22 1 -32q13 23 30.5 44.5t45.5 46t67.5 39.5t83.5 15q102 0 161 -60t59 -167q0 -104 -64 -170.5t-161 -66.5q-125 0 -196 95.5t-71 255.5q0 157 71.5 253t197.5 96q64 0 117 -20.5t83 -47.5l-19 -37q-28 26 -74.5 45.5t-103.5 19.5q-108 0 -168 -84.5
t-60 -224.5zM323 415q-44 0 -83.5 -17.5t-66.5 -45t-42 -49t-26 -42.5q16 -106 72 -167.5t144 -61.5q79 0 131.5 55.5t52.5 139.5q0 90 -50.5 139t-131.5 49z" />
    <glyph glyph-name="seven.tf" 
d="M181 5l304 635h-414v40h464v-36l-304 -644h-50v5z" />
    <glyph glyph-name="eight.tf" 
d="M300 -10q-112 0 -182 52t-70 142q0 71 44.5 115.5t123.5 55.5q-66 8 -106 54t-40 105q0 83 62.5 129.5t167.5 46.5t167.5 -46.5t62.5 -129.5q0 -59 -40 -105t-105 -54q78 -11 122.5 -55.5t44.5 -115.5q0 -90 -70 -142t-182 -52zM302 330q-105 0 -157 -38.5t-52 -104.5
q0 -72 58.5 -114.5t148.5 -42.5t148.5 42.5t58.5 114.5q0 67 -50 105t-155 38zM300 651q-83 0 -134.5 -35.5t-51.5 -102.5q0 -58 46 -98t142 -40q93 0 138.5 40t45.5 98q0 67 -51.5 102.5t-134.5 35.5z" />
    <glyph glyph-name="nine.tf" 
d="M499 339q0 5 -0.5 16t-0.5 16q-20 -33 -44.5 -61.5t-75 -56t-107.5 -27.5q-102 0 -161 60t-59 167q0 104 64 170.5t161 66.5q126 0 196.5 -95t70.5 -256q0 -158 -71 -253.5t-197 -95.5q-65 0 -118 20.5t-83 47.5l18 37q72 -65 179 -65q108 0 168 84.5t60 224.5zM277 265
q44 0 82.5 17t65 44.5t42.5 49t26 42.5q-15 106 -71.5 168t-143.5 62q-78 0 -131 -55.5t-53 -139.5q0 -90 50.5 -139t132.5 -49z" />
    <glyph glyph-name="Euro.tf" 
d="M547 613l-17 -36q-79 71 -172 71q-88 0 -145 -60.5t-70 -177.5h308l-15 -33h-296q-1 -12 -1 -38q0 -30 1 -44h259l-15 -33h-241q15 -113 71 -171.5t143 -58.5q97 0 177 63l18 -37q-85 -68 -197 -68q-104 0 -172.5 70.5t-84.5 201.5h-55v33h52q-1 14 -1 44q0 7 0.5 19
t0.5 19h-52v33h54q15 135 84 207.5t174 72.5q106 0 192 -77z" />
    <glyph glyph-name="cent.tf" 
d="M58 262q0 119 78 197t199 78q26 0 56 -5l29 103l31 -8l-29 -103q61 -18 106 -58l-23 -34q-41 38 -94 52l-125 -452q21 -4 50 -4q101 0 169 63l23 -34q-77 -71 -193 -71q-22 0 -60 6l-35 -126l-31 9l34 125q-84 26 -134.5 97t-50.5 165zM103 262q0 -79 41 -138.5
t111 -82.5l125 450q-28 4 -44 4q-103 0 -168 -66t-65 -167z" />
    <glyph glyph-name="sterling.tf" 
d="M451 332h-242q1 -8 5.5 -29t5.5 -28.5t5 -28t4.5 -27.5t2.5 -27t1 -26t-1 -25q16 -9 52 -39t69 -51t59 -21q103 0 101 177h38q2 -102 -31.5 -159.5t-101.5 -57.5q-33 0 -68.5 21t-73 53.5t-51.5 40.5q-23 -115 -105 -115q-39 0 -60 24t-21 63q0 40 27 66t70 26
q37 0 57 -14q3 43 -26 177h-103v33h95q-14 73 -14 131q0 86 49 140t141 54q47 0 90.5 -20t64 -38t35.5 -37l-21 -36q-40 46 -67 62q-42 27 -96 27q-74 0 -113 -44t-39 -115q0 -48 13 -124h249v-33zM138 138q-29 0 -48 -16.5t-19 -44.5q0 -55 49 -55q59 0 70 100
q-24 16 -52 16z" />
    <glyph glyph-name="florin.tf" 
d="M495 332h-173v-377q0 -69 -34 -111t-100 -42q-70 0 -110 49l16 35q38 -43 87 -43q97 0 97 112v377h-170v33h170v205q0 68 34 109t100 41q68 0 110 -49l-15 -36q-39 44 -88 44q-97 0 -97 -111v-203h173v-33z" />
    <glyph glyph-name="yen.tf" 
d="M504 168h-182v-168h-44v168h-182v33h182v81h-182v33h169l-216 361v4h46l205 -348l204 348h48v-4l-218 -361h170v-33h-182v-81h182v-33z" />
    <glyph glyph-name="dollar.tf" 
d="M286 -128v118q-65 1 -126.5 19t-98.5 41l13 42q37 -23 94.5 -41.5t117.5 -18.5v295l-84 20q-72 17 -112 56.5t-40 100.5q0 73 61 125.5t175 58.5v82h32v-81q61 -1 121.5 -17t100.5 -38l-15 -42q-35 21 -93.5 37.5t-113.5 17.5v-283l49 -12q92 -22 138.5 -60.5
t46.5 -105.5q0 -84 -64 -136t-170 -59v-119h-32zM351 312l-33 8v-287q85 6 137 46.5t52 104.5q0 49 -38.5 79.5t-117.5 48.5zM95 506q0 -89 122 -118l69 -17v275q-93 -5 -142 -45t-49 -95z" />
    <glyph glyph-name="zero.denom" horiz-adv-x="361" 
d="M48 156q0 74 33 118t99 44t99.5 -44t33.5 -118t-33.5 -117.5t-99.5 -43.5t-99 43.5t-33 117.5zM78 156q0 -59 24.5 -95t77.5 -36q102 0 102 131q0 132 -102 132q-53 0 -77.5 -36t-24.5 -96z" />
    <glyph glyph-name="one.denom" horiz-adv-x="249" 
d="M25 249l131 63h27v-312h-31v277l-115 -52z" />
    <glyph glyph-name="two.denom" horiz-adv-x="326" 
d="M51 0v26l132 99q57 42 57 91q0 32 -20 52t-59 20q-41 0 -63 -22.5t-23 -59.5l-29 5q1 48 31.5 77.5t84.5 29.5t82 -28t28 -73q0 -62 -68 -111l-104 -78h182v-28h-231z" />
    <glyph glyph-name="three.denom" horiz-adv-x="328" 
d="M84 175h83q33 0 52 17t19 40q0 57 -85 57q-47 0 -96 -22l-8 27q51 24 104 24t84.5 -22t31.5 -61q0 -27 -15.5 -47.5t-43.5 -24.5q70 -13 70 -78q0 -42 -34.5 -66t-92.5 -24q-44 0 -106 22l9 27q45 -21 97 -21q41 0 68.5 18t27.5 48q0 27 -21.5 42.5t-60.5 15.5h-83v28z
" />
    <glyph glyph-name="four.denom" horiz-adv-x="355" 
d="M322 69h-70v-69h-31v69h-191v25l181 218h41v-217h70v-26zM65 95h156v189z" />
    <glyph glyph-name="five.denom" horiz-adv-x="324" 
d="M61 161l-2 2l13 149h197v-27h-171l-7 -98h60q128 0 128 -88q0 -52 -37.5 -78t-92.5 -26t-108 23l9 27q50 -22 98 -22q42 0 71 18.5t29 56.5q0 63 -98 63h-89z" />
    <glyph glyph-name="six.denom" horiz-adv-x="350" 
d="M78 156v-7q42 59 113 59q54 0 84.5 -27.5t30.5 -75.5t-34 -79t-85 -31q-66 0 -103 44t-37 117t37 117.5t103 44.5q62 0 107 -30l-12 -27q-34 28 -91 28q-54 0 -83.5 -36t-29.5 -97zM187 181q-67 0 -106 -61q8 -44 35.5 -70t70.5 -26q38 0 63.5 23t25.5 58
q0 37 -24.5 56.5t-64.5 19.5z" />
    <glyph glyph-name="seven.denom" horiz-adv-x="278" 
d="M78 3l141 282h-189v27h223v-25l-142 -287h-33v3z" />
    <glyph glyph-name="eight.denom" horiz-adv-x="348" 
d="M174 -5q-57 0 -91.5 24t-34.5 66q0 32 21.5 52.5t59.5 25.5q-32 4 -51.5 25t-19.5 47q0 39 31.5 61t84.5 22t84.5 -22t31.5 -61q0 -26 -19.5 -47t-51.5 -25q38 -5 60 -25.5t22 -52.5q0 -42 -34.5 -66t-92.5 -24zM175 150q-48 0 -72 -16.5t-24 -44.5q0 -30 27 -48t68 -18
q42 0 69 18t27 48q0 28 -24 44.5t-71 16.5zM174 290q-38 0 -61.5 -15t-23.5 -43q0 -24 21.5 -41t64.5 -17q42 0 63 17t21 41q0 28 -23 43t-62 15z" />
    <glyph glyph-name="nine.denom" horiz-adv-x="351" 
d="M272 156v7q-41 -58 -113 -58q-54 0 -84.5 27t-30.5 76q0 48 34 79t86 31q65 0 102 -44t37 -118q0 -73 -37 -117t-103 -44q-63 0 -106 30l11 26q40 -28 92 -28q53 0 82.5 36.5t29.5 96.5zM163 132q64 0 106 59q-8 45 -35 71t-70 26q-38 0 -63.5 -23t-25.5 -57
q0 -38 24 -57t64 -19z" />
    <glyph glyph-name="zero.num" horiz-adv-x="361" 
d="M48 524q0 74 33 117.5t99 43.5t99.5 -43.5t33.5 -117.5t-33.5 -118t-99.5 -44t-99 44t-33 118zM78 524q0 -60 24.5 -96t77.5 -36q102 0 102 132q0 60 -24.5 96t-77.5 36q-52 0 -77 -36.5t-25 -95.5z" />
    <glyph glyph-name="one.num" horiz-adv-x="250" 
d="M25 616l132 63h27v-312h-31v278l-115 -54z" />
    <glyph glyph-name="two.num" horiz-adv-x="325" 
d="M50 367v26l132 100q58 43 58 90q0 32 -20.5 52.5t-58.5 20.5q-41 0 -63.5 -22.5t-23.5 -59.5l-29 4q1 48 31.5 77.5t84.5 29.5t82 -28t28 -72q0 -61 -67 -112l-105 -78h182v-28h-231z" />
    <glyph glyph-name="three.num" horiz-adv-x="327" 
d="M82 542h83q33 0 52 17.5t19 40.5q0 56 -85 56q-50 0 -96 -22l-8 28q51 23 104 23q54 0 85 -22t31 -61q0 -27 -15.5 -47.5t-43.5 -24.5q70 -12 70 -78q0 -41 -35 -65.5t-92 -24.5q-46 0 -105 22l8 27q46 -20 97 -20q41 0 68.5 17.5t27.5 47.5q0 27 -21.5 43t-60.5 16h-83
v27z" />
    <glyph glyph-name="four.num" horiz-adv-x="353" 
d="M321 436h-70v-69h-31v69h-191v24l181 219h41v-217h70v-26zM64 462h156v189z" />
    <glyph glyph-name="five.num" horiz-adv-x="325" 
d="M60 528l-1 1l13 150h196v-28h-170l-8 -97h61q128 0 128 -88q0 -52 -37 -78t-93 -26q-58 0 -108 22l9 28q44 -22 97 -22q42 0 71.5 18.5t29.5 56.5q0 63 -98 63h-90z" />
    <glyph glyph-name="six.num" horiz-adv-x="351" 
d="M78 524v-8q42 59 113 59q54 0 84.5 -27t30.5 -76q0 -48 -34 -79t-85 -31q-66 0 -103 44.5t-37 117.5t37 117t103 44q62 0 107 -30l-12 -26q-37 28 -91 28t-83.5 -36.5t-29.5 -96.5zM187 548q-67 0 -106 -61q8 -44 35.5 -69.5t70.5 -25.5q38 0 63.5 23t25.5 57
q0 38 -24.5 57t-64.5 19z" />
    <glyph glyph-name="seven.num" horiz-adv-x="280" 
d="M80 370l139 281h-187v28h221v-25l-139 -287h-34v3z" />
    <glyph glyph-name="eight.num" horiz-adv-x="348" 
d="M174 362q-57 0 -91.5 24.5t-34.5 65.5q0 66 81 79q-31 4 -50.5 24.5t-19.5 46.5q0 39 31 61t84 22q54 0 85 -22t31 -61q0 -26 -19.5 -46.5t-50.5 -24.5q38 -6 59.5 -26.5t21.5 -52.5q0 -41 -35 -65.5t-92 -24.5zM175 517q-95 0 -95 -61q0 -30 26.5 -48.5t67.5 -18.5
t68 18.5t27 48.5q0 61 -94 61zM174 658q-37 0 -60.5 -15t-23.5 -43q0 -24 21 -41.5t64 -17.5q42 0 62.5 17.5t20.5 41.5q0 28 -23 43t-61 15z" />
    <glyph glyph-name="nine.num" horiz-adv-x="351" 
d="M272 524v6q-41 -58 -113 -58q-54 0 -84.5 27.5t-30.5 75.5t34 79t86 31q65 0 102 -43.5t37 -117.5q0 -73 -37 -117.5t-103 -44.5q-63 0 -106 30l11 27q34 -28 91 -28q54 0 83.5 36t29.5 97zM163 499q66 0 106 60q-9 44 -36 70.5t-69 26.5q-38 0 -63.5 -23t-25.5 -58
q0 -37 24 -56.5t64 -19.5z" />
    <glyph glyph-name="parenleft.case" horiz-adv-x="288" 
d="M242 776q-29 -37 -55 -87t-51.5 -146.5t-25.5 -201.5q0 -149 41.5 -260t90.5 -175l-30 -19q-29 34 -58 86t-57.5 154.5t-28.5 213.5q0 112 28.5 214t57.5 154t58 86z" />
    <glyph glyph-name="parenright.case" horiz-adv-x="288" 
d="M46 776l30 19q29 -34 58 -86t57.5 -154t28.5 -214q0 -111 -28.5 -213.5t-57.5 -154.5t-58 -86l-30 19q49 64 90.5 175t41.5 260q0 105 -25.5 201.5t-51.5 146.5t-55 87z" />
    <glyph glyph-name="hyphen.case" horiz-adv-x="541" 
d="M90 362h361v-39h-361v39z" />
    <glyph glyph-name="bracketleft.case" horiz-adv-x="339" 
d="M291 -108h-186v898h186v-38h-148v-821h148v-39z" />
    <glyph glyph-name="bracketright.case" horiz-adv-x="339" 
d="M49 790h185v-898h-185v39h147v821h-147v38z" />
    <glyph glyph-name="braceleft.case" horiz-adv-x="299" 
d="M239 790v-36h-29q-38 0 -61 -21t-23 -55q0 -30 33.5 -117.5t33.5 -133.5q0 -39 -16.5 -59.5t-55.5 -28.5q39 -8 55.5 -29t16.5 -63q0 -44 -33.5 -131.5t-33.5 -117.5q0 -34 23 -55.5t61 -21.5h29v-35h-33q-60 0 -89 30.5t-29 75.5q0 35 33.5 121.5t33.5 133.5
q0 76 -95 76v32q95 0 95 76q0 46 -33.5 132.5t-33.5 121.5q0 44 29 74.5t89 30.5h33z" />
    <glyph glyph-name="bar.case" horiz-adv-x="248" 
d="M105 -108v898h38v-898h-38z" />
    <glyph glyph-name="braceright.case" horiz-adv-x="299" 
d="M60 790h33q60 0 89 -30.5t29 -74.5q0 -35 -33.5 -121.5t-33.5 -132.5q0 -76 95 -76v-32q-95 0 -95 -76q0 -47 33.5 -133.5t33.5 -121.5q0 -45 -29 -75.5t-89 -30.5h-33v35h29q38 0 61 21.5t23 55.5q0 30 -33.5 117.5t-33.5 131.5q0 42 16.5 63t55.5 29q-39 8 -55.5 28.5
t-16.5 59.5q0 46 33.5 133.5t33.5 117.5q0 34 -23 55t-61 21h-29v36z" />
    <glyph glyph-name="guilsinglleft.case" horiz-adv-x="319" 
d="M67 337v12l158 196h5l16 -18l-138 -184l138 -184l-16 -18h-5z" />
    <glyph glyph-name="guilsinglright.case" horiz-adv-x="319" 
d="M252 349v-12l-158 -196h-5l-15 18l137 184l-138 183l16 19h5z" />
    <glyph glyph-name="guillemotleft.case" horiz-adv-x="516" 
d="M67 337v12l158 196h5l16 -18l-138 -184l138 -184l-16 -18h-5zM264 337v12l158 196h5l16 -18l-138 -184l138 -184l-16 -18h-5z" />
    <glyph glyph-name="guillemotright.case" horiz-adv-x="516" 
d="M252 349v-12l-158 -196h-5l-15 18l137 184l-138 183l16 19h5zM449 349v-12l-158 -196h-5l-15 18l137 184l-138 183l16 19h5z" />
    <glyph glyph-name="endash.case" horiz-adv-x="632" 
d="M90 362h453v-39h-453v39z" />
    <glyph glyph-name="emdash.case" horiz-adv-x="859" 
d="M90 362h679v-39h-679v39z" />
    <glyph glyph-name="bullet.case" horiz-adv-x="362" 
d="M110 342q0 37 18 56.5t51 19.5q35 0 54 -19.5t19 -56.5q0 -77 -73 -77q-69 0 -69 77z" />
    <glyph glyph-name="periodcentered.case" horiz-adv-x="264" 
d="M89 339q0 46 42 46q45 0 45 -46q0 -47 -45 -47q-42 0 -42 47z" />
    <glyph glyph-name="a.alt" horiz-adv-x="659" 
d="M68 262q0 120 71 195t188 75q108 0 185 -79v70h44v-523h-44v69q-77 -79 -185 -79q-117 0 -188 76t-71 196zM113 262q0 -103 61 -167.5t161 -64.5q54 0 101.5 23.5t75.5 56.5v300q-30 34 -77 58t-100 24q-100 0 -161 -64t-61 -166z" />
    <glyph glyph-name="agrave.alt" horiz-adv-x="659" 
d="M68 262q0 120 71 195t188 75q108 0 185 -79v70h44v-523h-44v69q-77 -79 -185 -79q-117 0 -188 76t-71 196zM113 262q0 -103 61 -167.5t161 -64.5q54 0 101.5 23.5t75.5 56.5v300q-30 34 -77 58t-100 24q-100 0 -161 -64t-61 -166zM330 609l-87 132h48l82 -132h-43z" />
    <glyph glyph-name="aacute.alt" horiz-adv-x="659" 
d="M68 262q0 120 71 195t188 75q108 0 185 -79v70h44v-523h-44v69q-77 -79 -185 -79q-117 0 -188 76t-71 196zM113 262q0 -103 61 -167.5t161 -64.5q54 0 101.5 23.5t75.5 56.5v300q-30 34 -77 58t-100 24q-100 0 -161 -64t-61 -166zM453 741l-87 -132h-43l82 132h48z" />
    <glyph glyph-name="acircumflex.alt" horiz-adv-x="659" 
d="M68 262q0 120 71 195t188 75q108 0 185 -79v70h44v-523h-44v69q-77 -79 -185 -79q-117 0 -188 76t-71 196zM113 262q0 -103 61 -167.5t161 -64.5q54 0 101.5 23.5t75.5 56.5v300q-30 34 -77 58t-100 24q-100 0 -161 -64t-61 -166zM433 609l-93 105l-91 -105h-43l111 132
h47l111 -132h-42z" />
    <glyph glyph-name="atilde.alt" horiz-adv-x="659" 
d="M68 262q0 120 71 195t188 75q108 0 185 -79v70h44v-523h-44v69q-77 -79 -185 -79q-117 0 -188 76t-71 196zM113 262q0 -103 61 -167.5t161 -64.5q54 0 101.5 23.5t75.5 56.5v300q-30 34 -77 58t-100 24q-100 0 -161 -64t-61 -166zM201 635l-20 22q34 64 91 64
q27 0 74.5 -35.5t65.5 -35.5q44 0 70 52l20 -22q-35 -65 -90 -65q-26 0 -74 35.5t-66 35.5q-44 0 -71 -51z" />
    <glyph glyph-name="adieresis.alt" horiz-adv-x="659" 
d="M68 262q0 120 71 195t188 75q108 0 185 -79v70h44v-523h-44v69q-77 -79 -185 -79q-117 0 -188 76t-71 196zM113 262q0 -103 61 -167.5t161 -64.5q54 0 101.5 23.5t75.5 56.5v300q-30 34 -77 58t-100 24q-100 0 -161 -64t-61 -166zM195 672q0 34 33 34q31 0 31 -34
t-31 -34q-33 0 -33 34zM443 672q0 34 33 34q31 0 31 -34t-31 -34q-33 0 -33 34z" />
    <glyph glyph-name="amacron.alt" horiz-adv-x="659" 
d="M68 262q0 120 71 195t188 75q108 0 185 -79v70h44v-523h-44v69q-77 -79 -185 -79q-117 0 -188 76t-71 196zM113 262q0 -103 61 -167.5t161 -64.5q54 0 101.5 23.5t75.5 56.5v300q-30 34 -77 58t-100 24q-100 0 -161 -64t-61 -166zM464 644h-235v36h235v-36z" />
    <glyph glyph-name="abreve.alt" horiz-adv-x="659" 
d="M68 262q0 120 71 195t188 75q108 0 185 -79v70h44v-523h-44v69q-77 -79 -185 -79q-117 0 -188 76t-71 196zM113 262q0 -103 61 -167.5t161 -64.5q54 0 101.5 23.5t75.5 56.5v300q-30 34 -77 58t-100 24q-100 0 -161 -64t-61 -166zM223 693l19 20q40 -58 108 -58
q72 0 106 58l20 -20q-42 -73 -126 -73t-127 73z" />
    <glyph glyph-name="aring.alt" horiz-adv-x="659" 
d="M68 262q0 120 71 195t188 75q108 0 185 -79v70h44v-523h-44v69q-77 -79 -185 -79q-117 0 -188 76t-71 196zM113 262q0 -103 61 -167.5t161 -64.5q54 0 101.5 23.5t75.5 56.5v300q-30 34 -77 58t-100 24q-100 0 -161 -64t-61 -166zM251 670q0 40 28.5 69t69.5 29t69.5 -29
t28.5 -69t-28.5 -69t-69.5 -29t-69.5 29t-28.5 69zM278 670q0 -29 21 -50t50 -21t49.5 21t20.5 50t-20.5 49.5t-49.5 20.5t-50 -20.5t-21 -49.5z" />
    <glyph glyph-name="aringacute.alt" horiz-adv-x="659" 
d="M408 829l-46 -70h-38l44 70h40zM248 658q0 39 27.5 59t70.5 20t70.5 -20t27.5 -59t-27.5 -59t-70.5 -20t-70.5 20t-27.5 59zM276 658q0 -53 70 -53q71 0 71 53q0 52 -71 52q-70 0 -70 -52zM68 262q0 120 71 195t188 75q108 0 185 -79v70h44v-523h-44v69q-77 -79 -185 -79
q-117 0 -188 76t-71 196zM113 262q0 -103 61 -167.5t161 -64.5q54 0 101.5 23.5t75.5 56.5v300q-30 34 -77 58t-100 24q-100 0 -161 -64t-61 -166z" />
    <glyph glyph-name="aogonek.alt" horiz-adv-x="659" 
d="M68 262q0 120 71 195t188 75q108 0 185 -79v70h44v-523h-4q-44 -2 -74 -22.5t-30 -56.5q0 -29 17.5 -45t46.5 -16q31 0 59 16l6 -29q-36 -16 -69 -16q-40 0 -64.5 22.5t-24.5 63.5q0 39 28.5 63.5t64.5 30.5v58q-77 -79 -185 -79q-117 0 -188 76t-71 196zM113 262
q0 -103 61 -167.5t161 -64.5q54 0 101.5 23.5t75.5 56.5v300q-30 34 -77 58t-100 24q-100 0 -161 -64t-61 -166z" />
    <glyph glyph-name="g.alt" horiz-adv-x="637" 
d="M538 523v-466q0 -114 -68.5 -184.5t-166.5 -70.5q-78 0 -124 37.5t-46 101.5q0 56 35 97.5t108 51.5q-98 6 -159 58.5t-61 161.5q0 96 65.5 159t183.5 63q54 0 105.5 -20.5t83.5 -50.5v62h44zM494 122v298q-29 29 -78.5 50.5t-101.5 21.5q-102 0 -158 -52t-56 -130
q0 -99 63.5 -143.5t151.5 -44.5h179zM494 83h-91q-102 0 -164 -35t-62 -107q0 -44 35.5 -71.5t91.5 -27.5q79 0 134.5 59t55.5 146v36z" />
    <glyph glyph-name="y.alt" horiz-adv-x="567" 
d="M20 523h48l222 -475l209 475h46l-237 -542q-43 -98 -79.5 -138.5t-94.5 -40.5q-52 0 -81 28t-29 77q0 69 55.5 97.5t173.5 31.5zM265 -15l6 14q-113 0 -158.5 -18.5t-45.5 -73.5q0 -29 17 -47t50 -18q42 0 69.5 32t61.5 111z" />
    <glyph glyph-name="gcircumflex.alt" horiz-adv-x="652" 
d="M538 523v-466q0 -114 -68.5 -184.5t-166.5 -70.5q-78 0 -124 37.5t-46 101.5q0 56 35 97.5t108 51.5q-98 6 -159 58.5t-61 161.5q0 96 65.5 159t183.5 63q54 0 105.5 -20.5t83.5 -50.5v62h44zM494 122v298q-29 29 -78.5 50.5t-101.5 21.5q-102 0 -158 -52t-56 -130
q0 -99 63.5 -143.5t151.5 -44.5h179zM494 83h-91q-102 0 -164 -35t-62 -107q0 -44 35.5 -71.5t91.5 -27.5q79 0 134.5 59t55.5 146v36zM425 609l-93 105l-91 -105h-43l111 132h47l111 -132h-42z" />
    <glyph glyph-name="gbreve.alt" horiz-adv-x="652" 
d="M211 693l19 20q40 -58 108 -58q72 0 106 58l20 -20q-42 -73 -126 -73t-127 73zM538 523v-466q0 -114 -68.5 -184.5t-166.5 -70.5q-78 0 -124 37.5t-46 101.5q0 56 35 97.5t108 51.5q-98 6 -159 58.5t-61 161.5q0 96 65.5 159t183.5 63q54 0 105.5 -20.5t83.5 -50.5v62h44
zM494 122v298q-29 29 -78.5 50.5t-101.5 21.5q-102 0 -158 -52t-56 -130q0 -99 63.5 -143.5t151.5 -44.5h179zM494 83h-91q-102 0 -164 -35t-62 -107q0 -44 35.5 -71.5t91.5 -27.5q79 0 134.5 59t55.5 146v36z" />
    <glyph glyph-name="gdotaccent.alt" horiz-adv-x="652" 
d="M538 523v-466q0 -114 -68.5 -184.5t-166.5 -70.5q-78 0 -124 37.5t-46 101.5q0 56 35 97.5t108 51.5q-98 6 -159 58.5t-61 161.5q0 96 65.5 159t183.5 63q54 0 105.5 -20.5t83.5 -50.5v62h44zM494 122v298q-29 29 -78.5 50.5t-101.5 21.5q-102 0 -158 -52t-56 -130
q0 -99 63.5 -143.5t151.5 -44.5h179zM494 83h-91q-102 0 -164 -35t-62 -107q0 -44 35.5 -71.5t91.5 -27.5q79 0 134.5 59t55.5 146v36zM309 673q0 34 34 34q32 0 32 -34q0 -35 -32 -35q-34 0 -34 35z" />
    <glyph glyph-name="gcommaaccent.alt" horiz-adv-x="652" 
d="M538 523v-466q0 -114 -68.5 -184.5t-166.5 -70.5q-78 0 -124 37.5t-46 101.5q0 56 35 97.5t108 51.5q-98 6 -159 58.5t-61 161.5q0 96 65.5 159t183.5 63q54 0 105.5 -20.5t83.5 -50.5v62h44zM494 122v298q-29 29 -78.5 50.5t-101.5 21.5q-102 0 -158 -52t-56 -130
q0 -99 63.5 -143.5t151.5 -44.5h179zM494 83h-91q-102 0 -164 -35t-62 -107q0 -44 35.5 -71.5t91.5 -27.5q79 0 134.5 59t55.5 146v36zM357 763l-22 -72q23 -1 35 -11.5t12 -26.5q0 -43 -41 -43q-22 0 -33.5 12.5t-11.5 32.5q0 63 34 118z" />
    <glyph glyph-name="yacute.alt" horiz-adv-x="609" 
d="M414 741l-87 -132h-43l82 132h48zM20 523h48l222 -475l209 475h46l-237 -542q-43 -98 -79.5 -138.5t-94.5 -40.5q-52 0 -81 28t-29 77q0 69 55.5 97.5t173.5 31.5zM265 -15l6 14q-113 0 -158.5 -18.5t-45.5 -73.5q0 -29 17 -47t50 -18q42 0 69.5 32t61.5 111z" />
    <glyph glyph-name="ycircumflex.alt" horiz-adv-x="609" 
d="M20 523h48l222 -475l209 475h46l-237 -542q-43 -98 -79.5 -138.5t-94.5 -40.5q-52 0 -81 28t-29 77q0 69 55.5 97.5t173.5 31.5zM265 -15l6 14q-113 0 -158.5 -18.5t-45.5 -73.5q0 -29 17 -47t50 -18q42 0 69.5 32t61.5 111zM402 609l-93 105l-91 -105h-43l111 132h47
l111 -132h-42z" />
    <glyph glyph-name="ydieresis.alt" horiz-adv-x="609" 
d="M20 523h48l222 -475l209 475h46l-237 -542q-43 -98 -79.5 -138.5t-94.5 -40.5q-52 0 -81 28t-29 77q0 69 55.5 97.5t173.5 31.5zM265 -15l6 14q-113 0 -158.5 -18.5t-45.5 -73.5q0 -29 17 -47t50 -18q42 0 69.5 32t61.5 111zM156 672q0 34 33 34q31 0 31 -34t-31 -34
q-33 0 -33 34zM404 672q0 34 33 34q31 0 31 -34t-31 -34q-33 0 -33 34z" />
    <glyph glyph-name="ygrave.alt" horiz-adv-x="609" 
d="M302 609l-87 132h48l82 -132h-43zM20 523h48l222 -475l209 475h46l-237 -542q-43 -98 -79.5 -138.5t-94.5 -40.5q-52 0 -81 28t-29 77q0 69 55.5 97.5t173.5 31.5zM265 -15l6 14q-113 0 -158.5 -18.5t-45.5 -73.5q0 -29 17 -47t50 -18q42 0 69.5 32t61.5 111z" />
    </font>
</defs>
</svg>
