<?xml version="1.0" standalone="no"?>
<!DOCTYPE svg PUBLIC "-//W3C//DTD SVG 1.1//EN" "http://www.w3.org/Graphics/SVG/1.1/DTD/svg11.dtd" >
<svg>
<metadata>
Created by FontForge 20110222 at Fri Jun  6 02:50:10 2014
 By deploy user
Copyright (c) 2012 by Hannes von Doehren. All rights reserved.
</metadata>
<defs>
<font id="PlutoSansHeavy" horiz-adv-x="676" >
  <font-face 
    font-family="Pluto Sans Heavy"
    font-weight="800"
    font-stretch="normal"
    units-per-em="1000"
    panose-1="2 0 0 0 0 0 0 0 0 0"
    ascent="750"
    descent="-250"
    x-height="523"
    cap-height="680"
    bbox="-164 -303 1317 914"
    underline-thickness="50"
    underline-position="0"
    unicode-range="U+0020-FB02"
  />
<missing-glyph horiz-adv-x="612" 
d="M50 720h512v-720h-512v720zM266 283h48q0 26 14 47t34 36t40 29.5t34 36t14 48.5q0 51 -36.5 85t-101.5 34q-39 0 -67 -14.5t-41.5 -37t-19 -43.5t-5.5 -41h47q0 40 21 66.5t65 26.5q41 0 64 -21.5t23 -54.5q0 -23 -21 -45t-45.5 -38t-45.5 -46t-21 -68zM255 194v-71h68
v71h-68z" />
    <glyph glyph-name=".notdef" horiz-adv-x="612" 
d="M50 720h512v-720h-512v720zM266 283h48q0 26 14 47t34 36t40 29.5t34 36t14 48.5q0 51 -36.5 85t-101.5 34q-39 0 -67 -14.5t-41.5 -37t-19 -43.5t-5.5 -41h47q0 40 21 66.5t65 26.5q41 0 64 -21.5t23 -54.5q0 -23 -21 -45t-45.5 -38t-45.5 -46t-21 -68zM255 194v-71h68
v71h-68z" />
    <glyph glyph-name=".null" horiz-adv-x="0" 
 />
    <glyph glyph-name=".null" horiz-adv-x="0" 
 />
    <glyph glyph-name="nonmarkingreturn" horiz-adv-x="333" 
 />
    <glyph glyph-name="space" unicode=" " horiz-adv-x="240" 
 />
    <glyph glyph-name="exclam" unicode="!" horiz-adv-x="317" 
d="M98 250l-36 430h192l-37 -430h-119zM49 90q0 50 29 78t81 28t81 -28t29 -78t-29 -77t-81 -27q-53 0 -81.5 27t-28.5 77z" />
    <glyph glyph-name="quotedbl" unicode="&#x22;" horiz-adv-x="496" 
d="M208 680l-9 -264h-132l-8 264h149zM437 680l-8 -264h-132l-9 264h149z" />
    <glyph glyph-name="numbersign" unicode="#" horiz-adv-x="699" 
d="M339 14l34 133h-150l-37 -147h-108v14l34 133h-75v108h102l41 160h-81v108h109l40 157h106v-13l-37 -144h152l40 157h105v-13l-37 -144h87v-108h-114l-40 -160h92v-108h-119l-37 -147h-107v14zM290 415l-40 -160h150l41 160h-151z" />
    <glyph glyph-name="dollar" unicode="$" horiz-adv-x="618" 
d="M278 -129v119q-66 3 -130 20.5t-101 38.5l45 167q90 -59 186 -66v114l-82 23q-81 23 -120 67.5t-39 116.5q0 87 63 146.5t178 69.5v83h61v-81q136 -5 228 -54l-53 -165q-78 49 -175 59v-108l58 -17q95 -29 138.5 -74.5t43.5 -114.5q0 -91 -64.5 -152t-175.5 -71v-121h-61
zM231 483q0 -16 10.5 -25.5t36.5 -17.5v87q-47 -10 -47 -44zM383 203q0 27 -44 43v-92q44 12 44 49z" />
    <glyph glyph-name="percent" unicode="%" horiz-adv-x="928" 
d="M509 178q0 82 55 136t138 54q84 0 139.5 -54t55.5 -136q0 -81 -55.5 -134.5t-139.5 -53.5q-83 0 -138 53.5t-55 134.5zM632 178q0 -30 20 -51t50 -21q31 0 50.5 21t19.5 51q0 31 -19.5 52t-50.5 21q-30 0 -50 -21.5t-20 -51.5zM225 14l363 666h108v-13l-361 -667h-110v14
zM32 500q0 81 55 135.5t138 54.5q84 0 139.5 -54.5t55.5 -135.5t-55.5 -134.5t-139.5 -53.5q-83 0 -138 53.5t-55 134.5zM155 500q0 -30 20 -51t50 -21q31 0 50.5 21t19.5 51q0 31 -19.5 52t-50.5 21q-30 0 -50 -21.5t-20 -51.5z" />
    <glyph glyph-name="ampersand" unicode="&#x26;" horiz-adv-x="801" 
d="M652 397l136 -104q-62 -96 -129 -157l128 -115v-28h-209l-52 50q-109 -53 -231 -53q-114 0 -180 54t-66 145q0 63 37 105t111 71q-35 37 -52.5 70.5t-17.5 77.5q0 78 59.5 127.5t180.5 49.5q114 0 178 -46.5t64 -126.5q0 -131 -163 -191l90 -80q72 69 116 151zM331 145
q37 0 75 15l-115 112q-46 -25 -46 -57q0 -30 22.5 -50t63.5 -20zM308 482q0 -30 42 -70l5 2q74 24 74 69q0 19 -15.5 32t-46.5 13q-29 0 -44 -13t-15 -33z" />
    <glyph glyph-name="quotesingle" unicode="'" horiz-adv-x="267" 
d="M208 680l-9 -264h-132l-8 264h149z" />
    <glyph glyph-name="parenleft" unicode="(" horiz-adv-x="338" 
d="M312 658q-46 -72 -77 -175t-31 -222q0 -118 31.5 -221t76.5 -174l-107 -59q-62 56 -115 178t-53 277t53 277t115 178z" />
    <glyph glyph-name="parenright" unicode=")" horiz-adv-x="338" 
d="M27 658l106 59q62 -56 115 -178t53 -277t-53 -277t-115 -178l-106 59q45 71 76 174t31 221q0 119 -31 222t-76 175z" />
    <glyph glyph-name="asterisk" unicode="*" horiz-adv-x="547" 
d="M90 324l77 102l-117 26l39 144l121 -49l-11 133h149l-11 -134l121 50l38 -144l-119 -28l79 -99l-112 -80l-71 115l-71 -114z" />
    <glyph glyph-name="plus" unicode="+" horiz-adv-x="571" 
d="M360 550v-173h172v-149h-172v-172h-149v172h-172v149h172v173h149z" />
    <glyph glyph-name="comma" unicode="," horiz-adv-x="312" 
d="M68 -132l42 122q-62 20 -62 99q0 51 28 80t79 29t79.5 -29t28.5 -80q0 -60 -27 -132.5t-62 -130.5z" />
    <glyph glyph-name="hyphen" unicode="-" horiz-adv-x="542" 
d="M61 377h420v-149h-420v149z" />
    <glyph glyph-name="period" unicode="." horiz-adv-x="315" 
d="M48 90q0 50 28.5 78t80.5 28t81 -28t29 -78t-29 -77t-81 -27q-53 0 -81 27t-28 77z" />
    <glyph glyph-name="slash" unicode="/" horiz-adv-x="520" 
d="M24 14l363 666h108v-13l-361 -667h-110v14z" />
    <glyph glyph-name="zero" unicode="0" horiz-adv-x="704" 
d="M46 339q0 166 78.5 258.5t226.5 92.5q149 0 228 -92.5t79 -258.5q0 -164 -79 -256.5t-228 -92.5q-147 0 -226 92.5t-79 256.5zM232 339q0 -174 119 -174q120 0 120 174q0 176 -120 176q-119 0 -119 -176z" />
    <glyph glyph-name="one" unicode="1" horiz-adv-x="520" 
d="M3 506l297 174h139v-680h-192v462l-171 -99z" />
    <glyph glyph-name="two" unicode="2" horiz-adv-x="651" 
d="M339 166h263v-166h-540v142l249 185q79 59 79 119q0 29 -20 49t-55 20q-102 0 -102 -111l-174 34q3 117 76.5 184.5t202.5 67.5q131 0 200 -64t69 -163q0 -65 -32 -119t-110 -106z" />
    <glyph glyph-name="three" unicode="3" horiz-adv-x="622" 
d="M128 274v146h145q42 0 64 15.5t22 41.5q0 50 -100 50q-80 0 -179 -36l-42 163q37 13 104.5 24.5t124.5 11.5q286 0 286 -194q0 -50 -28.5 -88t-79.5 -53q132 -38 132 -168q0 -91 -78 -144t-232 -53q-112 0 -226 39l46 158q85 -35 180 -35q53 0 83 17.5t30 47.5
q0 57 -107 57h-145z" />
    <glyph glyph-name="four" unicode="4" horiz-adv-x="694" 
d="M656 113h-100v-107h-189v107h-342v125l277 436l65 -1v1h189v-416h100v-145zM216 258h151v238z" />
    <glyph glyph-name="five" unicode="5" horiz-adv-x="619" 
d="M77 285l-7 7l33 388h447v-166h-286l-7 -90h28q287 0 287 -196q0 -118 -79.5 -178t-222.5 -60q-121 0 -237 42l48 157q84 -37 179 -37q54 0 85 18.5t31 53.5q0 61 -103 61h-196z" />
    <glyph glyph-name="six" unicode="6" horiz-adv-x="682" 
d="M389 528q-69 0 -103 -32t-43 -93q65 44 149 44q121 0 184.5 -55t63.5 -156q0 -112 -77 -179t-199 -67q-151 0 -234.5 95t-83.5 256q0 160 83.5 254.5t236.5 94.5q130 0 241 -45l-49 -156q-83 39 -169 39zM361 303q-54 0 -116 -34q22 -104 119 -104q40 0 62.5 20.5
t22.5 50.5q0 67 -88 67z" />
    <glyph glyph-name="seven" unicode="7" horiz-adv-x="575" 
d="M87 18l252 496h-309v166h524v-132l-257 -548h-210v18z" />
    <glyph glyph-name="eight" unicode="8" horiz-adv-x="691" 
d="M345 -10q-148 0 -224 53t-76 144q0 135 136 168q-53 13 -83 52t-30 89q0 194 277 194t277 -194q0 -50 -30 -89t-82 -52q136 -33 136 -168q0 -91 -76 -144t-225 -53zM346 283q-52 0 -79 -19.5t-27 -48.5q0 -30 27.5 -50t77.5 -20t78 20t28 50q0 29 -26.5 48.5t-78.5 19.5z
M345 538q-42 0 -64 -15.5t-22 -43.5q0 -58 87 -58q85 0 85 58q0 28 -22 43.5t-64 15.5z" />
    <glyph glyph-name="nine" unicode="9" horiz-adv-x="681" 
d="M124 191q83 -39 168 -39q69 0 103 32t44 92q-65 -43 -149 -43q-122 0 -185.5 55t-63.5 156q0 112 77 179t200 67q151 0 234 -95t83 -256q0 -160 -83.5 -254.5t-235.5 -94.5q-131 0 -242 45zM320 377q56 0 116 33q-22 105 -118 105q-41 0 -63 -20.5t-22 -50.5
q0 -67 87 -67z" />
    <glyph glyph-name="colon" unicode=":" horiz-adv-x="332" 
d="M59 434q0 49 27.5 75.5t78.5 26.5q50 0 78.5 -26.5t28.5 -75.5q0 -48 -28 -74.5t-79 -26.5t-78.5 26t-27.5 75zM59 86q0 49 27.5 75.5t78.5 26.5q50 0 78.5 -26.5t28.5 -75.5q0 -48 -28 -74.5t-79 -26.5t-78.5 26t-27.5 75z" />
    <glyph glyph-name="semicolon" unicode=";" horiz-adv-x="332" 
d="M84 -128l40 117q-60 20 -60 96q0 49 27 76.5t76 27.5t77 -28t28 -76q0 -110 -86 -253zM56 434q0 49 27.5 75.5t78.5 26.5q50 0 78.5 -26.5t28.5 -75.5q0 -48 -28 -74.5t-79 -26.5t-78.5 26t-27.5 75z" />
    <glyph glyph-name="less" unicode="&#x3c;" horiz-adv-x="592" 
d="M37 226v146l480 178h13v-143l-343 -105l343 -103v-145h-13z" />
    <glyph glyph-name="equal" unicode="=" horiz-adv-x="624" 
d="M65 239h494v-149h-494v149zM65 515h494v-149h-494v149z" />
    <glyph glyph-name="greater" unicode="&#x3e;" horiz-adv-x="591" 
d="M554 372v-146l-480 -172h-13v145l343 103l-343 105v143h13z" />
    <glyph glyph-name="question" unicode="?" horiz-adv-x="497" 
d="M293 247h-157q-16 42 -16 65q0 51 62 93l52 36q31 21 31 52q0 18 -12.5 28.5t-33.5 10.5q-33 0 -73.5 -15t-65.5 -35l-46 152q95 56 214 56q99 0 155 -50.5t56 -132.5q0 -40 -13.5 -70.5t-28.5 -45.5t-42 -35l-59 -40q-12 -9 -16 -13t-8 -11.5t-4 -18.5q0 -9 5 -26z
M106 90q0 50 28.5 78t80.5 28t81 -28t29 -78t-29 -77t-81 -27q-53 0 -81 27t-28 77z" />
    <glyph glyph-name="at" unicode="@" horiz-adv-x="975" 
d="M731 491v-340q0 -26 7 -36.5t29 -10.5q39 0 69.5 55t30.5 158q0 146 -101.5 237.5t-269.5 91.5q-169 0 -274 -106.5t-105 -276.5q0 -169 105.5 -276.5t273.5 -107.5q100 0 182 40l26 -67q-95 -46 -208 -46q-195 0 -324.5 130.5t-129.5 326.5q0 197 129 326.5t325 129.5
t321 -113.5t125 -286.5q0 -154 -68.5 -231t-194.5 -77q-90 0 -119 63q-49 -62 -137 -62q-94 0 -153.5 68t-59.5 174q0 108 59.5 176.5t153.5 68.5q79 0 124 -50v42h184zM547 194v122q-27 24 -70 24q-37 0 -58 -23t-21 -63q0 -39 21.5 -61.5t57.5 -22.5q40 0 70 24z" />
    <glyph glyph-name="A" unicode="A" horiz-adv-x="733" 
d="M-1 0l255 680h226l253 -680h-194l-41 115h-265l-40 -115h-194zM367 491l-86 -235h170z" />
    <glyph glyph-name="B" unicode="B" horiz-adv-x="727" 
d="M79 0v680h315q244 0 244 -185q0 -97 -92 -140q146 -35 146 -169q0 -87 -66 -136.5t-186 -49.5h-361zM271 147h140q77 0 77 61q0 62 -81 62h-136v-123zM271 418h94q76 0 76 58q0 59 -75 59h-95v-117z" />
    <glyph glyph-name="C" unicode="C" horiz-adv-x="703" 
d="M238 340q0 -73 47 -123t124 -50q90 0 177 66l87 -139q-114 -104 -271 -104q-155 0 -259 100.5t-104 249.5t104 249.5t259 100.5q157 0 271 -104l-87 -139q-87 66 -177 66q-77 0 -124 -50t-47 -123z" />
    <glyph glyph-name="D" unicode="D" horiz-adv-x="789" 
d="M79 0v680h316q156 -1 253.5 -90.5t97.5 -250.5q0 -160 -97.5 -249.5t-253.5 -89.5h-316zM387 514h-116v-348h116q73 0 117 46t44 127q0 83 -44 129t-117 46z" />
    <glyph glyph-name="E" unicode="E" horiz-adv-x="683" 
d="M633 0h-554v680h554v-167h-371v-90h298v-157h-298v-99h371v-167z" />
    <glyph glyph-name="F" unicode="F" horiz-adv-x="643" 
d="M559 208h-297v-208h-183v680h534v-167h-351v-138h297v-167z" />
    <glyph glyph-name="G" unicode="G" horiz-adv-x="749" 
d="M697 402v-315q-49 -39 -134 -68t-161 -29q-156 0 -259 94.5t-103 254.5q0 161 103 256t259 95q153 0 269 -89l-87 -146q-73 58 -177 58q-75 0 -121.5 -46t-46.5 -128q0 -81 48 -126.5t128 -45.5q52 0 108 23v77h-150v135h324z" />
    <glyph glyph-name="H" unicode="H" horiz-adv-x="826" 
d="M555 0v261h-284v-261h-192v680h192v-253h284v253h192v-680h-192z" />
    <glyph glyph-name="I" unicode="I" horiz-adv-x="350" 
d="M79 0v680h192v-680h-192z" />
    <glyph glyph-name="J" unicode="J" horiz-adv-x="640" 
d="M376 680h192v-402q0 -133 -69.5 -210.5t-209.5 -77.5q-260 0 -277 279l189 17q4 -64 22.5 -95t66.5 -31q49 0 67.5 32.5t18.5 98.5v389z" />
    <glyph glyph-name="K" unicode="K" horiz-adv-x="741" 
d="M79 0v680h192v-258h68l181 258h197v-29l-227 -313l236 -318v-20h-214l-177 256h-64v-256h-192z" />
    <glyph glyph-name="L" unicode="L" horiz-adv-x="612" 
d="M597 0h-518v680h192v-514h326v-166z" />
    <glyph glyph-name="M" unicode="M" horiz-adv-x="944" 
d="M673 0v378l-185 -222h-32l-185 222v-378h-192v680h161l232 -269l232 269h161v-680h-192z" />
    <glyph glyph-name="N" unicode="N" horiz-adv-x="825" 
d="M580 0l-309 374v-374h-192v680h166l309 -375v375h192v-680h-166z" />
    <glyph glyph-name="O" unicode="O" horiz-adv-x="780" 
d="M40 339q0 151 100 251t249 100q151 0 251 -100t100 -251q0 -149 -100 -249t-251 -100q-149 0 -249 100t-100 249zM228 339q0 -71 46 -120t116 -49q71 0 116.5 48.5t45.5 120.5q0 73 -45.5 121.5t-116.5 48.5t-116.5 -48.5t-45.5 -121.5z" />
    <glyph glyph-name="P" unicode="P" horiz-adv-x="707" 
d="M79 0v680h350q110 0 181.5 -65.5t71.5 -189.5q0 -115 -73 -183t-180 -68h-158v-174h-192zM398 514h-127v-174h127q37 0 61.5 24t24.5 62q0 39 -24.5 63.5t-61.5 24.5z" />
    <glyph glyph-name="Q" unicode="Q" horiz-adv-x="792" 
d="M787 -9l18 -152q-55 -19 -125 -19q-54 0 -105 22.5t-81.5 49.5t-63.5 58.5t-46 39.5q-148 2 -246 101.5t-98 247.5q0 151 100 251t249 100q151 0 251 -100t100 -251q0 -98 -45.5 -177t-123.5 -124q67 -58 124 -58q61 0 92 11zM228 339q0 -71 45.5 -120t115.5 -49
q72 0 117 48.5t45 120.5q0 73 -45 121.5t-117 48.5q-70 0 -115.5 -48.5t-45.5 -121.5z" />
    <glyph glyph-name="R" unicode="R" horiz-adv-x="741" 
d="M79 0v680h344q116 0 184.5 -58.5t68.5 -169.5q0 -70 -40 -123t-106 -76l184 -212v-41h-198l-192 238h-53v-238h-192zM405 514h-134v-139h134q34 0 53.5 19.5t19.5 49.5t-19.5 50t-53.5 20z" />
    <glyph glyph-name="S" unicode="S" horiz-adv-x="626" 
d="M45 49l45 168q100 -68 212 -68q89 0 89 54q0 33 -62 51l-108 31q-88 25 -130.5 71t-42.5 119q0 94 72 154t204 60q68 0 135 -16t112 -38l-54 -159q-97 54 -201 54q-74 0 -74 -45q0 -16 11.5 -26t38.5 -18l117 -34q94 -28 136 -75t42 -117q0 -100 -79 -162.5t-209 -62.5
q-70 0 -142.5 18.5t-111.5 40.5z" />
    <glyph glyph-name="T" unicode="T" horiz-adv-x="630" 
d="M605 513h-193v-513h-192v513h-195v167h580v-167z" />
    <glyph glyph-name="U" unicode="U" horiz-adv-x="785" 
d="M262 680v-372q0 -67 33.5 -104.5t96.5 -37.5q64 0 98 38t34 105v371h192v-385q0 -129 -87 -217t-237 -88q-152 0 -237 84.5t-85 220.5v385h192z" />
    <glyph glyph-name="V" unicode="V" horiz-adv-x="750" 
d="M253 0l-253 680h211l164 -491l165 491h211l-255 -680h-243z" />
    <glyph glyph-name="W" unicode="W" horiz-adv-x="1110" 
d="M646 0l-89 236l-95 -236h-209l-253 680h208l166 -465l100 249l-76 216h209l141 -432l153 432h210l-255 -680h-210z" />
    <glyph glyph-name="X" unicode="X" horiz-adv-x="748" 
d="M732 680v-13l-224 -328l224 -325v-14h-221l-137 214l-137 -214h-221v14l223 325l-223 328v13h219l139 -217l139 217h219z" />
    <glyph glyph-name="Y" unicode="Y" horiz-adv-x="694" 
d="M251 0v256l-253 411v13h214l135 -248l135 248h214v-13l-253 -410v-257h-192z" />
    <glyph glyph-name="Z" unicode="Z" horiz-adv-x="654" 
d="M51 132l304 382h-304v166h551v-132l-300 -382h300v-166h-551v132z" />
    <glyph glyph-name="bracketleft" unicode="[" horiz-adv-x="372" 
d="M334 -188h-263v898h263v-149h-113v-600h113v-149z" />
    <glyph glyph-name="backslash" unicode="\" horiz-adv-x="520" 
d="M133 680l362 -666v-14h-110l-361 667v13h109z" />
    <glyph glyph-name="bracketright" unicode="]" horiz-adv-x="372" 
d="M38 710h263v-898h-263v149h114v600h-114v149z" />
    <glyph glyph-name="asciicircum" unicode="^" horiz-adv-x="601" 
d="M230 680h140l190 -295v-13h-152l-108 181l-109 -181h-150v13z" />
    <glyph glyph-name="underscore" unicode="_" horiz-adv-x="620" 
d="M60 -31h500v-123h-500v123z" />
    <glyph glyph-name="grave" unicode="`" horiz-adv-x="600" 
d="M283 579l-110 162h188l80 -162h-158z" />
    <glyph glyph-name="a" unicode="a" horiz-adv-x="584" 
d="M106 347l-32 147q103 38 213 38q129 0 183 -56.5t54 -164.5v-311h-187v47q-61 -57 -143 -57q-77 0 -119 41.5t-42 112.5q0 86 64 133t174 47q26 0 66 -4v1q0 31 -16.5 44.5t-52.5 13.5q-75 0 -162 -32zM217 166q0 -49 55 -49q31 0 65 21v81q-17 3 -33 3q-37 0 -62 -14.5
t-25 -41.5z" />
    <glyph glyph-name="b" unicode="b" 
d="M639 262q0 -119 -66.5 -195.5t-171.5 -76.5q-88 0 -142 59v-49h-192v710h192v-235q59 57 142 57q105 0 171.5 -75.5t66.5 -194.5zM443 262q0 48 -27 76t-71 28q-48 0 -86 -30v-151q37 -29 86 -29q45 0 71.5 28.5t26.5 77.5z" />
    <glyph glyph-name="c" unicode="c" horiz-adv-x="560" 
d="M36 262q0 121 77 198t211 77q120 0 210 -71l-83 -142q-50 39 -112 39q-52 0 -80 -28.5t-28 -72.5t28 -73.5t80 -29.5q60 0 112 40l83 -142q-90 -71 -210 -71q-134 0 -211 77.5t-77 198.5z" />
    <glyph glyph-name="d" unicode="d" 
d="M37 262q0 119 66.5 194.5t171.5 75.5q83 0 143 -58v236h192v-710h-192v50q-55 -60 -143 -60q-105 0 -171.5 76.5t-66.5 195.5zM233 262q0 -49 26.5 -77.5t71.5 -28.5q49 0 87 30v150q-38 30 -87 30q-44 0 -71 -28t-27 -76z" />
    <glyph glyph-name="e" unicode="e" horiz-adv-x="592" 
d="M478 180l71 -123q-87 -71 -225 -71q-142 0 -214.5 75t-72.5 199q0 121 76.5 199t201.5 78q114 0 175.5 -62t61.5 -156q0 -62 -11 -99h-319q7 -39 37 -62.5t81 -23.5q34 0 74.5 14t63.5 32zM396 324v9q0 31 -20 49t-59 18q-38 0 -62.5 -21t-29.5 -55h171z" />
    <glyph glyph-name="f" unicode="f" horiz-adv-x="465" 
d="M440 355h-128v-355h-192v355h-87v148h87v24q0 83 48.5 138t142.5 55q74 0 138 -22l-28 -144q-36 17 -68 17q-41 0 -41 -45v-23h128v-148z" />
    <glyph glyph-name="g" unicode="g" horiz-adv-x="675" 
d="M38 280q0 106 67 179t170 73q88 0 142 -59v50h192v-445q0 -133 -81 -204.5t-200 -71.5q-113 0 -220 49l39 140q91 -43 165 -43q105 0 105 89v43q-57 -50 -142 -50q-103 0 -170 72.5t-67 177.5zM233 280q0 -39 26.5 -61.5t71.5 -22.5q49 0 86 31v109q-36 30 -86 30
q-46 0 -72 -23t-26 -63z" />
    <glyph glyph-name="h" unicode="h" 
d="M67 710h192v-244q60 66 158 66q100 0 149 -64t49 -167v-301h-192v268q0 88 -77 88q-57 0 -87 -43v-313h-192v710z" />
    <glyph glyph-name="i" unicode="i" horiz-adv-x="325" 
d="M59 663q0 85 105 85q102 0 102 -85t-102 -85q-105 0 -105 85zM67 0v523h192v-523h-192z" />
    <glyph glyph-name="j" unicode="j" horiz-adv-x="325" 
d="M67 523h192v-456q0 -70 -22.5 -124t-53 -84t-74.5 -56l-115 112q73 53 73 138v470zM60 663q0 85 104 85q103 0 103 -85t-103 -85q-104 0 -104 85z" />
    <glyph glyph-name="k" unicode="k" horiz-adv-x="652" 
d="M622 523v-31l-183 -220l192 -240v-32h-207l-165 225v-225h-192v710h192v-401l159 214h204z" />
    <glyph glyph-name="l" unicode="l" horiz-adv-x="360" 
d="M65 710h192v-514q0 -45 29 -45q21 0 50 12l5 -152q-66 -21 -134 -21q-69 0 -105.5 37t-36.5 121v562z" />
    <glyph glyph-name="m" unicode="m" horiz-adv-x="1026" 
d="M67 523h192v-55q62 65 158 65q114 0 164 -84q71 83 186 83q101 0 149.5 -64t48.5 -167v-301h-192v268q0 88 -76 88q-53 0 -85 -36v-320h-192v269q0 87 -75 87q-59 0 -86 -40v-316h-192v523z" />
    <glyph glyph-name="n" unicode="n" 
d="M67 523h192v-58q59 67 158 67q100 0 149 -64t49 -167v-301h-192v268q0 88 -79 88q-55 0 -85 -43v-313h-192v523z" />
    <glyph glyph-name="o" unicode="o" horiz-adv-x="636" 
d="M35 260q0 119 80.5 198t201.5 79q123 0 203.5 -79t80.5 -198q0 -118 -80.5 -196t-203.5 -78q-121 0 -201.5 78t-80.5 196zM219 260q0 -42 27.5 -71.5t70.5 -29.5q44 0 71.5 29.5t27.5 71.5q0 44 -27.5 73t-71.5 29q-43 0 -70.5 -29.5t-27.5 -72.5z" />
    <glyph glyph-name="p" unicode="p" horiz-adv-x="675" 
d="M638 260q0 -118 -66.5 -194t-171.5 -76q-83 0 -141 56v-234h-192v711h192v-50q54 59 141 59q105 0 171.5 -76t66.5 -196zM442 260q0 49 -26 77.5t-72 28.5q-52 0 -85 -29v-152q35 -29 85 -29q45 0 71.5 28t26.5 76z" />
    <glyph glyph-name="q" unicode="q" horiz-adv-x="675" 
d="M38 260q0 120 66 196t171 76q88 0 142 -59v50h192v-711h-192v235q-59 -57 -142 -57q-105 0 -171 76t-66 194zM233 260q0 -48 26.5 -76t71.5 -28q50 0 86 30v150q-36 30 -86 30q-46 0 -72 -28.5t-26 -77.5z" />
    <glyph glyph-name="r" unicode="r" horiz-adv-x="505" 
d="M67 0v523h192v-87q51 96 145 96q55 0 97 -26l-49 -170q-44 20 -90 20q-39 0 -66.5 -20.5t-36.5 -52.5v-283h-192z" />
    <glyph glyph-name="s" unicode="s" horiz-adv-x="517" 
d="M469 492l-47 -140q-74 40 -142 40q-42 0 -42 -29q0 -11 7 -16t25 -11l78 -23q73 -21 102.5 -59t29.5 -92q0 -76 -63 -124t-166 -48q-117 0 -209 45l38 139q94 -48 155 -48q51 0 51 26q0 20 -42 32l-69 19q-68 18 -98 55t-30 95q0 82 60 130.5t170 48.5q50 0 104.5 -12
t87.5 -28z" />
    <glyph glyph-name="t" unicode="t" horiz-adv-x="525" 
d="M146 656h159v-133h172v-148h-172v-145q0 -40 13 -57t40 -17q43 0 92 34l58 -145q-92 -55 -210 -55q-88 0 -136.5 51.5t-48.5 149.5v184h-85v148h95z" />
    <glyph glyph-name="u" unicode="u" 
d="M609 0h-192v58q-61 -67 -158 -67q-100 0 -149 64t-49 167v301h192v-268q0 -88 76 -88q59 0 88 43v313h192v-523z" />
    <glyph glyph-name="v" unicode="v" horiz-adv-x="636" 
d="M420 523h209l-197 -523h-230l-194 523h209l100 -352z" />
    <glyph glyph-name="w" unicode="w" horiz-adv-x="1020" 
d="M801 523h209l-175 -523h-229l-95 310l-99 -310h-229l-168 523h209l78 -352l99 352h222l92 -352z" />
    <glyph glyph-name="x" unicode="x" horiz-adv-x="628" 
d="M603 523v-13l-156 -250l156 -246v-14h-206l-83 153l-81 -153h-207v14l155 246l-155 250v13h205l83 -156l85 156h204z" />
    <glyph glyph-name="y" unicode="y" horiz-adv-x="619" 
d="M413 522q32 0 96.5 0.5t95.5 0.5l-200 -506q-47 -118 -100 -166.5t-147 -48.5q-68 0 -120 34l26 141q48 -23 88 -23q27 0 41.5 12.5t25.5 37.5l8 16l-229 503h213l98 -314z" />
    <glyph glyph-name="z" unicode="z" horiz-adv-x="534" 
d="M49 132l197 242h-197v149h436v-132l-194 -242h194v-149h-436v132z" />
    <glyph glyph-name="braceleft" unicode="{" horiz-adv-x="377" 
d="M334 710v-132h-43q-25 0 -36.5 -13t-11.5 -32q0 -23 22 -83.5t22 -94.5q0 -81 -91 -97q91 -16 91 -97q0 -34 -22 -94.5t-22 -83.5q0 -19 11.5 -32.5t36.5 -13.5h43v-132h-62q-90 0 -134 34t-44 105q0 38 22 103t22 99q0 32 -25.5 44.5t-84.5 12.5v110q110 0 110 69
q0 32 -22 95.5t-22 101.5q0 131 178 131h62z" />
    <glyph glyph-name="bar" unicode="|" horiz-adv-x="292" 
d="M71 -188v898h150v-898h-150z" />
    <glyph glyph-name="braceright" unicode="}" horiz-adv-x="376" 
d="M43 710h61q179 0 179 -131q0 -38 -22 -101.5t-22 -95.5q0 -36 26 -52.5t84 -16.5v-110q-60 0 -85 -12.5t-25 -44.5q0 -34 22 -99t22 -103q0 -139 -179 -139h-61v132h42q26 0 37.5 13.5t11.5 32.5q0 23 -22 83.5t-22 94.5q0 81 90 97q-90 16 -90 97q0 34 22 94.5t22 83.5
q0 18 -12 31.5t-37 13.5h-42v132z" />
    <glyph glyph-name="asciitilde" unicode="~" horiz-adv-x="538" 
d="M438 386l59 -92q-17 -45 -54.5 -71.5t-81.5 -26.5q-41 0 -95 31t-85 31q-52 0 -83 -53l-56 98q14 38 50.5 65t81.5 27q46 0 101.5 -30.5t79.5 -30.5q49 0 83 52z" />
    <glyph glyph-name="uni00A0" unicode="&#xa0;" horiz-adv-x="240" 
 />
    <glyph glyph-name="exclamdown" unicode="&#xa1;" horiz-adv-x="303" 
d="M211 273l37 -430h-192l36 430h119zM260 432q0 -50 -28.5 -78t-80.5 -28t-81 28t-29 78t29 77.5t81 27.5t80.5 -27.5t28.5 -77.5z" />
    <glyph glyph-name="cent" unicode="&#xa2;" horiz-adv-x="596" 
d="M36 262q0 121 77 198t211 77q16 0 48 -4l30 110l67 -18l-30 -108q51 -17 95 -51l-83 -142q-25 20 -57 30l-55 -195q60 0 112 40l83 -142q-90 -71 -210 -71q-12 0 -32 2l-35 -127l-66 18l33 121q-90 26 -139 96t-49 166zM231 262q0 -58 42 -86l52 186q-45 -4 -69.5 -31.5
t-24.5 -68.5z" />
    <glyph glyph-name="sterling" unicode="&#xa3;" horiz-adv-x="638" 
d="M487 310h-147q11 -88 5 -143q40 -25 58 -25q30 0 40.5 23t7.5 71h142q14 -112 -22.5 -179t-128.5 -67q-35 0 -65 15.5t-73 48.5q-27 -34 -60.5 -49t-86.5 -15q-56 0 -87.5 34t-31.5 87q0 49 30 79t78 30q14 0 41 -6q-1 35 -19 96h-92v70h72q-15 57 -15 111
q0 88 56.5 143.5t168.5 55.5q60 0 124 -20t95 -45l-53 -165q-69 55 -126 55q-72 0 -72 -73q0 -22 5 -62h156v-70zM153 119q-14 0 -22.5 -8t-8.5 -19q0 -24 23 -24q25 0 35 43q-10 8 -27 8z" />
    <glyph glyph-name="currency" unicode="&#xa4;" horiz-adv-x="559" 
d="M81 302q0 44 16 77l-48 48l106 106l53 -53q34 12 66 12q37 0 74 -15l56 56l106 -106l-56 -55q14 -33 14 -70q0 -36 -13 -69l55 -55l-106 -106l-56 56q-34 -14 -74 -14q-36 0 -66 11l-53 -53l-106 106l48 48q-16 32 -16 76zM200 302q0 -31 21 -53t53 -22t52.5 21.5
t20.5 53.5t-20.5 54t-52.5 22t-53 -22.5t-21 -53.5z" />
    <glyph glyph-name="yen" unicode="&#xa5;" horiz-adv-x="636" 
d="M545 115h-134v-115h-192v115h-133v69h133v56h-133v69h109l-160 358v13h197l83 -273l93 273h196v-13l-169 -358h110v-69h-134v-56h134v-69z" />
    <glyph glyph-name="brokenbar" unicode="&#xa6;" horiz-adv-x="296" 
d="M223 375h-149v335h149v-335zM74 159h149v-347h-149v347z" />
    <glyph glyph-name="section" unicode="&#xa7;" horiz-adv-x="626" 
d="M63 -49l43 153q42 -23 102.5 -39t113.5 -16q59 0 59 22q0 20 -56 32l-119 25q-154 33 -154 153q0 71 58 120q-57 37 -57 110q0 80 71 129.5t198 49.5q143 0 241 -43l-50 -149q-43 21 -103 36t-111 15q-61 0 -61 -24q0 -15 38 -24l123 -27q176 -39 176 -157
q0 -75 -62 -125q62 -40 62 -105q0 -81 -72.5 -131.5t-196.5 -50.5q-70 0 -137 14.5t-106 31.5zM338 338l-70 14q-18 -5 -28.5 -19t-10.5 -27q0 -16 9 -25.5t35 -15.5l71 -17q21 3 33.5 16t12.5 30q0 19 -12.5 28.5t-39.5 15.5z" />
    <glyph glyph-name="dieresis" unicode="&#xa8;" horiz-adv-x="600" 
d="M81 661q0 80 97 80q96 0 96 -80t-96 -80q-97 0 -97 80zM340 661q0 80 98 80q94 0 94 -80t-94 -80q-98 0 -98 80z" />
    <glyph glyph-name="copyright" unicode="&#xa9;" horiz-adv-x="786" 
d="M43 339q0 151 100 251t249 100q151 0 251 -100t100 -251q0 -149 -100 -249t-251 -100q-149 0 -249 100t-100 249zM112 339q0 -122 79.5 -203t200.5 -81q122 0 202 81t80 203q0 123 -79.5 204.5t-202.5 81.5q-121 0 -200.5 -81.5t-79.5 -204.5zM339 340q0 -31 19 -49
t51 -18q43 0 78 27l48 -87q-59 -49 -136 -49q-81 0 -131 49.5t-50 126.5q0 76 50 125t131 49q77 0 136 -49l-48 -86q-37 27 -78 27q-32 0 -51 -18t-19 -48z" />
    <glyph glyph-name="ordfeminine" unicode="&#xaa;" horiz-adv-x="486" 
d="M339 311q-51 0 -73 40q-42 -40 -104 -40q-45 0 -76 27t-31 80q0 51 40.5 81.5t116.5 35.5q13 1 38 1v11q0 20 -11 27.5t-34 7.5q-54 0 -100 -27l-22 108q48 16 128 22q6 1 19 1q84 0 115.5 -30.5t31.5 -95.5v-114q0 -29 19 -29q16 0 33 9l3 -98q-49 -17 -93 -17zM83 245
h324v-90h-324v90zM175 433q0 -31 36 -31q23 0 39 14v55h-18q-57 -4 -57 -38z" />
    <glyph glyph-name="guillemotleft" unicode="&#xab;" horiz-adv-x="583" 
d="M38 283v36l164 209h14l70 -31l-89 -196l89 -194l-70 -32h-14zM291 283v36l164 209h13l70 -31l-88 -196l88 -194l-70 -32h-13z" />
    <glyph glyph-name="logicalnot" unicode="&#xac;" horiz-adv-x="618" 
d="M399 116v172h-344v149h494l-1 -321h-149z" />
    <glyph glyph-name="uni00AD" unicode="&#xad;" horiz-adv-x="542" 
d="M61 377h420v-149h-420v149z" />
    <glyph glyph-name="registered" unicode="&#xae;" horiz-adv-x="786" 
d="M43 339q0 151 100 251t249 100q151 0 251 -100t100 -251q0 -149 -100 -249t-251 -100q-149 0 -249 100t-100 249zM112 339q0 -122 79.5 -203t200.5 -81q122 0 202 81t80 203q0 123 -79.5 204.5t-202.5 81.5q-121 0 -200.5 -81.5t-79.5 -204.5zM242 169v340h186
q55 0 88 -30.5t33 -81.5q0 -69 -63 -97l72 -107v-24h-118l-69 118h-10v-118h-119zM407 408h-46v-43h46q22 0 22 22q0 21 -22 21z" />
    <glyph glyph-name="macron" unicode="&#xaf;" horiz-adv-x="600" 
d="M439 600h-265v112h265v-112z" />
    <glyph glyph-name="degree" unicode="&#xb0;" horiz-adv-x="464" 
d="M38 500q0 81 55 135.5t138 54.5q84 0 139.5 -54.5t55.5 -135.5t-55.5 -134.5t-139.5 -53.5q-83 0 -138 53.5t-55 134.5zM158 500q0 -31 20.5 -53.5t52.5 -22.5t52.5 22t20.5 54t-20.5 54t-52.5 22t-52.5 -22.5t-20.5 -53.5z" />
    <glyph glyph-name="plusminus" unicode="&#xb1;" horiz-adv-x="620" 
d="M385 664v-173h172v-149h-172v-95h-149v95h-173v149h173v173h149zM63 180h494v-149h-494v149z" />
    <glyph glyph-name="twosuperior" unicode="&#xb2;" horiz-adv-x="354" 
d="M40 432v76l127 95q40 28 40 60q0 14 -9.5 23.5t-26.5 9.5q-50 0 -50 -56l-94 18q2 61 40.5 96.5t105.5 35.5q68 0 104 -33t36 -88q0 -65 -76 -116l-48 -32h132v-89h-281z" />
    <glyph glyph-name="threesuperior" unicode="&#xb3;" horiz-adv-x="338" 
d="M72 651h76q43 0 43 27q0 25 -45 25t-97 -19l-23 87q55 19 120 19q149 0 149 -102q0 -25 -15.5 -44.5t-43.5 -27.5q71 -18 71 -87q0 -48 -40 -75t-121 -27q-61 0 -118 19l25 85q44 -18 93 -18q55 0 55 32q0 27 -53 27h-76v79z" />
    <glyph glyph-name="acute" unicode="&#xb4;" horiz-adv-x="600" 
d="M441 741l-110 -162h-158l80 162h188z" />
    <glyph glyph-name="mu" unicode="&#xb5;" horiz-adv-x="658" 
d="M263 523v-230q0 -73 13.5 -100.5t59.5 -27.5q50 0 76 32v326h192v-523h-192v43q-59 -52 -149 -53v-178h-192v711h192z" />
    <glyph glyph-name="paragraph" unicode="&#xb6;" horiz-adv-x="615" 
d="M252 -188v398h-62q-71 0 -116.5 41t-45.5 115t45.5 115t116.5 42h164v-711h-102zM434 -188v711h102v-711h-102z" />
    <glyph glyph-name="periodcentered" unicode="&#xb7;" horiz-adv-x="322" 
d="M52 293q0 50 28.5 78t80.5 28t81 -28t29 -78t-29 -77t-81 -27q-53 0 -81 27t-28 77z" />
    <glyph glyph-name="cedilla" unicode="&#xb8;" horiz-adv-x="600" 
d="M204 -98l31 98h73l-17 -50q14 2 22 2q42 0 65.5 -19t23.5 -50q0 -38 -34 -59.5t-89 -21.5q-42 0 -82 10l15 58q38 -11 61 -11q47 0 47 21t-48 21q-11 0 -63 -4z" />
    <glyph glyph-name="onesuperior" unicode="&#xb9;" horiz-adv-x="288" 
d="M7 693l155 91h74v-352h-103v235l-86 -51z" />
    <glyph glyph-name="ordmasculine" unicode="&#xba;" horiz-adv-x="498" 
d="M55 500q0 81 55 135.5t138 54.5q84 0 139.5 -54.5t55.5 -135.5t-55.5 -134.5t-139.5 -53.5q-83 0 -138 53.5t-55 134.5zM171 500q0 -33 22 -56t55 -23q34 0 55.5 23t21.5 56t-21.5 56.5t-55.5 23.5q-33 0 -55 -23.5t-22 -56.5zM87 245h323v-90h-323v90z" />
    <glyph glyph-name="guillemotright" unicode="&#xbb;" horiz-adv-x="583" 
d="M292 319v-36l-164 -208h-13l-70 30l88 196l-88 194l70 33h13zM544 319v-36l-163 -208h-14l-69 30l88 196l-89 194l70 33h14z" />
    <glyph glyph-name="onequarter" unicode="&#xbc;" horiz-adv-x="839" 
d="M164 14l370 666h94v-13l-368 -667h-96v14zM800 57h-51v-57h-103v57h-179v66l143 229h139v-219h51v-76zM569 133h77v124zM27 593l155 91h74v-352h-103v235l-86 -51z" />
    <glyph glyph-name="onehalf" unicode="&#xbd;" horiz-adv-x="844" 
d="M164 14l370 666h94v-13l-368 -667h-96v14zM520 0v76l127 95q40 29 40 60q0 14 -9.5 24t-26.5 10q-51 0 -51 -56l-93 17q2 62 40.5 97t105.5 35q68 0 104 -33t36 -87q0 -66 -76 -116l-48 -33h132v-89h-281zM28 589l155 91h74v-352h-103v235l-86 -51z" />
    <glyph glyph-name="threequarters" unicode="&#xbe;" horiz-adv-x="868" 
d="M200 14l370 666h94v-13l-368 -667h-96v14zM836 57h-51v-57h-103v57h-179v66l143 229h139v-219h51v-76zM605 133h77v124zM84 551h76q43 0 43 27q0 25 -45 25t-97 -19l-23 87q55 19 120 19q149 0 149 -102q0 -25 -15.5 -44.5t-43.5 -27.5q71 -18 71 -87q0 -48 -40 -75
t-121 -27q-61 0 -118 19l25 85q44 -18 93 -18q55 0 55 32q0 27 -53 27h-76v79z" />
    <glyph glyph-name="questiondown" unicode="&#xbf;" horiz-adv-x="485" 
d="M199 275h155q16 -42 16 -65q0 -50 -61 -92l-52 -36q-31 -23 -31 -52q0 -18 12.5 -29t33.5 -11q32 0 72 15t65 35l46 -151q-92 -56 -212 -56q-98 0 -153.5 50.5t-55.5 131.5q0 31 6.5 55t20.5 42t25.5 29t31.5 26l58 40q12 9 16 12.5t7.5 11t3.5 18.5q0 14 -4 26zM385 432
q0 -50 -28.5 -78t-80.5 -28t-80.5 28t-28.5 78t28.5 77.5t80.5 27.5t80.5 -27.5t28.5 -77.5z" />
    <glyph glyph-name="Agrave" unicode="&#xc0;" horiz-adv-x="733" 
d="M-1 0l255 680h226l253 -680h-194l-41 115h-265l-40 -115h-194zM367 491l-86 -235h170zM302 736l-110 162h188l80 -162h-158z" />
    <glyph glyph-name="Aacute" unicode="&#xc1;" horiz-adv-x="733" 
d="M-1 0l255 680h226l253 -680h-194l-41 115h-265l-40 -115h-194zM367 491l-86 -235h170zM539 898l-110 -162h-158l80 162h188z" />
    <glyph glyph-name="Acircumflex" unicode="&#xc2;" horiz-adv-x="733" 
d="M-1 0l255 680h226l253 -680h-194l-41 115h-265l-40 -115h-194zM367 491l-86 -235h170zM419 736l-53 73l-53 -73h-139l100 162h184l99 -162h-138z" />
    <glyph glyph-name="Atilde" unicode="&#xc3;" horiz-adv-x="733" 
d="M-1 0l255 680h226l253 -680h-194l-41 115h-265l-40 -115h-194zM367 491l-86 -235h170zM216 747l-49 55q19 42 50.5 68.5t69.5 26.5q41 0 89.5 -28t69.5 -28q44 0 68 44l50 -55q-49 -96 -120 -96q-37 0 -88 28t-69 28q-41 0 -71 -43z" />
    <glyph glyph-name="Adieresis" unicode="&#xc4;" horiz-adv-x="733" 
d="M-1 0l255 680h226l253 -680h-194l-41 115h-265l-40 -115h-194zM367 491l-86 -235h170zM141 818q0 80 97 80q96 0 96 -80t-96 -80q-97 0 -97 80zM400 818q0 80 98 80q94 0 94 -80t-94 -80q-98 0 -98 80z" />
    <glyph glyph-name="Aring" unicode="&#xc5;" horiz-adv-x="733" 
d="M269 724q0 40 28.5 69t69.5 29t69.5 -29t28.5 -69q0 -24 -11 -44h26l253 -680h-194l-41 115h-265l-40 -115h-194l255 680h25q-10 22 -10 44zM367 491l-86 -235h170zM332 724q0 -15 10 -25t25 -10t25 10t10 25t-10 25t-25 10t-25 -10t-10 -25z" />
    <glyph glyph-name="AE" unicode="&#xc6;" horiz-adv-x="1070" 
d="M466 0v115h-224l-60 -115h-203l365 680h676v-167h-370v-92h297v-153h-297v-102h370v-166h-554zM311 256h155v301z" />
    <glyph glyph-name="Ccedilla" unicode="&#xc7;" horiz-adv-x="704" 
d="M315 -98l29 93q-133 19 -218.5 115t-85.5 230q0 149 104 249.5t259 100.5q157 0 271 -104l-87 -139q-87 66 -177 66q-77 0 -124 -50t-47 -123t47 -123t124 -50q90 0 177 66l87 -139q-110 -100 -259 -104l-13 -40q14 2 22 2q42 0 65.5 -19t23.5 -50q0 -38 -34 -59.5
t-89 -21.5q-42 0 -82 10l15 58q39 -11 61 -11q47 0 47 21t-48 21q-11 0 -63 -4z" />
    <glyph glyph-name="Egrave" unicode="&#xc8;" horiz-adv-x="683" 
d="M633 0h-554v680h554v-167h-371v-90h298v-157h-298v-99h371v-167zM291 736l-110 162h188l80 -162h-158z" />
    <glyph glyph-name="Eacute" unicode="&#xc9;" horiz-adv-x="683" 
d="M633 0h-554v680h554v-167h-371v-90h298v-157h-298v-99h371v-167zM529 898l-110 -162h-158l80 162h188z" />
    <glyph glyph-name="Ecircumflex" unicode="&#xca;" horiz-adv-x="683" 
d="M633 0h-554v680h554v-167h-371v-90h298v-157h-298v-99h371v-167zM409 736l-53 73l-53 -73h-139l100 162h184l99 -162h-138z" />
    <glyph glyph-name="Edieresis" unicode="&#xcb;" horiz-adv-x="683" 
d="M633 0h-554v680h554v-167h-371v-90h298v-157h-298v-99h371v-167zM130 818q0 80 97 80q96 0 96 -80t-96 -80q-97 0 -97 80zM389 818q0 80 98 80q94 0 94 -80t-94 -80q-98 0 -98 80z" />
    <glyph glyph-name="Igrave" unicode="&#xcc;" horiz-adv-x="350" 
d="M79 0v680h192v-680h-192zM102 736l-110 162h188l80 -162h-158z" />
    <glyph glyph-name="Iacute" unicode="&#xcd;" horiz-adv-x="350" 
d="M79 0v680h192v-680h-192zM357 898l-110 -162h-158l80 162h188z" />
    <glyph glyph-name="Icircumflex" unicode="&#xce;" horiz-adv-x="350" 
d="M79 0v680h192v-680h-192zM227 736l-53 73l-53 -73h-139l100 162h184l99 -162h-138z" />
    <glyph glyph-name="Idieresis" unicode="&#xcf;" horiz-adv-x="350" 
d="M79 0v680h192v-680h-192zM-51 818q0 80 97 80q96 0 96 -80t-96 -80q-97 0 -97 80zM208 818q0 80 98 80q94 0 94 -80t-94 -80q-98 0 -98 80z" />
    <glyph glyph-name="Eth" unicode="&#xd0;" horiz-adv-x="794" 
d="M381 292h-358v91h358v-91zM84 0v680h192v-680h-192zM187 514v166h213q156 -1 253.5 -90.5t97.5 -250.5q0 -160 -97.5 -249.5t-253.5 -89.5h-217v166h209q73 0 118 46t45 127q0 82 -44.5 128.5t-118.5 46.5h-205z" />
    <glyph glyph-name="Ntilde" unicode="&#xd1;" horiz-adv-x="825" 
d="M580 0l-309 374v-374h-192v680h166l309 -375v375h192v-680h-166zM263 747l-49 55q19 42 50.5 68.5t69.5 26.5q41 0 89.5 -28t69.5 -28q44 0 68 44l50 -55q-49 -96 -120 -96q-37 0 -88 28t-69 28q-41 0 -71 -43z" />
    <glyph glyph-name="Ograve" unicode="&#xd2;" horiz-adv-x="780" 
d="M40 339q0 151 100 251t249 100q151 0 251 -100t100 -251q0 -149 -100 -249t-251 -100q-149 0 -249 100t-100 249zM228 339q0 -71 46 -120t116 -49q71 0 116.5 48.5t45.5 120.5q0 73 -45.5 121.5t-116.5 48.5t-116.5 -48.5t-45.5 -121.5zM317 736l-110 162h188l80 -162
h-158z" />
    <glyph glyph-name="Oacute" unicode="&#xd3;" horiz-adv-x="780" 
d="M40 339q0 151 100 251t249 100q151 0 251 -100t100 -251q0 -149 -100 -249t-251 -100q-149 0 -249 100t-100 249zM228 339q0 -71 46 -120t116 -49q71 0 116.5 48.5t45.5 120.5q0 73 -45.5 121.5t-116.5 48.5t-116.5 -48.5t-45.5 -121.5zM572 898l-110 -162h-158l80 162
h188z" />
    <glyph glyph-name="Ocircumflex" unicode="&#xd4;" horiz-adv-x="780" 
d="M40 339q0 151 100 251t249 100q151 0 251 -100t100 -251q0 -149 -100 -249t-251 -100q-149 0 -249 100t-100 249zM228 339q0 -71 46 -120t116 -49q71 0 116.5 48.5t45.5 120.5q0 73 -45.5 121.5t-116.5 48.5t-116.5 -48.5t-45.5 -121.5zM442 736l-53 73l-53 -73h-139
l100 162h184l99 -162h-138z" />
    <glyph glyph-name="Otilde" unicode="&#xd5;" horiz-adv-x="780" 
d="M40 339q0 151 100 251t249 100q151 0 251 -100t100 -251q0 -149 -100 -249t-251 -100q-149 0 -249 100t-100 249zM228 339q0 -71 46 -120t116 -49q71 0 116.5 48.5t45.5 120.5q0 73 -45.5 121.5t-116.5 48.5t-116.5 -48.5t-45.5 -121.5zM239 747l-49 55q19 42 50.5 68.5
t69.5 26.5q41 0 89.5 -28t69.5 -28q44 0 68 44l50 -55q-49 -96 -120 -96q-37 0 -88 28t-69 28q-41 0 -71 -43z" />
    <glyph glyph-name="Odieresis" unicode="&#xd6;" horiz-adv-x="780" 
d="M40 339q0 151 100 251t249 100q151 0 251 -100t100 -251q0 -149 -100 -249t-251 -100q-149 0 -249 100t-100 249zM228 339q0 -71 46 -120t116 -49q71 0 116.5 48.5t45.5 120.5q0 73 -45.5 121.5t-116.5 48.5t-116.5 -48.5t-45.5 -121.5zM163 818q0 80 97 80q96 0 96 -80
t-96 -80q-97 0 -97 80zM422 818q0 80 98 80q94 0 94 -80t-94 -80q-98 0 -98 80z" />
    <glyph glyph-name="multiply" unicode="&#xd7;" horiz-adv-x="553" 
d="M504 424l-123 -121l123 -122l-106 -106l-122 123l-121 -123l-106 106l122 122l-122 121l106 106l121 -122l122 122z" />
    <glyph glyph-name="Oslash" unicode="&#xd8;" horiz-adv-x="780" 
d="M40 339q0 151 100 251t249 100q107 0 191 -53l36 43h101v-13l-70 -85q93 -99 93 -243q0 -149 -100 -249t-251 -100q-101 0 -183 48l-31 -38h-103v14l64 79q-96 99 -96 246zM226 339q0 -55 29 -100l208 255q-34 17 -74 17q-70 0 -116.5 -49.5t-46.5 -122.5zM553 339
q0 54 -26 95l-204 -252q31 -14 66 -14q72 0 118 49.5t46 121.5z" />
    <glyph glyph-name="Ugrave" unicode="&#xd9;" horiz-adv-x="785" 
d="M262 680v-372q0 -67 33.5 -104.5t96.5 -37.5q64 0 98 38t34 105v371h192v-385q0 -129 -87 -217t-237 -88q-152 0 -237 84.5t-85 220.5v385h192zM319 736l-110 162h188l80 -162h-158z" />
    <glyph glyph-name="Uacute" unicode="&#xda;" horiz-adv-x="785" 
d="M262 680v-372q0 -67 33.5 -104.5t96.5 -37.5q64 0 98 38t34 105v371h192v-385q0 -129 -87 -217t-237 -88q-152 0 -237 84.5t-85 220.5v385h192zM575 898l-110 -162h-158l80 162h188z" />
    <glyph glyph-name="Ucircumflex" unicode="&#xdb;" horiz-adv-x="785" 
d="M262 680v-372q0 -67 33.5 -104.5t96.5 -37.5q64 0 98 38t34 105v371h192v-385q0 -129 -87 -217t-237 -88q-152 0 -237 84.5t-85 220.5v385h192zM445 736l-53 73l-53 -73h-139l100 162h184l99 -162h-138z" />
    <glyph glyph-name="Udieresis" unicode="&#xdc;" horiz-adv-x="785" 
d="M262 680v-372q0 -67 33.5 -104.5t96.5 -37.5q64 0 98 38t34 105v371h192v-385q0 -129 -87 -217t-237 -88q-152 0 -237 84.5t-85 220.5v385h192zM166 818q0 80 97 80q96 0 96 -80t-96 -80q-97 0 -97 80zM425 818q0 80 98 80q94 0 94 -80t-94 -80q-98 0 -98 80z" />
    <glyph glyph-name="Yacute" unicode="&#xdd;" horiz-adv-x="694" 
d="M251 0v256l-253 411v13h214l135 -248l135 248h214v-13l-253 -410v-257h-192zM529 898l-110 -162h-158l80 162h188z" />
    <glyph glyph-name="Thorn" unicode="&#xde;" horiz-adv-x="718" 
d="M79 0v680h192v-83h158q110 0 181.5 -64t71.5 -188q0 -115 -73 -182t-180 -67h-158v-96h-192zM400 431h-129v-169h129q37 0 61.5 23t24.5 61t-24.5 61.5t-61.5 23.5z" />
    <glyph glyph-name="germandbls" unicode="&#xdf;" horiz-adv-x="702" 
d="M361 720q65 0 116 -19.5t80 -51.5t43.5 -67.5t14.5 -71.5q0 -40 -14.5 -72.5t-29 -51.5t-14.5 -26t17.5 -25.5t38 -39.5t38 -55.5t17.5 -71.5q0 -89 -52 -133.5t-143 -44.5q-71 0 -149 25l26 153q32 -17 63 -17q22 0 34.5 10.5t12.5 28.5q0 25 -52.5 74.5t-52.5 72.5
q0 26 32 70.5t32 83.5q0 29 -20 46t-55 17q-43 0 -64.5 -31.5t-21.5 -87.5v-435h-192v420q0 81 25 141t68 93.5t93.5 49.5t108.5 16z" />
    <glyph glyph-name="agrave" unicode="&#xe0;" horiz-adv-x="584" 
d="M239 579l-110 162h188l80 -162h-158zM106 347l-32 147q103 38 213 38q129 0 183 -56.5t54 -164.5v-311h-187v47q-61 -57 -143 -57q-77 0 -119 41.5t-42 112.5q0 86 64 133t174 47q26 0 66 -4v1q0 31 -16.5 44.5t-52.5 13.5q-75 0 -162 -32zM217 166q0 -49 55 -49
q31 0 65 21v81q-17 3 -33 3q-37 0 -62 -14.5t-25 -41.5z" />
    <glyph glyph-name="aacute" unicode="&#xe1;" horiz-adv-x="584" 
d="M481 741l-110 -162h-158l80 162h188zM106 347l-32 147q103 38 213 38q129 0 183 -56.5t54 -164.5v-311h-187v47q-61 -57 -143 -57q-77 0 -119 41.5t-42 112.5q0 86 64 133t174 47q26 0 66 -4v1q0 31 -16.5 44.5t-52.5 13.5q-75 0 -162 -32zM217 166q0 -49 55 -49
q31 0 65 21v81q-17 3 -33 3q-37 0 -62 -14.5t-25 -41.5z" />
    <glyph glyph-name="acircumflex" unicode="&#xe2;" horiz-adv-x="584" 
d="M350 579l-53 73l-53 -73h-139l100 162h184l99 -162h-138zM106 347l-32 147q103 38 213 38q129 0 183 -56.5t54 -164.5v-311h-187v47q-61 -57 -143 -57q-77 0 -119 41.5t-42 112.5q0 86 64 133t174 47q26 0 66 -4v1q0 31 -16.5 44.5t-52.5 13.5q-75 0 -162 -32zM217 166
q0 -49 55 -49q31 0 65 21v81q-17 3 -33 3q-37 0 -62 -14.5t-25 -41.5z" />
    <glyph glyph-name="atilde" unicode="&#xe3;" horiz-adv-x="584" 
d="M153 590l-49 55q19 42 50.5 68.5t69.5 26.5q41 0 89.5 -28t69.5 -28q44 0 68 44l50 -55q-49 -96 -120 -96q-37 0 -88 28t-69 28q-41 0 -71 -43zM106 347l-32 147q103 38 213 38q129 0 183 -56.5t54 -164.5v-311h-187v47q-61 -57 -143 -57q-77 0 -119 41.5t-42 112.5
q0 86 64 133t174 47q26 0 66 -4v1q0 31 -16.5 44.5t-52.5 13.5q-75 0 -162 -32zM217 166q0 -49 55 -49q31 0 65 21v81q-17 3 -33 3q-37 0 -62 -14.5t-25 -41.5z" />
    <glyph glyph-name="adieresis" unicode="&#xe4;" horiz-adv-x="584" 
d="M74 661q0 80 97 80q96 0 96 -80t-96 -80q-97 0 -97 80zM333 661q0 80 98 80q94 0 94 -80t-94 -80q-98 0 -98 80zM106 347l-32 147q103 38 213 38q129 0 183 -56.5t54 -164.5v-311h-187v47q-61 -57 -143 -57q-77 0 -119 41.5t-42 112.5q0 86 64 133t174 47q26 0 66 -4v1
q0 31 -16.5 44.5t-52.5 13.5q-75 0 -162 -32zM217 166q0 -49 55 -49q31 0 65 21v81q-17 3 -33 3q-37 0 -62 -14.5t-25 -41.5z" />
    <glyph glyph-name="aring" unicode="&#xe5;" horiz-adv-x="584" 
d="M203 670q0 40 28.5 69t69.5 29t69.5 -29t28.5 -69t-28.5 -69t-69.5 -29t-69.5 29t-28.5 69zM266 670q0 -15 10 -25t25 -10t25 10t10 25t-10 25t-25 10t-25 -10t-10 -25zM106 347l-32 147q103 38 213 38q129 0 183 -56.5t54 -164.5v-311h-187v47q-61 -57 -143 -57
q-77 0 -119 41.5t-42 112.5q0 86 64 133t174 47q26 0 66 -4v1q0 31 -16.5 44.5t-52.5 13.5q-75 0 -162 -32zM217 166q0 -49 55 -49q31 0 65 21v81q-17 3 -33 3q-37 0 -62 -14.5t-25 -41.5z" />
    <glyph glyph-name="ae" unicode="&#xe6;" horiz-adv-x="891" 
d="M840 223h-314q4 -41 33 -66t84 -25q32 0 71.5 14t62.5 32l71 -121q-87 -71 -224 -71q-138 0 -197 80q-94 -76 -212 -76q-86 0 -134.5 41.5t-48.5 112.5q0 50 24 86.5t65.5 55.5t86.5 27.5t96 8.5q6 0 17 -0.5t16 -0.5q0 34 -17 46t-59 12q-33 0 -79.5 -11t-76.5 -24
l-32 154q108 34 209 34q76 0 115 -17t62 -47q69 69 157 69q112 0 173.5 -62.5t61.5 -155.5q0 -65 -11 -96zM620 404q-39 0 -63.5 -22.5t-27.5 -59.5h172v6q0 35 -20 55.5t-61 20.5zM216 165q0 -49 55 -49q40 0 67 25v82q-20 2 -35 2q-87 -2 -87 -60z" />
    <glyph glyph-name="ccedilla" unicode="&#xe7;" horiz-adv-x="562" 
d="M237 -98l28 89q-108 17 -168 91t-60 180q0 121 77 198t211 77q120 0 210 -71l-83 -142q-50 39 -112 39q-52 0 -80 -28.5t-28 -72.5t28 -73.5t80 -29.5q60 0 112 40l83 -142q-85 -67 -199 -71l-12 -36q14 2 22 2q42 0 65.5 -19t23.5 -50q0 -38 -34 -59.5t-89 -21.5
q-42 0 -82 10l15 58q39 -11 61 -11q47 0 47 21t-48 21q-11 0 -63 -4z" />
    <glyph glyph-name="egrave" unicode="&#xe8;" horiz-adv-x="592" 
d="M478 180l71 -123q-87 -71 -225 -71q-142 0 -214.5 75t-72.5 199q0 121 76.5 199t201.5 78q114 0 175.5 -62t61.5 -156q0 -62 -11 -99h-319q7 -39 37 -62.5t81 -23.5q34 0 74.5 14t63.5 32zM396 324v9q0 31 -20 49t-59 18q-38 0 -62.5 -21t-29.5 -55h171zM259 579
l-110 162h188l80 -162h-158z" />
    <glyph glyph-name="eacute" unicode="&#xe9;" horiz-adv-x="592" 
d="M478 180l71 -123q-87 -71 -225 -71q-142 0 -214.5 75t-72.5 199q0 121 76.5 199t201.5 78q114 0 175.5 -62t61.5 -156q0 -62 -11 -99h-319q7 -39 37 -62.5t81 -23.5q34 0 74.5 14t63.5 32zM396 324v9q0 31 -20 49t-59 18q-38 0 -62.5 -21t-29.5 -55h171zM495 741
l-110 -162h-158l80 162h188z" />
    <glyph glyph-name="ecircumflex" unicode="&#xea;" horiz-adv-x="592" 
d="M478 180l71 -123q-87 -71 -225 -71q-142 0 -214.5 75t-72.5 199q0 121 76.5 199t201.5 78q114 0 175.5 -62t61.5 -156q0 -62 -11 -99h-319q7 -39 37 -62.5t81 -23.5q34 0 74.5 14t63.5 32zM396 324v9q0 31 -20 49t-59 18q-38 0 -62.5 -21t-29.5 -55h171zM371 579l-53 73
l-53 -73h-139l100 162h184l99 -162h-138z" />
    <glyph glyph-name="edieresis" unicode="&#xeb;" horiz-adv-x="592" 
d="M478 180l71 -123q-87 -71 -225 -71q-142 0 -214.5 75t-72.5 199q0 121 76.5 199t201.5 78q114 0 175.5 -62t61.5 -156q0 -62 -11 -99h-319q7 -39 37 -62.5t81 -23.5q34 0 74.5 14t63.5 32zM396 324v9q0 31 -20 49t-59 18q-38 0 -62.5 -21t-29.5 -55h171zM92 661
q0 80 97 80q96 0 96 -80t-96 -80q-97 0 -97 80zM351 661q0 80 98 80q94 0 94 -80t-94 -80q-98 0 -98 80z" />
    <glyph glyph-name="igrave" unicode="&#xec;" horiz-adv-x="325" 
d="M101 579l-110 162h188l80 -162h-158zM259 0h-192v523h192v-523z" />
    <glyph glyph-name="iacute" unicode="&#xed;" horiz-adv-x="325" 
d="M339 741l-110 -162h-158l80 162h188zM259 0h-192v523h192v-523z" />
    <glyph glyph-name="icircumflex" unicode="&#xee;" horiz-adv-x="325" 
d="M259 0h-192v523h192v-523zM215 579l-53 73l-53 -73h-139l100 162h184l99 -162h-138z" />
    <glyph glyph-name="idieresis" unicode="&#xef;" horiz-adv-x="325" 
d="M-62 661q0 80 97 80q96 0 96 -80t-96 -80q-97 0 -97 80zM197 661q0 80 98 80q94 0 94 -80t-94 -80q-98 0 -98 80zM259 0h-192v523h192v-523z" />
    <glyph glyph-name="eth" unicode="&#xf0;" horiz-adv-x="617" 
d="M452 696l-36 -38q72 -52 115.5 -134t43.5 -183q0 -161 -75 -256t-213 -95q-111 0 -180.5 66.5t-69.5 179.5q0 92 55.5 151.5t153.5 59.5q67 0 129 -41q-18 74 -74 128l-42 -45l-47 40l40 43q-30 18 -60 29l76 119q49 -8 94 -30l42 45zM294 165q72 0 84 108q-46 30 -84 30
q-31 0 -48.5 -18.5t-17.5 -49.5q0 -29 17 -49.5t49 -20.5z" />
    <glyph glyph-name="ntilde" unicode="&#xf1;" 
d="M67 523h192v-58q59 67 158 67q100 0 149 -64t49 -167v-301h-192v268q0 88 -79 88q-55 0 -85 -43v-313h-192v523zM191 590l-49 55q19 42 50.5 68.5t69.5 26.5q41 0 89.5 -28t69.5 -28q44 0 68 44l50 -55q-49 -96 -120 -96q-37 0 -88 28t-69 28q-41 0 -71 -43z" />
    <glyph glyph-name="ograve" unicode="&#xf2;" horiz-adv-x="636" 
d="M35 260q0 119 80.5 198t201.5 79q123 0 203.5 -79t80.5 -198q0 -118 -80.5 -196t-203.5 -78q-121 0 -201.5 78t-80.5 196zM219 260q0 -42 27.5 -71.5t70.5 -29.5q44 0 71.5 29.5t27.5 71.5q0 44 -27.5 73t-71.5 29q-43 0 -70.5 -29.5t-27.5 -72.5zM244 579l-110 162h188
l80 -162h-158z" />
    <glyph glyph-name="oacute" unicode="&#xf3;" horiz-adv-x="636" 
d="M35 260q0 119 80.5 198t201.5 79q123 0 203.5 -79t80.5 -198q0 -118 -80.5 -196t-203.5 -78q-121 0 -201.5 78t-80.5 196zM219 260q0 -42 27.5 -71.5t70.5 -29.5q44 0 71.5 29.5t27.5 71.5q0 44 -27.5 73t-71.5 29q-43 0 -70.5 -29.5t-27.5 -72.5zM500 741l-110 -162
h-158l80 162h188z" />
    <glyph glyph-name="ocircumflex" unicode="&#xf4;" horiz-adv-x="636" 
d="M35 260q0 119 80.5 198t201.5 79q123 0 203.5 -79t80.5 -198q0 -118 -80.5 -196t-203.5 -78q-121 0 -201.5 78t-80.5 196zM219 260q0 -42 27.5 -71.5t70.5 -29.5q44 0 71.5 29.5t27.5 71.5q0 44 -27.5 73t-71.5 29q-43 0 -70.5 -29.5t-27.5 -72.5zM370 579l-53 73
l-53 -73h-139l100 162h184l99 -162h-138z" />
    <glyph glyph-name="otilde" unicode="&#xf5;" horiz-adv-x="636" 
d="M35 260q0 119 80.5 198t201.5 79q123 0 203.5 -79t80.5 -198q0 -118 -80.5 -196t-203.5 -78q-121 0 -201.5 78t-80.5 196zM219 260q0 -42 27.5 -71.5t70.5 -29.5q44 0 71.5 29.5t27.5 71.5q0 44 -27.5 73t-71.5 29q-43 0 -70.5 -29.5t-27.5 -72.5zM167 590l-49 55
q19 42 50.5 68.5t69.5 26.5q41 0 89.5 -28t69.5 -28q44 0 68 44l50 -55q-49 -96 -120 -96q-37 0 -88 28t-69 28q-41 0 -71 -43z" />
    <glyph glyph-name="odieresis" unicode="&#xf6;" horiz-adv-x="636" 
d="M35 260q0 119 80.5 198t201.5 79q123 0 203.5 -79t80.5 -198q0 -118 -80.5 -196t-203.5 -78q-121 0 -201.5 78t-80.5 196zM219 260q0 -42 27.5 -71.5t70.5 -29.5q44 0 71.5 29.5t27.5 71.5q0 44 -27.5 73t-71.5 29q-43 0 -70.5 -29.5t-27.5 -72.5zM91 661q0 80 97 80
q96 0 96 -80t-96 -80q-97 0 -97 80zM350 661q0 80 98 80q94 0 94 -80t-94 -80q-98 0 -98 80z" />
    <glyph glyph-name="divide" unicode="&#xf7;" horiz-adv-x="575" 
d="M41 377h493v-149h-493v149zM194 509q0 44 25 68t70 24t70.5 -24.5t25.5 -67.5q0 -44 -25.5 -68t-70.5 -24t-70 24t-25 68zM194 94q0 44 25 68.5t70 24.5t70.5 -24.5t25.5 -68.5q0 -43 -25.5 -67t-70.5 -24t-70 24t-25 67z" />
    <glyph glyph-name="oslash" unicode="&#xf8;" horiz-adv-x="636" 
d="M35 260q0 119 80.5 198t201.5 79q88 0 159 -44l25 30h69v-14l-46 -55q77 -79 77 -194q0 -118 -80.5 -196t-203.5 -78q-84 0 -151 39l-21 -25h-70v14l41 49q-81 79 -81 197zM219 260q0 -32 15 -56l125 149q-19 9 -42 9q-43 0 -70.5 -29.5t-27.5 -72.5zM416 260
q0 28 -12 50l-122 -146q14 -5 35 -5q44 0 71.5 29.5t27.5 71.5z" />
    <glyph glyph-name="ugrave" unicode="&#xf9;" 
d="M609 0h-192v58q-61 -67 -158 -67q-100 0 -149 64t-49 167v301h192v-268q0 -88 76 -88q59 0 88 43v313h192v-523zM258 579l-110 162h188l80 -162h-158z" />
    <glyph glyph-name="uacute" unicode="&#xfa;" 
d="M609 0h-192v58q-61 -67 -158 -67q-100 0 -149 64t-49 167v301h192v-268q0 -88 76 -88q59 0 88 43v313h192v-523zM527 741l-110 -162h-158l80 162h188z" />
    <glyph glyph-name="ucircumflex" unicode="&#xfb;" 
d="M609 0h-192v58q-61 -67 -158 -67q-100 0 -149 64t-49 167v301h192v-268q0 -88 76 -88q59 0 88 43v313h192v-523zM387 579l-53 73l-53 -73h-139l100 162h184l99 -162h-138z" />
    <glyph glyph-name="udieresis" unicode="&#xfc;" 
d="M609 0h-192v58q-61 -67 -158 -67q-100 0 -149 64t-49 167v301h192v-268q0 -88 76 -88q59 0 88 43v313h192v-523zM109 661q0 80 97 80q96 0 96 -80t-96 -80q-97 0 -97 80zM368 661q0 80 98 80q94 0 94 -80t-94 -80q-98 0 -98 80z" />
    <glyph glyph-name="yacute" unicode="&#xfd;" horiz-adv-x="619" 
d="M413 522q32 0 96.5 0.5t95.5 0.5l-200 -506q-47 -118 -100 -166.5t-147 -48.5q-68 0 -120 34l26 141q48 -23 88 -23q27 0 41.5 12.5t25.5 37.5l8 16l-229 503h213l98 -314zM489 741l-110 -162h-158l80 162h188z" />
    <glyph glyph-name="thorn" unicode="&#xfe;" horiz-adv-x="675" 
d="M638 260q0 -118 -66.5 -194t-171.5 -76q-83 0 -141 56v-234h-192v898h192v-237q54 59 141 59q105 0 171.5 -76t66.5 -196zM442 260q0 49 -26 77.5t-72 28.5q-51 0 -85 -30v-150q36 -30 85 -30q45 0 71.5 28t26.5 76z" />
    <glyph glyph-name="ydieresis" unicode="&#xff;" horiz-adv-x="619" 
d="M413 522q32 0 96.5 0.5t95.5 0.5l-200 -506q-47 -118 -100 -166.5t-147 -48.5q-68 0 -120 34l26 141q48 -23 88 -23q27 0 41.5 12.5t25.5 37.5l8 16l-229 503h213l98 -314zM84 661q0 80 97 80q96 0 96 -80t-96 -80q-97 0 -97 80zM343 661q0 80 98 80q94 0 94 -80t-94 -80
q-98 0 -98 80z" />
    <glyph glyph-name="Amacron" unicode="&#x100;" horiz-adv-x="733" 
d="M-1 0l255 680h226l253 -680h-194l-41 115h-265l-40 -115h-194zM367 491l-86 -235h170zM499 757h-265v112h265v-112z" />
    <glyph glyph-name="amacron" unicode="&#x101;" horiz-adv-x="584" 
d="M439 600h-265v112h265v-112zM106 347l-32 147q103 38 213 38q129 0 183 -56.5t54 -164.5v-311h-187v47q-61 -57 -143 -57q-77 0 -119 41.5t-42 112.5q0 86 64 133t174 47q26 0 66 -4v1q0 31 -16.5 44.5t-52.5 13.5q-75 0 -162 -32zM217 166q0 -49 55 -49q31 0 65 21v81
q-17 3 -33 3q-37 0 -62 -14.5t-25 -41.5z" />
    <glyph glyph-name="Abreve" unicode="&#x102;" horiz-adv-x="733" 
d="M-1 0l255 680h226l253 -680h-194l-41 115h-265l-40 -115h-194zM367 491l-86 -235h170zM208 827l43 65q42 -46 115 -46q36 0 66.5 14t47.5 33l44 -66q-52 -88 -157 -88q-107 0 -159 88z" />
    <glyph glyph-name="abreve" unicode="&#x103;" horiz-adv-x="584" 
d="M142 670l43 65q42 -46 115 -46q36 0 66.5 14t47.5 33l44 -66q-52 -88 -157 -88q-107 0 -159 88zM106 347l-32 147q103 38 213 38q129 0 183 -56.5t54 -164.5v-311h-187v47q-61 -57 -143 -57q-77 0 -119 41.5t-42 112.5q0 86 64 133t174 47q26 0 66 -4v1q0 31 -16.5 44.5
t-52.5 13.5q-75 0 -162 -32zM217 166q0 -49 55 -49q31 0 65 21v81q-17 3 -33 3q-37 0 -62 -14.5t-25 -41.5z" />
    <glyph glyph-name="Aogonek" unicode="&#x104;" horiz-adv-x="733" 
d="M-1 0l255 680h226l253 -680h-60q-36 0 -57.5 -18t-21.5 -45q0 -47 46 -47q23 0 52 20l18 -77q-40 -26 -94 -26q-50 0 -79 28t-29 74q0 30 15 54t38 37h-22l-41 115h-265l-40 -115h-194zM367 491l-86 -235h170z" />
    <glyph glyph-name="aogonek" unicode="&#x105;" horiz-adv-x="584" 
d="M106 347l-32 147q103 38 213 38q129 0 183 -56.5t54 -164.5v-311h-28q-36 0 -57.5 -18t-21.5 -45q0 -47 46 -47q23 0 52 20l18 -77q-40 -26 -94 -26q-50 0 -79 28t-29 74q0 30 15 54t38 37h-47v47q-61 -57 -143 -57q-77 0 -119 41.5t-42 112.5q0 86 64 133t174 47
q26 0 66 -4v1q0 31 -16.5 44.5t-52.5 13.5q-75 0 -162 -32zM217 166q0 -49 55 -49q31 0 65 21v81q-17 3 -33 3q-37 0 -62 -14.5t-25 -41.5z" />
    <glyph glyph-name="Cacute" unicode="&#x106;" horiz-adv-x="703" 
d="M238 340q0 -73 47 -123t124 -50q90 0 177 66l87 -139q-114 -104 -271 -104q-155 0 -259 100.5t-104 249.5t104 249.5t259 100.5q157 0 271 -104l-87 -139q-87 66 -177 66q-77 0 -124 -50t-47 -123zM595 898l-110 -162h-158l80 162h188z" />
    <glyph glyph-name="cacute" unicode="&#x107;" horiz-adv-x="560" 
d="M36 262q0 121 77 198t211 77q120 0 210 -71l-83 -142q-50 39 -112 39q-52 0 -80 -28.5t-28 -72.5t28 -73.5t80 -29.5q60 0 112 40l83 -142q-90 -71 -210 -71q-134 0 -211 77.5t-77 198.5zM506 741l-110 -162h-158l80 162h188z" />
    <glyph glyph-name="Ccircumflex" unicode="&#x108;" horiz-adv-x="703" 
d="M238 340q0 -73 47 -123t124 -50q90 0 177 66l87 -139q-114 -104 -271 -104q-155 0 -259 100.5t-104 249.5t104 249.5t259 100.5q157 0 271 -104l-87 -139q-87 66 -177 66q-77 0 -124 -50t-47 -123zM458 736l-53 73l-53 -73h-139l100 162h184l99 -162h-138z" />
    <glyph glyph-name="ccircumflex" unicode="&#x109;" horiz-adv-x="560" 
d="M36 262q0 121 77 198t211 77q120 0 210 -71l-83 -142q-50 39 -112 39q-52 0 -80 -28.5t-28 -72.5t28 -73.5t80 -29.5q60 0 112 40l83 -142q-90 -71 -210 -71q-134 0 -211 77.5t-77 198.5zM380 579l-53 73l-53 -73h-139l100 162h184l99 -162h-138z" />
    <glyph glyph-name="Cdotaccent" unicode="&#x10a;" horiz-adv-x="703" 
d="M238 340q0 -73 47 -123t124 -50q90 0 177 66l87 -139q-114 -104 -271 -104q-155 0 -259 100.5t-104 249.5t104 249.5t259 100.5q157 0 271 -104l-87 -139q-87 66 -177 66q-77 0 -124 -50t-47 -123zM296 820q0 85 105 85q103 0 103 -85t-103 -85q-105 0 -105 85z" />
    <glyph glyph-name="cdotaccent" unicode="&#x10b;" horiz-adv-x="560" 
d="M36 262q0 121 77 198t211 77q120 0 210 -71l-83 -142q-50 39 -112 39q-52 0 -80 -28.5t-28 -72.5t28 -73.5t80 -29.5q60 0 112 40l83 -142q-90 -71 -210 -71q-134 0 -211 77.5t-77 198.5zM221 663q0 85 105 85q103 0 103 -85t-103 -85q-105 0 -105 85z" />
    <glyph glyph-name="Ccaron" unicode="&#x10c;" horiz-adv-x="703" 
d="M238 340q0 -73 47 -123t124 -50q90 0 177 66l87 -139q-114 -104 -271 -104q-155 0 -259 100.5t-104 249.5t104 249.5t259 100.5q157 0 271 -104l-87 -139q-87 66 -177 66q-77 0 -124 -50t-47 -123zM354 898l53 -73l53 73h138l-99 -162h-184l-100 162h139z" />
    <glyph glyph-name="ccaron" unicode="&#x10d;" horiz-adv-x="560" 
d="M36 262q0 121 77 198t211 77q120 0 210 -71l-83 -142q-50 39 -112 39q-52 0 -80 -28.5t-28 -72.5t28 -73.5t80 -29.5q60 0 112 40l83 -142q-90 -71 -210 -71q-134 0 -211 77.5t-77 198.5zM274 741l53 -73l53 73h138l-99 -162h-184l-100 162h139z" />
    <glyph glyph-name="Dcaron" unicode="&#x10e;" horiz-adv-x="789" 
d="M79 0v680h316q156 -1 253.5 -90.5t97.5 -250.5q0 -160 -97.5 -249.5t-253.5 -89.5h-316zM387 514h-116v-348h116q73 0 117 46t44 127q0 83 -44 129t-117 46zM296 898l53 -73l53 73h138l-99 -162h-184l-100 162h139z" />
    <glyph glyph-name="dcaron" unicode="&#x10f;" horiz-adv-x="789" 
d="M37 262q0 119 66.5 194.5t171.5 75.5q83 0 143 -58v236h192v-710h-192v50q-55 -60 -143 -60q-105 0 -171.5 76.5t-66.5 195.5zM233 262q0 -49 26.5 -77.5t71.5 -28.5q49 0 87 30v150q-38 30 -87 30q-44 0 -71 -28t-27 -76zM692 470l24 61q-61 17 -61 76q0 38 25 60t64 22
q107 0 107 -97q0 -67 -71 -154z" />
    <glyph glyph-name="Dcroat" unicode="&#x110;" horiz-adv-x="794" 
d="M84 383v297h316q156 -1 253.5 -90.5t97.5 -250.5q0 -160 -97.5 -249.5t-253.5 -89.5h-316v292h-61v91h61zM276 383h105v-91h-105v-126h116q73 0 118 46t45 127q0 82 -44.5 128.5t-118.5 46.5h-116v-131z" />
    <glyph glyph-name="dcroat" unicode="&#x111;" 
d="M37 262q0 119 66.5 194.5t171.5 75.5q83 0 143 -58v97h-91v92h91v47h192v-47h75v-92h-75v-571h-192v50q-55 -60 -143 -60q-105 0 -171.5 76.5t-66.5 195.5zM233 262q0 -49 26.5 -77.5t71.5 -28.5q49 0 87 30v150q-38 30 -87 30q-44 0 -71 -28t-27 -76z" />
    <glyph glyph-name="Emacron" unicode="&#x112;" horiz-adv-x="683" 
d="M633 0h-554v680h554v-167h-371v-90h298v-157h-298v-99h371v-167zM489 757h-265v112h265v-112z" />
    <glyph glyph-name="emacron" unicode="&#x113;" horiz-adv-x="592" 
d="M478 180l71 -123q-87 -71 -225 -71q-142 0 -214.5 75t-72.5 199q0 121 76.5 199t201.5 78q114 0 175.5 -62t61.5 -156q0 -62 -11 -99h-319q7 -39 37 -62.5t81 -23.5q34 0 74.5 14t63.5 32zM396 324v9q0 31 -20 49t-59 18q-38 0 -62.5 -21t-29.5 -55h171zM449 600h-265
v112h265v-112z" />
    <glyph glyph-name="Ebreve" unicode="&#x114;" horiz-adv-x="683" 
d="M633 0h-554v680h554v-167h-371v-90h298v-157h-298v-99h371v-167zM197 827l43 65q42 -46 115 -46q36 0 66.5 14t47.5 33l44 -66q-52 -88 -157 -88q-107 0 -159 88z" />
    <glyph glyph-name="ebreve" unicode="&#x115;" horiz-adv-x="592" 
d="M478 180l71 -123q-87 -71 -225 -71q-142 0 -214.5 75t-72.5 199q0 121 76.5 199t201.5 78q114 0 175.5 -62t61.5 -156q0 -62 -11 -99h-319q7 -39 37 -62.5t81 -23.5q34 0 74.5 14t63.5 32zM396 324v9q0 31 -20 49t-59 18q-38 0 -62.5 -21t-29.5 -55h171zM161 670l43 65
q42 -46 115 -46q36 0 66.5 14t47.5 33l44 -66q-52 -88 -157 -88q-107 0 -159 88z" />
    <glyph glyph-name="Edotaccent" unicode="&#x116;" horiz-adv-x="683" 
d="M633 0h-554v680h554v-167h-371v-90h298v-157h-298v-99h371v-167zM251 820q0 85 105 85q103 0 103 -85t-103 -85q-105 0 -105 85z" />
    <glyph glyph-name="edotaccent" unicode="&#x117;" horiz-adv-x="592" 
d="M478 180l71 -123q-87 -71 -225 -71q-142 0 -214.5 75t-72.5 199q0 121 76.5 199t201.5 78q114 0 175.5 -62t61.5 -156q0 -62 -11 -99h-319q7 -39 37 -62.5t81 -23.5q34 0 74.5 14t63.5 32zM396 324v9q0 31 -20 49t-59 18q-38 0 -62.5 -21t-29.5 -55h171zM215 663
q0 85 105 85q103 0 103 -85t-103 -85q-105 0 -105 85z" />
    <glyph glyph-name="Eogonek" unicode="&#x118;" horiz-adv-x="683" 
d="M633 0h-29q-33 -1 -52.5 -19t-19.5 -44q0 -47 46 -47q23 0 52 20l18 -77q-40 -26 -94 -26q-50 0 -79 28t-29 74q0 30 15 54t38 37h-420v680h554v-167h-371v-90h298v-157h-298v-99h371v-167z" />
    <glyph glyph-name="eogonek" unicode="&#x119;" horiz-adv-x="592" 
d="M478 180l71 -123q-67 -54 -171 -68q-32 -17 -32 -52q0 -47 46 -47q23 0 52 20l18 -77q-40 -26 -94 -26q-50 0 -79 28t-29 74q0 47 35 78q-128 8 -193 82t-65 191q0 121 76.5 199t201.5 78q114 0 175.5 -62t61.5 -156q0 -62 -11 -99h-319q7 -39 37 -62.5t81 -23.5
q34 0 74.5 14t63.5 32zM396 324v9q0 31 -20 49t-59 18q-38 0 -62.5 -21t-29.5 -55h171z" />
    <glyph glyph-name="Ecaron" unicode="&#x11a;" horiz-adv-x="683" 
d="M633 0h-554v680h554v-167h-371v-90h298v-157h-298v-99h371v-167zM303 898l53 -73l53 73h138l-99 -162h-184l-100 162h139z" />
    <glyph glyph-name="ecaron" unicode="&#x11b;" horiz-adv-x="592" 
d="M478 180l71 -123q-87 -71 -225 -71q-142 0 -214.5 75t-72.5 199q0 121 76.5 199t201.5 78q114 0 175.5 -62t61.5 -156q0 -62 -11 -99h-319q7 -39 37 -62.5t81 -23.5q34 0 74.5 14t63.5 32zM396 324v9q0 31 -20 49t-59 18q-38 0 -62.5 -21t-29.5 -55h171zM263 741l53 -73
l53 73h138l-99 -162h-184l-100 162h139z" />
    <glyph glyph-name="Gcircumflex" unicode="&#x11c;" horiz-adv-x="749" 
d="M697 402v-315q-49 -39 -134 -68t-161 -29q-156 0 -259 94.5t-103 254.5q0 161 103 256t259 95q153 0 269 -89l-87 -146q-73 58 -177 58q-75 0 -121.5 -46t-46.5 -128q0 -81 48 -126.5t128 -45.5q52 0 108 23v77h-150v135h324zM457 736l-53 73l-53 -73h-139l100 162h184
l99 -162h-138z" />
    <glyph glyph-name="gcircumflex" unicode="&#x11d;" horiz-adv-x="675" 
d="M38 280q0 106 67 179t170 73q88 0 142 -59v50h192v-445q0 -133 -81 -204.5t-200 -71.5q-113 0 -220 49l39 140q91 -43 165 -43q105 0 105 89v43q-57 -50 -142 -50q-103 0 -170 72.5t-67 177.5zM233 280q0 -39 26.5 -61.5t71.5 -22.5q49 0 86 31v109q-36 30 -86 30
q-46 0 -72 -23t-26 -63zM398 579l-53 73l-53 -73h-139l100 162h184l99 -162h-138z" />
    <glyph glyph-name="Gbreve" unicode="&#x11e;" horiz-adv-x="749" 
d="M697 402v-315q-49 -39 -134 -68t-161 -29q-156 0 -259 94.5t-103 254.5q0 161 103 256t259 95q153 0 269 -89l-87 -146q-73 58 -177 58q-75 0 -121.5 -46t-46.5 -128q0 -81 48 -126.5t128 -45.5q52 0 108 23v77h-150v135h324zM246 827l43 65q42 -46 115 -46q36 0 66.5 14
t47.5 33l44 -66q-52 -88 -157 -88q-107 0 -159 88z" />
    <glyph glyph-name="gbreve" unicode="&#x11f;" horiz-adv-x="675" 
d="M38 280q0 106 67 179t170 73q88 0 142 -59v50h192v-445q0 -133 -81 -204.5t-200 -71.5q-113 0 -220 49l39 140q91 -43 165 -43q105 0 105 89v43q-57 -50 -142 -50q-103 0 -170 72.5t-67 177.5zM233 280q0 -39 26.5 -61.5t71.5 -22.5q49 0 86 31v109q-36 30 -86 30
q-46 0 -72 -23t-26 -63zM188 670l43 65q42 -46 115 -46q36 0 66.5 14t47.5 33l44 -66q-52 -88 -157 -88q-107 0 -159 88z" />
    <glyph glyph-name="Gdotaccent" unicode="&#x120;" horiz-adv-x="749" 
d="M697 402v-315q-49 -39 -134 -68t-161 -29q-156 0 -259 94.5t-103 254.5q0 161 103 256t259 95q153 0 269 -89l-87 -146q-73 58 -177 58q-75 0 -121.5 -46t-46.5 -128q0 -81 48 -126.5t128 -45.5q52 0 108 23v77h-150v135h324zM299 820q0 85 105 85q103 0 103 -85
t-103 -85q-105 0 -105 85z" />
    <glyph glyph-name="gdotaccent" unicode="&#x121;" horiz-adv-x="675" 
d="M38 280q0 106 67 179t170 73q88 0 142 -59v50h192v-445q0 -133 -81 -204.5t-200 -71.5q-113 0 -220 49l39 140q91 -43 165 -43q105 0 105 89v43q-57 -50 -142 -50q-103 0 -170 72.5t-67 177.5zM233 280q0 -39 26.5 -61.5t71.5 -22.5q49 0 86 31v109q-36 30 -86 30
q-46 0 -72 -23t-26 -63zM251 663q0 85 105 85q103 0 103 -85t-103 -85q-105 0 -105 85z" />
    <glyph glyph-name="Gcommaaccent" unicode="&#x122;" horiz-adv-x="749" 
d="M697 402v-315q-49 -39 -134 -68t-161 -29q-156 0 -259 94.5t-103 254.5q0 161 103 256t259 95q153 0 269 -89l-87 -146q-73 58 -177 58q-75 0 -121.5 -46t-46.5 -128q0 -81 48 -126.5t128 -45.5q52 0 108 23v77h-150v135h324zM327 -271l24 61q-61 17 -61 76q0 38 25 60
t64 22q107 0 107 -97q0 -67 -71 -154z" />
    <glyph glyph-name="gcommaaccent" unicode="&#x123;" horiz-adv-x="675" 
d="M38 280q0 106 67 179t170 73q88 0 142 -59v50h192v-445q0 -133 -81 -204.5t-200 -71.5q-113 0 -220 49l39 140q91 -43 165 -43q105 0 105 89v43q-57 -50 -142 -50q-103 0 -170 72.5t-67 177.5zM233 280q0 -39 26.5 -61.5t71.5 -22.5q49 0 86 31v109q-36 30 -86 30
q-46 0 -72 -23t-26 -63zM401 788l-24 -61q61 -17 61 -76q0 -38 -25 -60t-64 -22q-107 0 -107 97q0 67 71 154z" />
    <glyph glyph-name="Hcircumflex" unicode="&#x124;" horiz-adv-x="826" 
d="M555 0v261h-284v-261h-192v680h192v-253h284v253h192v-680h-192zM465 736l-53 73l-53 -73h-139l100 162h184l99 -162h-138z" />
    <glyph glyph-name="hcircumflex" unicode="&#x125;" 
d="M67 710h192v-244q60 66 158 66q100 0 149 -64t49 -167v-301h-192v268q0 88 -77 88q-57 0 -87 -43v-313h-192v710zM386 752l-53 73l-53 -73h-139l100 162h184l99 -162h-138z" />
    <glyph glyph-name="Hbar" unicode="&#x126;" horiz-adv-x="832" 
d="M82 0v506h-44v91h44v83h192v-83h284v83h192v-83h47v-91h-47v-506h-192v261h-284v-261h-192zM274 506v-79h284v79h-284z" />
    <glyph glyph-name="hbar" unicode="&#x127;" 
d="M67 710h192v-47h102v-92h-102v-105q60 66 158 66q100 0 149 -64t49 -167v-301h-192v268q0 88 -77 88q-57 0 -87 -43v-313h-192v571h-64v92h64v47z" />
    <glyph glyph-name="Itilde" unicode="&#x128;" horiz-adv-x="350" 
d="M79 0v680h192v-680h-192zM25 747l-49 55q19 42 50.5 68.5t69.5 26.5q41 0 89.5 -28t69.5 -28q44 0 68 44l50 -55q-49 -96 -120 -96q-37 0 -88 28t-69 28q-41 0 -71 -43z" />
    <glyph glyph-name="itilde" unicode="&#x129;" horiz-adv-x="325" 
d="M10 590l-49 55q19 42 50.5 68.5t69.5 26.5q41 0 89.5 -28t69.5 -28q44 0 68 44l50 -55q-49 -96 -120 -96q-37 0 -88 28t-69 28q-41 0 -71 -43zM259 0h-192v523h192v-523z" />
    <glyph glyph-name="Imacron" unicode="&#x12a;" horiz-adv-x="350" 
d="M79 0v680h192v-680h-192zM307 757h-265v112h265v-112z" />
    <glyph glyph-name="imacron" unicode="&#x12b;" horiz-adv-x="325" 
d="M293 600h-265v112h265v-112zM259 0h-192v523h192v-523z" />
    <glyph glyph-name="Ibreve" unicode="&#x12c;" horiz-adv-x="350" 
d="M79 0v680h192v-680h-192zM16 827l43 65q42 -46 115 -46q36 0 66.5 14t47.5 33l44 -66q-52 -88 -157 -88q-107 0 -159 88z" />
    <glyph glyph-name="ibreve" unicode="&#x12d;" horiz-adv-x="325" 
d="M4 670l43 65q42 -46 115 -46q36 0 66.5 14t47.5 33l44 -66q-52 -88 -157 -88q-107 0 -159 88zM259 0h-192v523h192v-523z" />
    <glyph glyph-name="Iogonek" unicode="&#x12e;" horiz-adv-x="350" 
d="M79 0v680h192v-680h-45q-36 0 -57.5 -18t-21.5 -45q0 -47 46 -47q23 0 52 20l18 -77q-40 -26 -94 -26q-50 0 -79 28t-29 74q0 30 15 54t38 37h-35z" />
    <glyph glyph-name="iogonek" unicode="&#x12f;" horiz-adv-x="325" 
d="M67 0v523h192v-523h-33q-33 -1 -52.5 -19t-19.5 -44q0 -47 46 -47q23 0 52 20l18 -77q-40 -26 -94 -26q-50 0 -79 28t-29 74q0 30 15 54t38 37h-54zM59 663q0 85 105 85q102 0 102 -85t-102 -85q-105 0 -105 85z" />
    <glyph glyph-name="Idotaccent" unicode="&#x130;" horiz-adv-x="350" 
d="M79 0v680h192v-680h-192zM70 820q0 85 105 85q103 0 103 -85t-103 -85q-105 0 -105 85z" />
    <glyph glyph-name="dotlessi" unicode="&#x131;" horiz-adv-x="325" 
d="M259 0h-192v523h192v-523z" />
    <glyph glyph-name="IJ" unicode="&#x132;" horiz-adv-x="1008" 
d="M79 0v680h192v-680h-192zM743 680h192v-402q0 -133 -69.5 -210.5t-209.5 -77.5q-260 0 -277 279l189 17q4 -64 22.5 -95t66.5 -31q49 0 67.5 32.5t18.5 98.5v389z" />
    <glyph glyph-name="ij" unicode="&#x133;" horiz-adv-x="705" 
d="M59 663q0 85 105 85q102 0 102 -85t-102 -85q-105 0 -105 85zM67 0v523h192v-523h-192zM447 523h192v-456q0 -70 -22.5 -124t-53 -84t-74.5 -56l-115 112q73 53 73 138v470zM440 663q0 85 104 85q103 0 103 -85t-103 -85q-104 0 -104 85z" />
    <glyph glyph-name="Jcircumflex" unicode="&#x134;" horiz-adv-x="640" 
d="M376 680h192v-402q0 -133 -69.5 -210.5t-209.5 -77.5q-260 0 -277 279l189 17q4 -64 22.5 -95t66.5 -31q49 0 67.5 32.5t18.5 98.5v389zM519 736l-53 73l-53 -73h-139l100 162h184l99 -162h-138z" />
    <glyph glyph-name="jcircumflex" unicode="&#x135;" horiz-adv-x="325" 
d="M109 -197l-115 108q73 55 73 140v472h192v-456q0 -70 -22.5 -124t-53 -84t-74.5 -56zM216 579l-53 73l-53 -73h-139l100 162h184l99 -162h-138z" />
    <glyph glyph-name="Kcommaaccent" unicode="&#x136;" horiz-adv-x="741" 
d="M79 0v680h192v-258h68l181 258h197v-29l-227 -313l236 -318v-20h-214l-177 256h-64v-256h-192zM317 -271l24 61q-61 17 -61 76q0 38 25 60t64 22q107 0 107 -97q0 -67 -71 -154z" />
    <glyph glyph-name="kcommaaccent" unicode="&#x137;" horiz-adv-x="652" 
d="M622 523v-31l-183 -220l192 -240v-32h-207l-165 225v-225h-192v710h192v-401l159 214h204zM265 -271l24 61q-61 17 -61 76q0 38 25 60t64 22q107 0 107 -97q0 -67 -71 -154z" />
    <glyph glyph-name="kgreenlandic" unicode="&#x138;" horiz-adv-x="651" 
d="M622 523v-31l-184 -229l193 -231v-32h-207l-165 213v-213h-192v523h192v-224l159 224h204z" />
    <glyph glyph-name="Lacute" unicode="&#x139;" horiz-adv-x="612" 
d="M597 0h-518v680h192v-514h326v-166zM358 898l-110 -162h-158l80 162h188z" />
    <glyph glyph-name="lacute" unicode="&#x13a;" horiz-adv-x="360" 
d="M65 710h192v-514q0 -45 29 -45q21 0 50 12l5 -152q-66 -21 -134 -21q-69 0 -105.5 37t-36.5 121v562zM335 914l-110 -162h-158l80 162h188z" />
    <glyph glyph-name="Lcommaaccent" unicode="&#x13b;" horiz-adv-x="612" 
d="M597 0h-518v680h192v-514h326v-166zM267 -271l24 61q-61 17 -61 76q0 38 25 60t64 22q107 0 107 -97q0 -67 -71 -154z" />
    <glyph glyph-name="lcommaaccent" unicode="&#x13c;" horiz-adv-x="360" 
d="M65 710h192v-514q0 -45 29 -45q21 0 50 12l5 -152q-66 -21 -134 -21q-69 0 -105.5 37t-36.5 121v562zM128 -271l24 61q-61 17 -61 76q0 38 25 60t64 22q107 0 107 -97q0 -67 -71 -154z" />
    <glyph glyph-name="Lcaron" unicode="&#x13d;" horiz-adv-x="617" 
d="M597 0h-518v680h192v-514h326v-166zM407 470l24 61q-61 17 -61 76q0 38 25 60t64 22q107 0 107 -97q0 -67 -71 -154z" />
    <glyph glyph-name="lcaron" unicode="&#x13e;" horiz-adv-x="441" 
d="M65 710h192v-514q0 -45 29 -45q21 0 50 12l5 -152q-66 -21 -134 -21q-69 0 -105.5 37t-36.5 121v562zM339 470l24 61q-61 17 -61 76q0 38 25 60t64 22q107 0 107 -97q0 -67 -71 -154z" />
    <glyph glyph-name="Ldot" unicode="&#x13f;" horiz-adv-x="626" 
d="M597 0h-518v680h192v-514h326v-166zM358 393q0 44 24.5 67.5t70.5 23.5q44 0 69 -24t25 -67t-24.5 -66.5t-69.5 -23.5q-46 0 -70.5 23.5t-24.5 66.5z" />
    <glyph glyph-name="ldot" unicode="&#x140;" horiz-adv-x="487" 
d="M65 710h192v-514q0 -45 29 -45q21 0 50 12l5 -152q-66 -21 -134 -21q-69 0 -105.5 37t-36.5 121v562zM307 393q0 44 24.5 67.5t70.5 23.5q44 0 69 -24t25 -67t-24.5 -66.5t-69.5 -23.5q-46 0 -70.5 23.5t-24.5 66.5z" />
    <glyph glyph-name="Lslash" unicode="&#x141;" horiz-adv-x="615" 
d="M601 0h-519v235l-39 -19v150l39 19v295h192v-199l96 48v-149l-96 -48v-166h327v-166z" />
    <glyph glyph-name="lslash" unicode="&#x142;" horiz-adv-x="365" 
d="M341 163l5 -152q-66 -21 -134 -21q-69 0 -105.5 37t-36.5 121v98l-42 -21v149l42 21v315h192v-216l61 31v-150l-61 -31v-148q0 -45 29 -45q21 0 50 12z" />
    <glyph glyph-name="Nacute" unicode="&#x143;" horiz-adv-x="825" 
d="M580 0l-309 374v-374h-192v680h166l309 -375v375h192v-680h-166zM601 898l-110 -162h-158l80 162h188z" />
    <glyph glyph-name="nacute" unicode="&#x144;" 
d="M67 523h192v-58q59 67 158 67q100 0 149 -64t49 -167v-301h-192v268q0 88 -79 88q-55 0 -85 -43v-313h-192v523zM524 741l-110 -162h-158l80 162h188z" />
    <glyph glyph-name="Ncommaaccent" unicode="&#x145;" horiz-adv-x="825" 
d="M580 0l-309 374v-374h-192v680h166l309 -375v375h192v-680h-166zM342 -271l24 61q-61 17 -61 76q0 38 25 60t64 22q107 0 107 -97q0 -67 -71 -154z" />
    <glyph glyph-name="ncommaaccent" unicode="&#x146;" 
d="M67 523h192v-58q59 67 158 67q100 0 149 -64t49 -167v-301h-192v268q0 88 -79 88q-55 0 -85 -43v-313h-192v523zM278 -271l24 61q-61 17 -61 76q0 38 25 60t64 22q107 0 107 -97q0 -67 -71 -154z" />
    <glyph glyph-name="Ncaron" unicode="&#x147;" horiz-adv-x="825" 
d="M580 0l-309 374v-374h-192v680h166l309 -375v375h192v-680h-166zM361 898l53 -73l53 73h138l-99 -162h-184l-100 162h139z" />
    <glyph glyph-name="ncaron" unicode="&#x148;" 
d="M67 523h192v-58q59 67 158 67q100 0 149 -64t49 -167v-301h-192v268q0 88 -79 88q-55 0 -85 -43v-313h-192v523zM285 741l53 -73l53 73h138l-99 -162h-184l-100 162h139z" />
    <glyph glyph-name="napostrophe" unicode="&#x149;" horiz-adv-x="826" 
d="M217 523h192v-58q59 67 158 67q100 0 149 -64t49 -167v-301h-192v268q0 88 -79 88q-55 0 -85 -43v-313h-192v523zM33 471l24 61q-61 17 -61 76q0 38 25 60t64 22q107 0 107 -97q0 -67 -71 -154z" />
    <glyph glyph-name="Eng" unicode="&#x14a;" horiz-adv-x="825" 
d="M554 54l-283 320v-374h-192v680h166l309 -366v366h192v-609q0 -102 -40.5 -163.5t-109.5 -101.5l-115 109q73 53 73 139z" />
    <glyph glyph-name="eng" unicode="&#x14b;" horiz-adv-x="675" 
d="M423 55v213q0 88 -79 88q-55 0 -85 -43v-313h-192v523h192v-58q59 67 158 67q100 0 149 -64t49 -167v-230q0 -102 -41 -163.5t-109 -101.5l-116 109q74 53 74 140z" />
    <glyph glyph-name="Omacron" unicode="&#x14c;" horiz-adv-x="780" 
d="M40 339q0 151 100 251t249 100q151 0 251 -100t100 -251q0 -149 -100 -249t-251 -100q-149 0 -249 100t-100 249zM228 339q0 -71 46 -120t116 -49q71 0 116.5 48.5t45.5 120.5q0 73 -45.5 121.5t-116.5 48.5t-116.5 -48.5t-45.5 -121.5zM521 757h-265v112h265v-112z" />
    <glyph glyph-name="omacron" unicode="&#x14d;" horiz-adv-x="636" 
d="M35 260q0 119 80.5 198t201.5 79q123 0 203.5 -79t80.5 -198q0 -118 -80.5 -196t-203.5 -78q-121 0 -201.5 78t-80.5 196zM219 260q0 -42 27.5 -71.5t70.5 -29.5q44 0 71.5 29.5t27.5 71.5q0 44 -27.5 73t-71.5 29q-43 0 -70.5 -29.5t-27.5 -72.5zM449 600h-265v112h265
v-112z" />
    <glyph glyph-name="Obreve" unicode="&#x14e;" horiz-adv-x="780" 
d="M40 339q0 151 100 251t249 100q151 0 251 -100t100 -251q0 -149 -100 -249t-251 -100q-149 0 -249 100t-100 249zM228 339q0 -71 46 -120t116 -49q71 0 116.5 48.5t45.5 120.5q0 73 -45.5 121.5t-116.5 48.5t-116.5 -48.5t-45.5 -121.5zM231 827l43 65q42 -46 115 -46
q36 0 66.5 14t47.5 33l44 -66q-52 -88 -157 -88q-107 0 -159 88z" />
    <glyph glyph-name="obreve" unicode="&#x14f;" horiz-adv-x="636" 
d="M35 260q0 119 80.5 198t201.5 79q123 0 203.5 -79t80.5 -198q0 -118 -80.5 -196t-203.5 -78q-121 0 -201.5 78t-80.5 196zM219 260q0 -42 27.5 -71.5t70.5 -29.5q44 0 71.5 29.5t27.5 71.5q0 44 -27.5 73t-71.5 29q-43 0 -70.5 -29.5t-27.5 -72.5zM159 670l43 65
q42 -46 115 -46q36 0 66.5 14t47.5 33l44 -66q-52 -88 -157 -88q-107 0 -159 88z" />
    <glyph glyph-name="Ohungarumlaut" unicode="&#x150;" horiz-adv-x="780" 
d="M40 339q0 151 100 251t249 100q151 0 251 -100t100 -251q0 -149 -100 -249t-251 -100q-149 0 -249 100t-100 249zM228 339q0 -71 46 -120t116 -49q71 0 116.5 48.5t45.5 120.5q0 73 -45.5 121.5t-116.5 48.5t-116.5 -48.5t-45.5 -121.5zM471 898l-110 -162h-158l81 162
h187zM704 898l-111 -162h-157l80 162h188z" />
    <glyph glyph-name="ohungarumlaut" unicode="&#x151;" horiz-adv-x="636" 
d="M35 260q0 119 80.5 198t201.5 79q123 0 203.5 -79t80.5 -198q0 -118 -80.5 -196t-203.5 -78q-121 0 -201.5 78t-80.5 196zM219 260q0 -42 27.5 -71.5t70.5 -29.5q44 0 71.5 29.5t27.5 71.5q0 44 -27.5 73t-71.5 29q-43 0 -70.5 -29.5t-27.5 -72.5zM385 741l-110 -162
h-158l81 162h187zM618 741l-111 -162h-157l80 162h188z" />
    <glyph glyph-name="OE" unicode="&#x152;" horiz-adv-x="1133" 
d="M529 0v28q-71 -39 -144 -39q-149 0 -247 99.5t-98 249.5q0 151 98 251t247 100q80 0 144 -36v27h553v-167h-370v-92h297v-153h-297v-102h370v-166h-553zM226 338q0 -72 48 -121.5t124 -49.5q82 0 131 51v242q-52 50 -133 50q-75 0 -122.5 -49.5t-47.5 -122.5z" />
    <glyph glyph-name="oe" unicode="&#x153;" horiz-adv-x="1015" 
d="M964 223h-323q5 -41 36 -66t88 -25q32 0 72 14t63 32l71 -121q-87 -71 -225 -71q-150 0 -221 89q-78 -89 -208 -89q-121 0 -201.5 78t-80.5 196q0 119 80.5 198t201.5 79q134 0 210 -95q75 95 210 95q114 0 175.5 -62.5t61.5 -155.5q0 -64 -10 -96zM219 260
q0 -42 27.5 -71.5t70.5 -29.5q44 0 71.5 29.5t27.5 71.5q0 44 -27.5 73t-71.5 29q-43 0 -70.5 -29.5t-27.5 -72.5zM737 404q-37 0 -63 -22t-31 -60h183q0 11 -1 15q-4 33 -28 50t-60 17z" />
    <glyph glyph-name="Racute" unicode="&#x154;" horiz-adv-x="741" 
d="M79 0v680h344q116 0 184.5 -58.5t68.5 -169.5q0 -70 -40 -123t-106 -76l184 -212v-41h-198l-192 238h-53v-238h-192zM405 514h-134v-139h134q34 0 53.5 19.5t19.5 49.5t-19.5 50t-53.5 20zM531 898l-110 -162h-158l80 162h188z" />
    <glyph glyph-name="racute" unicode="&#x155;" horiz-adv-x="505" 
d="M67 0v523h192v-87q51 96 145 96q55 0 97 -26l-49 -170q-44 20 -90 20q-39 0 -66.5 -20.5t-36.5 -52.5v-283h-192zM454 741l-110 -162h-158l80 162h188z" />
    <glyph glyph-name="Rcommaaccent" unicode="&#x156;" horiz-adv-x="741" 
d="M79 0v680h344q116 0 184.5 -58.5t68.5 -169.5q0 -70 -40 -123t-106 -76l184 -212v-41h-198l-192 238h-53v-238h-192zM405 514h-134v-139h134q34 0 53.5 19.5t19.5 49.5t-19.5 50t-53.5 20zM319 -271l24 61q-61 17 -61 76q0 38 25 60t64 22q107 0 107 -97q0 -67 -71 -154z
" />
    <glyph glyph-name="rcommaaccent" unicode="&#x157;" horiz-adv-x="505" 
d="M67 0v523h192v-87q51 96 145 96q55 0 97 -26l-49 -170q-44 20 -90 20q-39 0 -66.5 -20.5t-36.5 -52.5v-283h-192zM97 -271l24 61q-61 17 -61 76q0 38 25 60t64 22q107 0 107 -97q0 -67 -71 -154z" />
    <glyph glyph-name="Rcaron" unicode="&#x158;" horiz-adv-x="741" 
d="M79 0v680h344q116 0 184.5 -58.5t68.5 -169.5q0 -70 -40 -123t-106 -76l184 -212v-41h-198l-192 238h-53v-238h-192zM405 514h-134v-139h134q34 0 53.5 19.5t19.5 49.5t-19.5 50t-53.5 20zM286 898l53 -73l53 73h138l-99 -162h-184l-100 162h139z" />
    <glyph glyph-name="rcaron" unicode="&#x159;" horiz-adv-x="505" 
d="M67 0v523h192v-87q51 96 145 96q55 0 97 -26l-49 -170q-44 20 -90 20q-39 0 -66.5 -20.5t-36.5 -52.5v-283h-192zM215 741l53 -73l53 73h138l-99 -162h-184l-100 162h139z" />
    <glyph glyph-name="Sacute" unicode="&#x15a;" horiz-adv-x="626" 
d="M45 49l45 168q100 -68 212 -68q89 0 89 54q0 33 -62 51l-108 31q-88 25 -130.5 71t-42.5 119q0 94 72 154t204 60q68 0 135 -16t112 -38l-54 -159q-97 54 -201 54q-74 0 -74 -45q0 -16 11.5 -26t38.5 -18l117 -34q94 -28 136 -75t42 -117q0 -100 -79 -162.5t-209 -62.5
q-70 0 -142.5 18.5t-111.5 40.5zM505 898l-110 -162h-158l80 162h188z" />
    <glyph glyph-name="sacute" unicode="&#x15b;" horiz-adv-x="517" 
d="M469 492l-47 -140q-74 40 -142 40q-42 0 -42 -29q0 -11 7 -16t25 -11l78 -23q73 -21 102.5 -59t29.5 -92q0 -76 -63 -124t-166 -48q-117 0 -209 45l38 139q94 -48 155 -48q51 0 51 26q0 20 -42 32l-69 19q-68 18 -98 55t-30 95q0 82 60 130.5t170 48.5q50 0 104.5 -12
t87.5 -28zM429 741l-110 -162h-158l80 162h188z" />
    <glyph glyph-name="Scircumflex" unicode="&#x15c;" horiz-adv-x="626" 
d="M45 49l45 168q100 -68 212 -68q89 0 89 54q0 33 -62 51l-108 31q-88 25 -130.5 71t-42.5 119q0 94 72 154t204 60q68 0 135 -16t112 -38l-54 -159q-97 54 -201 54q-74 0 -74 -45q0 -16 11.5 -26t38.5 -18l117 -34q94 -28 136 -75t42 -117q0 -100 -79 -162.5t-209 -62.5
q-70 0 -142.5 18.5t-111.5 40.5zM366 736l-53 73l-53 -73h-139l100 162h184l99 -162h-138z" />
    <glyph glyph-name="scircumflex" unicode="&#x15d;" horiz-adv-x="517" 
d="M469 492l-47 -140q-74 40 -142 40q-42 0 -42 -29q0 -11 7 -16t25 -11l78 -23q73 -21 102.5 -59t29.5 -92q0 -76 -63 -124t-166 -48q-117 0 -209 45l38 139q94 -48 155 -48q51 0 51 26q0 20 -42 32l-69 19q-68 18 -98 55t-30 95q0 82 60 130.5t170 48.5q50 0 104.5 -12
t87.5 -28zM313 579l-53 73l-53 -73h-139l100 162h184l99 -162h-138z" />
    <glyph glyph-name="Scedilla" unicode="&#x15e;" horiz-adv-x="627" 
d="M220 -98l28 91q-124 12 -202 56l45 168q100 -68 212 -68q89 0 89 54q0 33 -62 51l-108 31q-88 25 -130.5 71t-42.5 119q0 94 72 154t204 60q68 0 135 -16t112 -38l-54 -159q-97 54 -201 54q-74 0 -74 -45q0 -16 11.5 -26t38.5 -18l117 -34q94 -28 136 -75t42 -117
q0 -96 -73 -157.5t-195 -66.5l-13 -41q14 2 22 2q42 0 65.5 -19t23.5 -50q0 -38 -34 -59.5t-89 -21.5q-42 0 -82 10l15 58q38 -11 61 -11q47 0 47 21t-48 21q-11 0 -63 -4z" />
    <glyph glyph-name="scedilla" unicode="&#x15f;" horiz-adv-x="518" 
d="M169 -98l28 91q-87 9 -155 42l38 139q94 -48 155 -48q51 0 51 26q0 20 -42 32l-69 19q-68 18 -98 55t-30 95q0 82 60 130.5t170 48.5q50 0 104.5 -12t87.5 -28l-47 -140q-74 40 -142 40q-42 0 -42 -29q0 -11 7 -16t25 -11l78 -23q73 -21 102.5 -59t29.5 -92
q0 -72 -57.5 -119.5t-153.5 -51.5l-13 -41q14 2 22 2q42 0 65.5 -19t23.5 -50q0 -38 -34 -59.5t-89 -21.5q-42 0 -82 10l15 58q39 -11 61 -11q47 0 47 21t-48 21q-11 0 -63 -4z" />
    <glyph glyph-name="Scaron" unicode="&#x160;" horiz-adv-x="626" 
d="M45 49l45 168q100 -68 212 -68q89 0 89 54q0 33 -62 51l-108 31q-88 25 -130.5 71t-42.5 119q0 94 72 154t204 60q68 0 135 -16t112 -38l-54 -159q-97 54 -201 54q-74 0 -74 -45q0 -16 11.5 -26t38.5 -18l117 -34q94 -28 136 -75t42 -117q0 -100 -79 -162.5t-209 -62.5
q-70 0 -142.5 18.5t-111.5 40.5zM255 898l53 -73l53 73h138l-99 -162h-184l-100 162h139z" />
    <glyph glyph-name="scaron" unicode="&#x161;" horiz-adv-x="517" 
d="M469 492l-47 -140q-74 40 -142 40q-42 0 -42 -29q0 -11 7 -16t25 -11l78 -23q73 -21 102.5 -59t29.5 -92q0 -76 -63 -124t-166 -48q-117 0 -209 45l38 139q94 -48 155 -48q51 0 51 26q0 20 -42 32l-69 19q-68 18 -98 55t-30 95q0 82 60 130.5t170 48.5q50 0 104.5 -12
t87.5 -28zM206 741l53 -73l53 73h138l-99 -162h-184l-100 162h139z" />
    <glyph glyph-name="Tcommaaccent" unicode="&#x162;" horiz-adv-x="630" 
d="M605 513h-193v-513h-70l-18 -50q12 2 21 2q43 0 66.5 -19t23.5 -50q0 -38 -34.5 -59.5t-88.5 -21.5q-43 0 -82 10l15 58q37 -11 61 -11q46 0 46 21t-47 21q-12 0 -64 -4l-4 5l32 98h-49v513h-195v167h580v-167z" />
    <glyph glyph-name="tcommaaccent" unicode="&#x163;" horiz-adv-x="527" 
d="M213 -98l30 95q-128 30 -128 194v184h-85v148h95l23 133h159v-133h172v-148h-172v-145q0 -40 13 -57t40 -17q43 0 92 34l58 -145q-88 -52 -197 -55l-13 -40q14 2 22 2q42 0 65.5 -19t23.5 -50q0 -38 -34 -59.5t-89 -21.5q-42 0 -82 10l15 58q39 -11 61 -11q47 0 47 21
t-48 21q-11 0 -63 -4z" />
    <glyph glyph-name="Tcaron" unicode="&#x164;" horiz-adv-x="630" 
d="M605 513h-193v-513h-192v513h-195v167h580v-167zM262 898l53 -73l53 73h138l-99 -162h-184l-100 162h139z" />
    <glyph glyph-name="tcaron" unicode="&#x165;" horiz-adv-x="596" 
d="M146 656h159v-133h172v-148h-172v-145q0 -40 13 -57t40 -17q43 0 92 34l58 -145q-92 -55 -210 -55q-88 0 -136.5 51.5t-48.5 149.5v184h-85v148h95zM510 470l24 61q-61 17 -61 76q0 38 25 60t64 22q107 0 107 -97q0 -67 -71 -154z" />
    <glyph glyph-name="Tbar" unicode="&#x166;" horiz-adv-x="630" 
d="M605 513h-193v-169h86v-91h-86v-253h-192v253h-79v91h79v169h-195v167h580v-167z" />
    <glyph glyph-name="tbar" unicode="&#x167;" horiz-adv-x="527" 
d="M307 375v-57h96v-92h-96q1 -71 52 -71q42 0 92 34l59 -144q-92 -55 -215 -55q-84 0 -132 51.5t-48 149.5v35h-69v92h69v57h-85v148h98l22 133h157v-133h172v-148h-172z" />
    <glyph glyph-name="Utilde" unicode="&#x168;" horiz-adv-x="785" 
d="M262 680v-372q0 -67 33.5 -104.5t96.5 -37.5q64 0 98 38t34 105v371h192v-385q0 -129 -87 -217t-237 -88q-152 0 -237 84.5t-85 220.5v385h192zM242 747l-49 55q19 42 50.5 68.5t69.5 26.5q41 0 89.5 -28t69.5 -28q44 0 68 44l50 -55q-49 -96 -120 -96q-37 0 -88 28
t-69 28q-41 0 -71 -43z" />
    <glyph glyph-name="utilde" unicode="&#x169;" 
d="M609 0h-192v58q-61 -67 -158 -67q-100 0 -149 64t-49 167v301h192v-268q0 -88 76 -88q59 0 88 43v313h192v-523zM187 590l-49 55q19 42 50.5 68.5t69.5 26.5q41 0 89.5 -28t69.5 -28q44 0 68 44l50 -55q-49 -96 -120 -96q-37 0 -88 28t-69 28q-41 0 -71 -43z" />
    <glyph glyph-name="Umacron" unicode="&#x16a;" horiz-adv-x="785" 
d="M262 680v-372q0 -67 33.5 -104.5t96.5 -37.5q64 0 98 38t34 105v371h192v-385q0 -129 -87 -217t-237 -88q-152 0 -237 84.5t-85 220.5v385h192zM524 757h-265v112h265v-112z" />
    <glyph glyph-name="umacron" unicode="&#x16b;" 
d="M609 0h-192v58q-61 -67 -158 -67q-100 0 -149 64t-49 167v301h192v-268q0 -88 76 -88q59 0 88 43v313h192v-523zM469 600h-265v112h265v-112z" />
    <glyph glyph-name="Ubreve" unicode="&#x16c;" horiz-adv-x="785" 
d="M262 680v-372q0 -67 33.5 -104.5t96.5 -37.5q64 0 98 38t34 105v371h192v-385q0 -129 -87 -217t-237 -88q-152 0 -237 84.5t-85 220.5v385h192zM234 827l43 65q42 -46 115 -46q36 0 66.5 14t47.5 33l44 -66q-52 -88 -157 -88q-107 0 -159 88z" />
    <glyph glyph-name="ubreve" unicode="&#x16d;" 
d="M609 0h-192v58q-61 -67 -158 -67q-100 0 -149 64t-49 167v301h192v-268q0 -88 76 -88q59 0 88 43v313h192v-523zM177 670l43 65q42 -46 115 -46q36 0 66.5 14t47.5 33l44 -66q-52 -88 -157 -88q-107 0 -159 88z" />
    <glyph glyph-name="Uring" unicode="&#x16e;" horiz-adv-x="785" 
d="M262 680v-372q0 -67 33.5 -104.5t96.5 -37.5q64 0 98 38t34 105v371h192v-385q0 -129 -87 -217t-237 -88q-152 0 -237 84.5t-85 220.5v385h192zM294 787q0 41 29 69.5t69 28.5t69 -28.5t29 -69.5t-29 -69.5t-69 -28.5t-69 28.5t-29 69.5zM357 787q0 -15 10 -25t25 -10
t25 10t10 25t-10 25t-25 10t-25 -10t-10 -25z" />
    <glyph glyph-name="uring" unicode="&#x16f;" 
d="M609 0h-192v58q-61 -67 -158 -67q-100 0 -149 64t-49 167v301h192v-268q0 -88 76 -88q59 0 88 43v313h192v-523zM236 670q0 40 29 69t69 29t69 -29t29 -69t-29 -69t-69 -29t-69 29t-29 69zM299 670q0 -15 10 -25t25 -10t25 10t10 25t-10 25t-25 10t-25 -10t-10 -25z" />
    <glyph glyph-name="Uhungarumlaut" unicode="&#x170;" horiz-adv-x="785" 
d="M262 680v-372q0 -67 33.5 -104.5t96.5 -37.5q64 0 98 38t34 105v371h192v-385q0 -129 -87 -217t-237 -88q-152 0 -237 84.5t-85 220.5v385h192zM458 898l-110 -162h-158l81 162h187zM691 898l-111 -162h-157l80 162h188z" />
    <glyph glyph-name="uhungarumlaut" unicode="&#x171;" 
d="M609 0h-192v58q-61 -67 -158 -67q-100 0 -149 64t-49 167v301h192v-268q0 -88 76 -88q59 0 88 43v313h192v-523zM406 741l-110 -162h-158l81 162h187zM639 741l-111 -162h-157l80 162h188z" />
    <glyph glyph-name="Uogonek" unicode="&#x172;" horiz-adv-x="785" 
d="M261 680v-372q0 -67 34 -105.5t96 -38.5q63 0 97.5 39t34.5 106v371h192v-385q0 -110 -64 -192t-179 -105q-59 -18 -59 -61q0 -47 47 -47q20 0 51 20l17 -77q-36 -26 -97 -26q-47 0 -75.5 28t-28.5 74q0 51 40 82q-140 7 -219 90.5t-79 213.5v385h192z" />
    <glyph glyph-name="uogonek" unicode="&#x173;" 
d="M609 0h-30q-36 0 -57.5 -18t-21.5 -45q0 -47 46 -47q23 0 52 20l18 -77q-40 -26 -94 -26q-50 0 -79 28t-29 74q0 30 15 54t38 37h-50v58q-61 -67 -158 -67q-100 0 -149 64t-49 167v301h192v-268q0 -88 76 -88q59 0 88 43v313h192v-523z" />
    <glyph glyph-name="Wcircumflex" unicode="&#x174;" horiz-adv-x="1110" 
d="M646 0l-89 236l-95 -236h-209l-253 680h208l166 -465l100 249l-76 216h209l141 -432l153 432h210l-255 -680h-210zM607 736l-53 73l-53 -73h-139l100 162h184l99 -162h-138z" />
    <glyph glyph-name="wcircumflex" unicode="&#x175;" horiz-adv-x="1020" 
d="M801 523h209l-175 -523h-229l-95 310l-99 -310h-229l-168 523h209l78 -352l99 352h222l92 -352zM565 579l-53 73l-53 -73h-139l100 162h184l99 -162h-138z" />
    <glyph glyph-name="Ycircumflex" unicode="&#x176;" horiz-adv-x="694" 
d="M251 0v256l-253 411v13h214l135 -248l135 248h214v-13l-253 -410v-257h-192zM399 736l-53 73l-53 -73h-139l100 162h184l99 -162h-138z" />
    <glyph glyph-name="ycircumflex" unicode="&#x177;" horiz-adv-x="619" 
d="M413 522q32 0 96.5 0.5t95.5 0.5l-200 -506q-47 -118 -100 -166.5t-147 -48.5q-68 0 -120 34l26 141q48 -23 88 -23q27 0 41.5 12.5t25.5 37.5l8 16l-229 503h213l98 -314zM362 579l-53 73l-53 -73h-139l100 162h184l99 -162h-138z" />
    <glyph glyph-name="Ydieresis" unicode="&#x178;" horiz-adv-x="694" 
d="M251 0v256l-253 411v13h214l135 -248l135 248h214v-13l-253 -410v-257h-192zM120 818q0 80 97 80q96 0 96 -80t-96 -80q-97 0 -97 80zM379 818q0 80 98 80q94 0 94 -80t-94 -80q-98 0 -98 80z" />
    <glyph glyph-name="Zacute" unicode="&#x179;" horiz-adv-x="654" 
d="M51 132l304 382h-304v166h551v-132l-300 -382h300v-166h-551v132zM508 898l-110 -162h-158l80 162h188z" />
    <glyph glyph-name="zacute" unicode="&#x17a;" horiz-adv-x="534" 
d="M49 132l197 242h-197v149h436v-132l-194 -242h194v-149h-436v132zM448 741l-110 -162h-158l80 162h188z" />
    <glyph glyph-name="Zdotaccent" unicode="&#x17b;" horiz-adv-x="654" 
d="M51 132l304 382h-304v166h551v-132l-300 -382h300v-166h-551v132zM231 820q0 85 105 85q103 0 103 -85t-103 -85q-105 0 -105 85z" />
    <glyph glyph-name="zdotaccent" unicode="&#x17c;" horiz-adv-x="534" 
d="M49 132l197 242h-197v149h436v-132l-194 -242h194v-149h-436v132zM173 663q0 85 105 85q103 0 103 -85t-103 -85q-105 0 -105 85z" />
    <glyph glyph-name="Zcaron" unicode="&#x17d;" horiz-adv-x="654" 
d="M51 132l304 382h-304v166h551v-132l-300 -382h300v-166h-551v132zM278 898l53 -73l53 73h138l-99 -162h-184l-100 162h139z" />
    <glyph glyph-name="zcaron" unicode="&#x17e;" horiz-adv-x="534" 
d="M49 132l197 242h-197v149h436v-132l-194 -242h194v-149h-436v132zM214 741l53 -73l53 73h138l-99 -162h-184l-100 162h139z" />
    <glyph glyph-name="florin" unicode="&#x192;" horiz-adv-x="518" 
d="M467 310h-112v-319q0 -81 -46.5 -135t-133.5 -54q-83 0 -142 22l24 143q38 -16 64 -16q42 0 42 42v317h-106v70h106v151q0 81 46.5 135t133.5 54q80 0 142 -22l-24 -145q-43 18 -64 18q-42 0 -42 -44v-147h112v-70z" />
    <glyph glyph-name="Aringacute" unicode="&#x1fa;" horiz-adv-x="733" 
d="M-1 0l255 680h21q-6 15 -6 34q0 39 28 63t70 24t70 -24t28 -63q0 -20 -7 -34h22l253 -680h-194l-41 115h-265l-40 -115h-194zM367 491l-86 -235h170zM499 907l-77 -90h-113l56 90h134zM332 714q0 -26 35 -26t35 26t-35 26t-35 -26z" />
    <glyph glyph-name="aringacute" unicode="&#x1fb;" horiz-adv-x="584" 
d="M106 347l-32 147q103 38 213 38q129 0 183 -56.5t54 -164.5v-311h-187v47q-61 -57 -143 -57q-77 0 -119 41.5t-42 112.5q0 86 64 133t174 47q26 0 66 -4v1q0 31 -16.5 44.5t-52.5 13.5q-75 0 -162 -32zM204 651q0 39 28 63t70 24t70 -24t28 -63t-28 -62.5t-70 -23.5
t-70 23.5t-28 62.5zM434 844l-78 -89h-112l55 89h135zM217 166q0 -49 55 -49q31 0 65 21v81q-17 3 -33 3q-37 0 -62 -14.5t-25 -41.5zM267 651q0 -26 35 -26t35 26t-35 26t-35 -26z" />
    <glyph glyph-name="AEacute" unicode="&#x1fc;" horiz-adv-x="1070" 
d="M466 0v115h-224l-60 -115h-203l365 680h676v-167h-370v-92h297v-153h-297v-102h370v-166h-554zM311 256h155v301zM847 898l-110 -162h-158l80 162h188z" />
    <glyph glyph-name="aeacute" unicode="&#x1fd;" horiz-adv-x="891" 
d="M840 223h-314q4 -41 33 -66t84 -25q32 0 71.5 14t62.5 32l71 -121q-87 -71 -224 -71q-138 0 -197 80q-94 -76 -212 -76q-86 0 -134.5 41.5t-48.5 112.5q0 50 24 86.5t65.5 55.5t86.5 27.5t96 8.5q6 0 17 -0.5t16 -0.5q0 34 -17 46t-59 12q-33 0 -79.5 -11t-76.5 -24
l-32 154q108 34 209 34q76 0 115 -17t62 -47q69 69 157 69q112 0 173.5 -62.5t61.5 -155.5q0 -65 -11 -96zM620 404q-39 0 -63.5 -22.5t-27.5 -59.5h172v6q0 35 -20 55.5t-61 20.5zM216 165q0 -49 55 -49q40 0 67 25v82q-20 2 -35 2q-87 -2 -87 -60zM643 741l-110 -162h-158
l80 162h188z" />
    <glyph glyph-name="Oslashacute" unicode="&#x1fe;" horiz-adv-x="780" 
d="M572 898l-110 -162h-158l80 162h188zM40 339q0 151 100 251t249 100q107 0 191 -53l36 43h101v-13l-70 -85q93 -99 93 -243q0 -149 -100 -249t-251 -100q-101 0 -183 48l-31 -38h-103v14l64 79q-96 99 -96 246zM226 339q0 -55 29 -100l208 255q-34 17 -74 17
q-70 0 -116.5 -49.5t-46.5 -122.5zM553 339q0 54 -26 95l-204 -252q31 -14 66 -14q72 0 118 49.5t46 121.5z" />
    <glyph glyph-name="oslashacute" unicode="&#x1ff;" horiz-adv-x="636" 
d="M500 741l-110 -162h-158l80 162h188zM35 260q0 119 80.5 198t201.5 79q88 0 159 -44l25 30h69v-14l-46 -55q77 -79 77 -194q0 -118 -80.5 -196t-203.5 -78q-84 0 -151 39l-21 -25h-70v14l41 49q-81 79 -81 197zM219 260q0 -32 15 -56l125 149q-19 9 -42 9
q-43 0 -70.5 -29.5t-27.5 -72.5zM416 260q0 28 -12 50l-122 -146q14 -5 35 -5q44 0 71.5 29.5t27.5 71.5z" />
    <glyph glyph-name="Scommaaccent" unicode="&#x218;" horiz-adv-x="626" 
d="M45 49l45 168q100 -68 212 -68q89 0 89 54q0 33 -62 51l-108 31q-88 25 -130.5 71t-42.5 119q0 94 72 154t204 60q68 0 135 -16t112 -38l-54 -159q-97 54 -201 54q-74 0 -74 -45q0 -16 11.5 -26t38.5 -18l117 -34q94 -28 136 -75t42 -117q0 -100 -79 -162.5t-209 -62.5
q-70 0 -142.5 18.5t-111.5 40.5zM241 -271l24 61q-61 17 -61 76q0 38 25 60t64 22q107 0 107 -97q0 -67 -71 -154z" />
    <glyph glyph-name="scommaaccent" unicode="&#x219;" horiz-adv-x="517" 
d="M469 492l-47 -140q-74 40 -142 40q-42 0 -42 -29q0 -11 7 -16t25 -11l78 -23q73 -21 102.5 -59t29.5 -92q0 -76 -63 -124t-166 -48q-117 0 -209 45l38 139q94 -48 155 -48q51 0 51 26q0 20 -42 32l-69 19q-68 18 -98 55t-30 95q0 82 60 130.5t170 48.5q50 0 104.5 -12
t87.5 -28zM194 -271l24 61q-61 17 -61 76q0 38 25 60t64 22q107 0 107 -97q0 -67 -71 -154z" />
    <glyph glyph-name="uni021A" unicode="&#x21a;" horiz-adv-x="630" 
d="M605 513h-193v-513h-192v513h-195v167h580v-167zM247 -271l24 61q-61 17 -61 76q0 38 25 60t64 22q107 0 107 -97q0 -67 -71 -154z" />
    <glyph glyph-name="uni021B" unicode="&#x21b;" horiz-adv-x="525" 
d="M146 656h159v-133h172v-148h-172v-145q0 -40 13 -57t40 -17q43 0 92 34l58 -145q-92 -55 -210 -55q-88 0 -136.5 51.5t-48.5 149.5v184h-85v148h95zM220 -271l24 61q-61 17 -61 76q0 38 25 60t64 22q107 0 107 -97q0 -67 -71 -154z" />
    <glyph glyph-name="dotlessj" unicode="&#x237;" horiz-adv-x="325" 
d="M109 -197l-115 108q73 55 73 140v472h192v-456q0 -70 -22.5 -124t-53 -84t-74.5 -56z" />
    <glyph glyph-name="circumflex" unicode="&#x2c6;" horiz-adv-x="600" 
d="M360 579l-53 73l-53 -73h-139l100 162h184l99 -162h-138z" />
    <glyph glyph-name="caron" unicode="&#x2c7;" horiz-adv-x="600" 
d="M254 741l53 -73l53 73h138l-99 -162h-184l-100 162h139z" />
    <glyph glyph-name="breve" unicode="&#x2d8;" horiz-adv-x="600" 
d="M149 670l43 65q42 -46 115 -46q36 0 66.5 14t47.5 33l44 -66q-52 -88 -157 -88q-107 0 -159 88z" />
    <glyph glyph-name="dotaccent" unicode="&#x2d9;" horiz-adv-x="600" 
d="M203 663q0 85 105 85q103 0 103 -85t-103 -85q-105 0 -105 85z" />
    <glyph glyph-name="ring" unicode="&#x2da;" horiz-adv-x="600" 
d="M209 630q0 40 28.5 69t69.5 29t69.5 -29t28.5 -69t-28.5 -69t-69.5 -29t-69.5 29t-28.5 69zM272 630q0 -15 10 -25t25 -10t25 10t10 25t-10 25t-25 10t-25 -10t-10 -25z" />
    <glyph glyph-name="ogonek" unicode="&#x2db;" horiz-adv-x="600" 
d="M270 7l94 -7q-36 0 -57.5 -18t-21.5 -45q0 -47 46 -47q23 0 52 20l18 -77q-40 -26 -94 -26q-50 0 -79 28t-29 74q0 35 21 62t50 36z" />
    <glyph glyph-name="tilde" unicode="&#x2dc;" horiz-adv-x="600" 
d="M157 590l-49 55q19 42 50.5 68.5t69.5 26.5q41 0 89.5 -28t69.5 -28q44 0 68 44l50 -55q-49 -96 -120 -96q-37 0 -88 28t-69 28q-41 0 -71 -43z" />
    <glyph glyph-name="hungarumlaut" unicode="&#x2dd;" horiz-adv-x="600" 
d="M324 741l-110 -162h-158l81 162h187zM557 741l-111 -162h-157l80 162h188z" />
    <glyph glyph-name="uni0394" unicode="&#x394;" horiz-adv-x="733" 
d="M-1 0l256 680h226l252 -680h-734zM368 491l-127 -351h252z" />
    <glyph glyph-name="uni03A9" unicode="&#x3a9;" horiz-adv-x="793" 
d="M446 0v141q52 31 83 84t31 114q0 75 -44 123.5t-120 48.5q-75 0 -119 -49t-44 -123q0 -122 112 -198v-141h-280v148h92q-48 33 -79 94t-31 134q0 127 98.5 220.5t250.5 93.5t251.5 -93.5t99.5 -220.5q0 -72 -32 -133t-79 -95h90v-148h-280z" />
    <glyph glyph-name="uni03BC" unicode="&#x3bc;" horiz-adv-x="667" 
d="M259 523v-230q0 -73 13.5 -100.5t59.5 -27.5q50 0 76 32v326h192v-523h-192v43q-59 -52 -149 -53v-178h-192v711h192z" />
    <glyph glyph-name="pi" unicode="&#x3c0;" horiz-adv-x="763" 
d="M29 523h693v-148h-98v-180q0 -44 28 -44q9 0 21 3t19 5.5t8 3.5l6 -152q-3 -1 -19.5 -5.5t-50 -10t-64.5 -5.5q-140 0 -140 157v228h-112v-375h-192v375h-99v148z" />
    <glyph glyph-name="Wgrave" unicode="&#x1e80;" horiz-adv-x="1110" 
d="M646 0l-89 236l-95 -236h-209l-253 680h208l166 -465l100 249l-76 216h209l141 -432l153 432h210l-255 -680h-210zM490 736l-110 162h188l80 -162h-158z" />
    <glyph glyph-name="wgrave" unicode="&#x1e81;" horiz-adv-x="1020" 
d="M801 523h209l-175 -523h-229l-95 310l-99 -310h-229l-168 523h209l78 -352l99 352h222l92 -352zM443 579l-110 162h188l80 -162h-158z" />
    <glyph glyph-name="Wacute" unicode="&#x1e82;" horiz-adv-x="1110" 
d="M646 0l-89 236l-95 -236h-209l-253 680h208l166 -465l100 249l-76 216h209l141 -432l153 432h210l-255 -680h-210zM735 898l-110 -162h-158l80 162h188z" />
    <glyph glyph-name="wacute" unicode="&#x1e83;" horiz-adv-x="1020" 
d="M801 523h209l-175 -523h-229l-95 310l-99 -310h-229l-168 523h209l78 -352l99 352h222l92 -352zM698 741l-110 -162h-158l80 162h188z" />
    <glyph glyph-name="Wdieresis" unicode="&#x1e84;" horiz-adv-x="1110" 
d="M646 0l-89 236l-95 -236h-209l-253 680h208l166 -465l100 249l-76 216h209l141 -432l153 432h210l-255 -680h-210zM328 818q0 80 97 80q96 0 96 -80t-96 -80q-97 0 -97 80zM587 818q0 80 98 80q94 0 94 -80t-94 -80q-98 0 -98 80z" />
    <glyph glyph-name="wdieresis" unicode="&#x1e85;" horiz-adv-x="1020" 
d="M801 523h209l-175 -523h-229l-95 310l-99 -310h-229l-168 523h209l78 -352l99 352h222l92 -352zM287 661q0 80 97 80q96 0 96 -80t-96 -80q-97 0 -97 80zM546 661q0 80 98 80q94 0 94 -80t-94 -80q-98 0 -98 80z" />
    <glyph glyph-name="Ygrave" unicode="&#x1ef2;" horiz-adv-x="694" 
d="M251 0v256l-253 411v13h214l135 -248l135 248h214v-13l-253 -410v-257h-192zM273 736l-110 162h188l80 -162h-158z" />
    <glyph glyph-name="ygrave" unicode="&#x1ef3;" horiz-adv-x="619" 
d="M413 522q32 0 96.5 0.5t95.5 0.5l-200 -506q-47 -118 -100 -166.5t-147 -48.5q-68 0 -120 34l26 141q48 -23 88 -23q27 0 41.5 12.5t25.5 37.5l8 16l-229 503h213l98 -314zM234 579l-110 162h188l80 -162h-158z" />
    <glyph glyph-name="endash" unicode="&#x2013;" horiz-adv-x="640" 
d="M61 377h519v-149h-519v149z" />
    <glyph glyph-name="emdash" unicode="&#x2014;" horiz-adv-x="900" 
d="M61 377h779v-149h-779v149z" />
    <glyph glyph-name="quoteleft" unicode="&#x2018;" horiz-adv-x="303" 
d="M237 648l-41 -122q63 -22 63 -99q0 -51 -28.5 -80t-79.5 -29q-50 0 -79 29.5t-29 79.5q0 60 27 133t62 130z" />
    <glyph glyph-name="quoteright" unicode="&#x2019;" horiz-adv-x="301" 
d="M66 360l42 122q-62 20 -62 99q0 51 28 80t79 29t79.5 -29t28.5 -80q0 -60 -27 -132.5t-62 -130.5z" />
    <glyph glyph-name="quotesinglbase" unicode="&#x201a;" horiz-adv-x="312" 
d="M68 -132l42 122q-62 20 -62 99q0 51 28 80t79 29t79.5 -29t28.5 -80q0 -60 -27 -132.5t-62 -130.5z" />
    <glyph glyph-name="quotedblleft" unicode="&#x201c;" horiz-adv-x="520" 
d="M456 654l-36 -109q55 -17 55 -86q0 -44 -24.5 -69t-69.5 -25q-44 0 -68.5 25t-24.5 69q0 103 77 231zM214 654l-36 -109q54 -17 54 -86q0 -45 -24 -69.5t-69 -24.5q-44 0 -69 25t-25 69q0 102 78 231z" />
    <glyph glyph-name="quotedblright" unicode="&#x201d;" horiz-adv-x="517" 
d="M64 401l37 108q-55 16 -55 87q0 44 24 69t69 25q44 0 69 -25.5t25 -68.5q0 -53 -23 -117t-54 -115zM307 401l36 108q-55 17 -55 87q0 44 24.5 69t69.5 25q44 0 69 -25.5t25 -68.5q0 -53 -23.5 -117t-54.5 -115z" />
    <glyph glyph-name="quotedblbase" unicode="&#x201e;" horiz-adv-x="529" 
d="M68 -138l36 109q-55 17 -55 86q0 44 24.5 69t68.5 25q45 0 69.5 -25t24.5 -69q0 -53 -23.5 -117t-54.5 -114zM310 -138l36 109q-54 17 -54 86q0 45 24 69.5t69 24.5q44 0 69 -25t25 -69q0 -52 -23.5 -116t-54.5 -115z" />
    <glyph glyph-name="dagger" unicode="&#x2020;" horiz-adv-x="599" 
d="M568 329h-194v-517h-149v517h-195v149h195v232h149v-232h194v-149z" />
    <glyph glyph-name="daggerdbl" unicode="&#x2021;" horiz-adv-x="626" 
d="M582 29h-195v-217h-149v217h-194v149h194v151h-194v149h194v232h149v-232h195v-149h-195v-151h195v-149z" />
    <glyph glyph-name="bullet" unicode="&#x2022;" horiz-adv-x="441" 
d="M72 302q0 71 38.5 110.5t109.5 39.5t110 -39.5t39 -110.5q0 -72 -39 -110.5t-110 -38.5t-109.5 38.5t-38.5 110.5z" />
    <glyph glyph-name="ellipsis" unicode="&#x2026;" horiz-adv-x="869" 
d="M49 80q0 45 26 70.5t73 25.5t74 -25.5t27 -70.5q0 -46 -27 -70.5t-74 -24.5q-48 0 -73.5 24.5t-25.5 70.5zM335 80q0 45 26 70.5t73 25.5t74 -25.5t27 -70.5q0 -46 -27 -70.5t-74 -24.5q-48 0 -73.5 24.5t-25.5 70.5zM621 80q0 45 26 70.5t73 25.5t74 -25.5t27 -70.5
q0 -46 -27 -70.5t-74 -24.5q-48 0 -73.5 24.5t-25.5 70.5z" />
    <glyph glyph-name="perthousand" unicode="&#x2030;" horiz-adv-x="1348" 
d="M929 178q0 82 55 136t139 54q83 0 138.5 -54t55.5 -136q0 -81 -55.5 -134.5t-138.5 -53.5q-84 0 -139 53.5t-55 134.5zM1052 178q0 -30 20 -51t51 -21q30 0 49.5 21t19.5 51q0 31 -19.5 52t-49.5 21q-31 0 -51 -21t-20 -52zM509 178q0 82 55 136t139 54t139 -54t55 -136
q0 -81 -55 -134.5t-139 -53.5t-139 53.5t-55 134.5zM633 178q0 -30 19.5 -51t50.5 -21q30 0 49.5 21t19.5 51q0 31 -19.5 52t-49.5 21q-31 0 -50.5 -21t-19.5 -52zM226 14l362 666h109v-13l-361 -667h-110v14zM32 500q0 81 55 135.5t139 54.5t139 -54.5t55 -135.5
t-55 -134.5t-139 -53.5t-139 53.5t-55 134.5zM156 500q0 -30 19.5 -51t50.5 -21q30 0 49.5 21t19.5 51q0 31 -19.5 52t-49.5 21q-31 0 -50.5 -21t-19.5 -52z" />
    <glyph glyph-name="guilsinglleft" unicode="&#x2039;" horiz-adv-x="330" 
d="M38 283v36l164 209h14l70 -31l-89 -196l89 -194l-70 -32h-14z" />
    <glyph glyph-name="guilsinglright" unicode="&#x203a;" horiz-adv-x="330" 
d="M292 319v-36l-164 -208h-13l-70 30l88 196l-88 194l70 33h13z" />
    <glyph glyph-name="fraction" unicode="&#x2044;" horiz-adv-x="136" 
d="M-164 14l370 666h94v-13l-368 -667h-96v14z" />
    <glyph glyph-name="zerosuperior" unicode="&#x2070;" horiz-adv-x="380" 
d="M31 608q0 86 41 134t117 48q78 0 119 -48t41 -134t-41 -133.5t-119 -47.5q-76 0 -117 47.5t-41 133.5zM130 608q0 -87 59 -87q60 0 60 87q0 88 -60 88q-59 0 -59 -88z" />
    <glyph glyph-name="foursuperior" unicode="&#x2074;" horiz-adv-x="376" 
d="M351 489h-51v-57h-103v57h-179v66l143 229h139v-220h51v-75zM120 564h77v124z" />
    <glyph glyph-name="fivesuperior" unicode="&#x2075;" horiz-adv-x="335" 
d="M47 577l-4 4l17 203h232v-88h-145l-4 -44h12q149 0 149 -102q0 -60 -41.5 -91.5t-115.5 -31.5q-60 0 -123 21l25 84q43 -19 92 -19q27 0 42.5 9.5t15.5 25.5q0 29 -51 29h-101z" />
    <glyph glyph-name="sixsuperior" unicode="&#x2076;" horiz-adv-x="368" 
d="M209 703q-65 0 -73 -64q33 23 75 23q129 0 129 -108q0 -58 -40 -92.5t-104 -34.5q-79 0 -122 49t-43 133q0 83 43.5 132t122.5 49q63 0 126 -22l-26 -85q-47 20 -88 20zM195 588q-28 0 -58 -16q12 -52 59 -52q20 0 30.5 10t10.5 24q0 34 -42 34z" />
    <glyph glyph-name="sevensuperior" unicode="&#x2077;" horiz-adv-x="311" 
d="M52 441l129 255h-158v88h273v-70l-132 -282h-112v9z" />
    <glyph glyph-name="eightsuperior" unicode="&#x2078;" horiz-adv-x="375" 
d="M188 427q-78 0 -117.5 27.5t-39.5 74.5q0 70 71 87q-27 7 -43 27t-16 45q0 102 145 102q144 0 144 -102q0 -25 -16 -45t-43 -27q71 -16 71 -87q0 -47 -39.5 -74.5t-116.5 -27.5zM188 581q-26 0 -39.5 -10.5t-13.5 -25.5t14 -26t39 -11q24 0 38 11t14 26t-13.5 25.5
t-38.5 10.5zM188 709q-20 0 -31.5 -8.5t-11.5 -21.5q0 -31 43 -31q42 0 42 31q0 30 -42 30z" />
    <glyph glyph-name="ninesuperior" unicode="&#x2079;" horiz-adv-x="368" 
d="M159 513q63 0 73 64q-34 -23 -75 -23q-129 0 -129 107q0 59 40 94t104 35q78 0 121.5 -49.5t43.5 -132.5t-43.5 -132t-122.5 -49q-68 0 -125 22l26 84q45 -20 87 -20zM173 629q27 0 57 15q-10 52 -58 52q-20 0 -30.5 -10t-10.5 -25q0 -32 42 -32z" />
    <glyph glyph-name="zeroinferior" unicode="&#x2080;" horiz-adv-x="380" 
d="M31 76q0 86 40.5 134t117.5 48q78 0 119 -47.5t41 -134.5q0 -85 -41 -133t-119 -48q-76 0 -117 48t-41 133zM130 76q0 -87 59 -87q60 0 60 87q0 89 -60 89q-59 0 -59 -89z" />
    <glyph glyph-name="oneinferior" unicode="&#x2081;" horiz-adv-x="288" 
d="M7 162l155 90h75v-352h-104v236l-86 -51z" />
    <glyph glyph-name="twoinferior" unicode="&#x2082;" horiz-adv-x="354" 
d="M40 -100v76l127 95q40 29 40 60q0 14 -9.5 24t-26.5 10q-51 0 -51 -56l-93 17q2 62 40.5 97t105.5 35q68 0 104 -33t36 -87q0 -66 -76 -116l-48 -33h132v-89h-281z" />
    <glyph glyph-name="threeinferior" unicode="&#x2083;" horiz-adv-x="338" 
d="M72 119h76q43 0 43 27q0 25 -45 25q-43 0 -97 -18l-23 87q52 18 120 18q149 0 149 -101q0 -25 -16 -45t-43 -28q71 -18 71 -86q0 -48 -40.5 -75.5t-120.5 -27.5q-61 0 -118 19l25 85q41 -17 93 -17q55 0 55 31q0 28 -53 28h-76v78z" />
    <glyph glyph-name="fourinferior" unicode="&#x2084;" horiz-adv-x="375" 
d="M351 -43h-51v-57h-103v57h-179v66l143 229h139v-219h51v-76zM120 33h77v124z" />
    <glyph glyph-name="fiveinferior" unicode="&#x2085;" horiz-adv-x="335" 
d="M47 46l-5 3l18 203h232v-88h-146l-4 -44h13q149 0 149 -102q0 -60 -41.5 -91.5t-115.5 -31.5q-60 0 -123 21l25 84q41 -18 92 -18q57 0 57 34q0 30 -50 30h-101z" />
    <glyph glyph-name="sixinferior" unicode="&#x2086;" horiz-adv-x="367" 
d="M208 171q-65 0 -73 -63q33 23 75 23q128 0 128 -109q0 -58 -39.5 -92.5t-103.5 -34.5q-79 0 -122 49t-43 133t43 132.5t123 48.5q65 0 125 -22l-26 -84q-43 19 -87 19zM193 56q-27 0 -57 -15q10 -52 59 -52q19 0 30 9.5t11 23.5q0 34 -43 34z" />
    <glyph glyph-name="seveninferior" unicode="&#x2087;" horiz-adv-x="311" 
d="M52 -90l129 254h-158v88h273v-70l-132 -282h-112v10z" />
    <glyph glyph-name="eightinferior" unicode="&#x2088;" horiz-adv-x="374" 
d="M187 -105q-77 0 -116.5 28t-39.5 75q0 70 71 86q-27 7 -43 27.5t-16 45.5q0 101 144 101q145 0 145 -101q0 -25 -16.5 -45.5t-43.5 -27.5q72 -16 72 -86q0 -47 -39.5 -75t-117.5 -28zM187 49q-26 0 -39 -10.5t-13 -25.5t14 -26t38 -11q25 0 38.5 11t13.5 26q0 36 -52 36z
M187 177q-42 0 -42 -30q0 -31 42 -31t42 31q0 30 -42 30z" />
    <glyph glyph-name="nineinferior" unicode="&#x2089;" horiz-adv-x="368" 
d="M159 -18q63 0 73 63q-34 -23 -75 -23q-129 0 -129 108q0 58 40 93t104 35q78 0 121.5 -49t43.5 -133q0 -83 -43.5 -132t-122.5 -49q-68 0 -125 22l26 85q40 -20 87 -20zM173 97q27 0 57 15q-10 53 -58 53q-20 0 -30.5 -10t-10.5 -25q0 -33 42 -33z" />
    <glyph glyph-name="Euro" unicode="&#x20ac;" horiz-adv-x="621" 
d="M582 604l-67 -143q-22 24 -54.5 39t-61.5 15q-85 0 -107 -95h205l-32 -69h-181v-12v-29h163l-31 -69h-121q23 -76 98 -76q62 0 121 44l70 -158q-89 -61 -207 -61q-114 0 -187 65.5t-94 185.5h-53v69h46q-1 9 -1 29v12h-45v69h50q18 129 93 199.5t196 70.5q117 0 200 -86z
" />
    <glyph glyph-name="afii61289" unicode="&#x2113;" horiz-adv-x="447" 
d="M58 120l-30 56l81 56v254q0 203 172 203q134 0 134 -142q0 -101 -45 -186t-118 -146v-32q0 -43 14.5 -58t45.5 -15q27 0 66 21l-8 -120q-47 -21 -126 -21q-135 0 -135 138v26zM252 511v-213q91 89 91 249q0 66 -44 66q-47 0 -47 -102z" />
    <glyph glyph-name="uni2117" unicode="&#x2117;" horiz-adv-x="786" 
d="M43 339q0 151 100 251t249 100q151 0 251 -100t100 -251q0 -149 -100 -249t-251 -100q-149 0 -249 100t-100 249zM112 339q0 -122 79.5 -203t200.5 -81q122 0 202 81t80 203q0 123 -79.5 204.5t-202.5 81.5q-121 0 -200.5 -81.5t-79.5 -204.5zM269 169v340h182
q55 0 92 -33.5t37 -96.5q0 -58 -37.5 -92.5t-91.5 -34.5h-64v-83h-118zM434 408h-47v-56h47q11 0 18.5 8t7.5 20q0 11 -7.5 19.5t-18.5 8.5z" />
    <glyph glyph-name="trademark" unicode="&#x2122;" horiz-adv-x="827" 
d="M655 357v149l-72 -86h-17l-72 86v-149h-100v306h83l97 -112l98 112h83v-306h-100zM324 563h-81v-206h-100v206h-80v100h261v-100z" />
    <glyph glyph-name="Omega" unicode="&#x2126;" horiz-adv-x="796" 
d="M448 0v141q52 31 83 84t31 114q0 75 -44 123.5t-120 48.5q-75 0 -119 -49t-44 -123q0 -122 111 -198v-141h-279v148h92q-48 33 -79 94t-31 134q0 127 98.5 220.5t250.5 93.5t251.5 -93.5t99.5 -220.5q0 -72 -32 -133t-79 -95h90v-148h-280z" />
    <glyph glyph-name="estimated" unicode="&#x212e;" horiz-adv-x="645" 
d="M328 601q71 0 126 -25.5t87.5 -69.5t49 -98t16.5 -114v-26h-431v-169q58 -58 152 -58q130 0 184 104h66q-30 -73 -93 -115t-157 -42q-93 0 -157.5 45t-92.5 112.5t-28 148.5q0 82 28 149.5t92.5 112.5t157.5 45zM328 548q-96 0 -152 -58v-170h305v170q-56 58 -153 58z
" />
    <glyph glyph-name="onethird" unicode="&#x2153;" horiz-adv-x="850" 
d="M164 14l370 666h94v-13l-368 -667h-96v14zM28 589l155 91h74v-352h-103v235l-86 -51zM574 215h76q43 0 43 27q0 25 -45 25q-43 0 -97 -18l-23 87q52 18 120 18q149 0 149 -101q0 -25 -16 -45t-43 -28q71 -18 71 -86q0 -48 -40.5 -75.5t-120.5 -27.5q-61 0 -118 19l25 85
q41 -17 93 -17q55 0 55 31q0 28 -53 28h-76v78z" />
    <glyph glyph-name="twothirds" unicode="&#x2154;" horiz-adv-x="890" 
d="M212 14l370 666h94v-13l-368 -667h-96v14zM621 215h76q43 0 43 27q0 25 -45 25q-43 0 -97 -18l-23 87q52 18 120 18q149 0 149 -101q0 -25 -16 -45t-43 -28q71 -18 71 -86q0 -48 -40.5 -75.5t-120.5 -27.5q-61 0 -118 19l25 85q41 -17 93 -17q55 0 55 31q0 28 -53 28h-76
v78zM49 332v76l127 95q40 28 40 60q0 14 -9.5 23.5t-26.5 9.5q-50 0 -50 -56l-94 18q2 61 40.5 96.5t105.5 35.5q68 0 104 -33t36 -88q0 -65 -76 -116l-48 -32h132v-89h-281z" />
    <glyph glyph-name="oneeighth" unicode="&#x215b;" horiz-adv-x="850" 
d="M164 14l370 666h94v-13l-368 -667h-96v14zM652 -5q-77 0 -116.5 28t-39.5 75q0 70 71 86q-27 7 -43 27.5t-16 45.5q0 101 144 101q145 0 145 -101q0 -25 -16.5 -45.5t-43.5 -27.5q72 -16 72 -86q0 -47 -39.5 -75t-117.5 -28zM652 149q-26 0 -39 -10.5t-13 -25.5t14 -26
t38 -11q25 0 38.5 11t13.5 26q0 36 -52 36zM652 277q-42 0 -42 -30q0 -31 42 -31t42 31q0 30 -42 30zM27 593l155 91h74v-352h-103v235l-86 -51z" />
    <glyph glyph-name="threeeighths" unicode="&#x215c;" horiz-adv-x="875" 
d="M197 14l370 666h94v-13l-368 -667h-96v14zM685 -5q-77 0 -116.5 28t-39.5 75q0 70 71 86q-27 7 -43 27.5t-16 45.5q0 101 144 101q145 0 145 -101q0 -25 -16.5 -45.5t-43.5 -27.5q72 -16 72 -86q0 -47 -39.5 -75t-117.5 -28zM685 149q-26 0 -39 -10.5t-13 -25.5t14 -26
t38 -11q25 0 38.5 11t13.5 26q0 36 -52 36zM685 277q-42 0 -42 -30q0 -31 42 -31t42 31q0 30 -42 30zM82 551h76q43 0 43 27q0 25 -45 25t-97 -19l-23 87q55 19 120 19q149 0 149 -102q0 -25 -15.5 -44.5t-43.5 -27.5q71 -18 71 -87q0 -48 -40 -75t-121 -27q-61 0 -118 19
l25 85q44 -18 93 -18q55 0 55 32q0 27 -53 27h-76v79z" />
    <glyph glyph-name="fiveeighths" unicode="&#x215d;" horiz-adv-x="870" 
d="M192 14l370 666h94v-13l-368 -667h-96v14zM680 -5q-77 0 -116.5 28t-39.5 75q0 70 71 86q-27 7 -43 27.5t-16 45.5q0 101 144 101q145 0 145 -101q0 -25 -16.5 -45.5t-43.5 -27.5q72 -16 72 -86q0 -47 -39.5 -75t-117.5 -28zM680 149q-26 0 -39 -10.5t-13 -25.5t14 -26
t38 -11q25 0 38.5 11t13.5 26q0 36 -52 36zM680 277q-42 0 -42 -30q0 -31 42 -31t42 31q0 30 -42 30zM57 477l-4 4l17 203h232v-88h-145l-4 -44h12q149 0 149 -102q0 -60 -41.5 -91.5t-115.5 -31.5q-60 0 -123 21l25 84q43 -19 92 -19q27 0 42.5 9.5t15.5 25.5q0 29 -51 29
h-101z" />
    <glyph glyph-name="seveneighths" unicode="&#x215e;" horiz-adv-x="831" 
d="M153 14l370 666h94v-13l-368 -667h-96v14zM641 -5q-77 0 -116.5 28t-39.5 75q0 70 71 86q-27 7 -43 27.5t-16 45.5q0 101 144 101q145 0 145 -101q0 -25 -16.5 -45.5t-43.5 -27.5q72 -16 72 -86q0 -47 -39.5 -75t-117.5 -28zM641 149q-26 0 -39 -10.5t-13 -25.5t14 -26
t38 -11q25 0 38.5 11t13.5 26q0 36 -52 36zM641 277q-42 0 -42 -30q0 -31 42 -31t42 31q0 30 -42 30zM63 341l129 255h-158v88h273v-70l-132 -282h-112v9z" />
    <glyph glyph-name="arrowleft" unicode="&#x2190;" horiz-adv-x="714" 
d="M292 363h367v-136h-365l121 -116l-91 -94l-269 281l266 275l93 -96z" />
    <glyph glyph-name="arrowup" unicode="&#x2191;" horiz-adv-x="714" 
d="M424 360v-367h-136v365l-116 -121l-93 90l280 270l275 -266l-96 -93z" />
    <glyph glyph-name="arrowright" unicode="&#x2192;" horiz-adv-x="714" 
d="M422 228h-367v135h365l-121 116l91 94l269 -280l-266 -276l-93 96z" />
    <glyph glyph-name="arrowdown" unicode="&#x2193;" horiz-adv-x="714" 
d="M289 230v367h136v-365l115 121l94 -91l-280 -269l-275 266l95 93z" />
    <glyph glyph-name="uni2196" unicode="&#x2196;" horiz-adv-x="714" 
d="M359 389l259 -260l-95 -96l-259 259l4 -167l-131 -3l7 389l384 6l-2 -133z" />
    <glyph glyph-name="uni2197" unicode="&#x2197;" horiz-adv-x="714" 
d="M450 293l-259 -259l-97 95l259 259l-167 -4l-3 131l389 -8l6 -383l-133 2z" />
    <glyph glyph-name="uni2198" unicode="&#x2198;" horiz-adv-x="714" 
d="M355 201l-259 260l95 96l259 -258l-4 167l131 3l-8 -389l-383 -7l2 134z" />
    <glyph glyph-name="uni2199" unicode="&#x2199;" horiz-adv-x="714" 
d="M262 297l261 259l96 -95l-259 -259l167 4l3 -131l-389 7l-7 384l134 -2z" />
    <glyph glyph-name="partialdiff" unicode="&#x2202;" horiz-adv-x="617" 
d="M242 447q67 0 128 -41q-17 74 -68.5 123.5t-112.5 71.5l76 119q126 -20 216 -124.5t90 -254.5q0 -162 -74.5 -256.5t-212.5 -94.5q-112 0 -181 66.5t-69 179.5q0 92 55 151.5t153 59.5zM291 165q71 0 84 108q-48 30 -85 30q-31 0 -48 -18.5t-17 -49.5q0 -29 16.5 -49.5
t49.5 -20.5z" />
    <glyph glyph-name="Delta" unicode="&#x2206;" horiz-adv-x="786" 
d="M26 0l255 680h227l252 -680h-734zM394 491l-127 -351h253z" />
    <glyph glyph-name="product" unicode="&#x220f;" horiz-adv-x="741" 
d="M260 -188h-183v868h587v-868h-183v701h-221v-701z" />
    <glyph glyph-name="summation" unicode="&#x2211;" horiz-adv-x="574" 
d="M53 0v99l165 242l-167 244v95h470v-149h-240l123 -191l-122 -191h239v-149h-468z" />
    <glyph glyph-name="minus" unicode="&#x2212;" horiz-adv-x="624" 
d="M65 377h494v-149h-494v149z" />
    <glyph glyph-name="uni2215" unicode="&#x2215;" horiz-adv-x="442" 
d="M-11 14l370 666h94v-13l-368 -667h-96v14z" />
    <glyph glyph-name="uni2219" unicode="&#x2219;" horiz-adv-x="322" 
d="M52 293q0 50 28.5 78t80.5 28t81 -28t29 -78t-29 -77t-81 -27q-53 0 -81 27t-28 77z" />
    <glyph glyph-name="radical" unicode="&#x221a;" horiz-adv-x="648" 
d="M238 494l137 -282l164 505l101 -32l-226 -685h-120l-139 288l-93 -43l-62 124z" />
    <glyph glyph-name="infinity" unicode="&#x221e;" horiz-adv-x="803" 
d="M183 301q0 -26 14 -39.5t35 -13.5q22 0 50 26l29 27l-29 27q-26 26 -50 26q-21 0 -35 -13.5t-14 -39.5zM402 227l-42 -38q-39 -35 -72.5 -50t-77.5 -15q-63 0 -109.5 48.5t-46.5 128.5q0 81 46 129t110 48q83 0 150 -64l41 -38l42 38q37 34 71 49t78 15q64 0 110 -48
t46 -129t-46 -129t-110 -48q-44 0 -78 15t-71 50zM618 301q0 26 -13 39.5t-34 13.5q-22 0 -50 -26l-29 -27l29 -27q26 -26 50 -26q21 0 34 13.5t13 39.5z" />
    <glyph glyph-name="integral" unicode="&#x222b;" horiz-adv-x="468" 
d="M138 -7v538q0 81 46.5 135t133.5 54q78 0 142 -22l-24 -145q-43 18 -65 18q-41 0 -41 -44v-536q0 -81 -47 -135t-134 -54q-83 0 -142 22l25 143q38 -16 64 -16q42 0 42 42z" />
    <glyph glyph-name="approxequal" unicode="&#x2248;" horiz-adv-x="629" 
d="M527 519l42 -112q-46 -71 -139 -71q-41 0 -117 21t-109 21q-69 0 -103 -37l-38 118q43 66 134 66q47 0 125 -20.5t103 -20.5q67 0 102 35zM525 255l42 -112q-46 -71 -138 -71q-41 0 -117.5 20.5t-109.5 20.5q-70 0 -102 -36l-39 118q45 66 134 66q48 0 125.5 -21
t102.5 -21q67 0 102 36z" />
    <glyph glyph-name="notequal" unicode="&#x2260;" horiz-adv-x="622" 
d="M156 28l22 62h-115v149h169l47 127h-216v149h270l37 101l87 -32l-25 -69h125v-149h-180l-46 -127h226v-149h-280l-33 -93z" />
    <glyph glyph-name="lessequal" unicode="&#x2264;" horiz-adv-x="627" 
d="M62 180h494v-149h-494v149zM62 343v147l481 140h13v-135l-318 -75l318 -75v-136h-13z" />
    <glyph glyph-name="greaterequal" unicode="&#x2265;" horiz-adv-x="627" 
d="M71 180h494v-149h-494v149zM565 490v-147l-481 -134h-13v136l318 75l-318 75v135h13z" />
    <glyph glyph-name="lozenge" unicode="&#x25ca;" horiz-adv-x="595" 
d="M562 333l-206 -333h-118l-205 333l205 347h118zM403 333l-106 179l-105 -179l105 -172z" />
    <glyph glyph-name="commaaccent" unicode="&#xf6c3;" horiz-adv-x="600" 
d="M239 -271l24 61q-61 17 -61 76q0 38 25 60t64 22q107 0 107 -97q0 -67 -71 -154z" />
    <glyph glyph-name="uniF8FF" unicode="&#xf8ff;" horiz-adv-x="660" 
d="M74 720h512v-720h-512v720zM290 283h48q0 26 14 47t34 36t40 29.5t34 36t14 48.5q0 51 -36.5 85t-101.5 34q-39 0 -67 -14.5t-41.5 -37t-19 -43.5t-5.5 -41h47q0 40 21 66.5t65 26.5q41 0 64 -21.5t23 -54.5q0 -23 -21 -45t-45.5 -38t-45.5 -46t-21 -68zM279 194v-71h68
v71h-68z" />
    <glyph glyph-name="fi" unicode="&#xfb01;" horiz-adv-x="792" 
d="M440 355h-128v-355h-192v355h-87v148h87v24q0 83 48.5 138t142.5 55q74 0 138 -22l-28 -144q-36 17 -68 17q-41 0 -41 -45v-23h128v-148zM528 663q0 85 105 85q102 0 102 -85t-102 -85q-105 0 -105 85zM536 0v523h192v-523h-192z" />
    <glyph glyph-name="fl" unicode="&#xfb02;" horiz-adv-x="828" 
d="M440 355h-128v-355h-192v355h-87v148h87v24q0 83 48.5 138t142.5 55q74 0 138 -22l-28 -144q-36 17 -68 17q-41 0 -41 -45v-23h128v-148zM533 710h192v-514q0 -45 29 -45q21 0 50 12l5 -152q-66 -21 -134 -21q-69 0 -105.5 37t-36.5 121v562z" />
    <glyph glyph-name="commaaccent.alt" horiz-adv-x="600" 
d="M359 762l-24 -61q61 -17 61 -76q0 -38 -25 -60t-64 -22q-107 0 -107 97q0 67 71 154z" />
    <glyph glyph-name="zero.tf" horiz-adv-x="600" 
d="M26 339q0 165 71 258t202 93q132 0 203 -93t71 -258q0 -164 -71.5 -256.5t-202.5 -92.5t-202 92.5t-71 256.5zM213 339q0 -81 18.5 -127.5t67.5 -46.5q34 0 54 25t26.5 61t6.5 88q0 39 -3.5 68.5t-12.5 55t-27 39t-44 13.5q-49 0 -67.5 -47t-18.5 -129z" />
    <glyph glyph-name="one.tf" horiz-adv-x="600" 
d="M576 0h-519v166h178v304l-129 -64l-64 153l245 121h140v-514h149v-166z" />
    <glyph glyph-name="two.tf" horiz-adv-x="600" 
d="M56 0v142l223 185q66 56 66 119q0 29 -14.5 49t-41.5 20q-81 0 -83 -111l-172 34q2 117 70.5 184.5t187.5 67.5q123 0 187 -62.5t64 -164.5q0 -121 -128 -227l-86 -70h228v-166h-501z" />
    <glyph glyph-name="three.tf" horiz-adv-x="600" 
d="M121 420h141q82 0 82 57q0 50 -96 50q-72 0 -175 -36l-42 163q37 13 102.5 24.5t122.5 11.5q282 0 282 -194q0 -50 -30.5 -88t-84.5 -53q139 -36 139 -168q0 -91 -76 -144t-230 -53q-108 0 -222 39l46 158q85 -35 176 -35q53 0 81 17.5t28 47.5t-24.5 43.5t-78.5 13.5
h-141v146z" />
    <glyph glyph-name="four.tf" horiz-adv-x="600" 
d="M567 112h-70v-112h-192v112h-290v124l230 444h252v-427h70v-141zM182 253h123v236z" />
    <glyph glyph-name="five.tf" horiz-adv-x="600" 
d="M75 285l-7 7l33 388h432v-166h-272l-7 -90h23q277 0 277 -196q0 -118 -76.5 -178t-215.5 -60q-116 0 -229 42l47 157q81 -37 172 -37q50 0 78 18.5t28 53.5q0 61 -94 61h-189z" />
    <glyph glyph-name="six.tf" horiz-adv-x="600" 
d="M345 528q-58 0 -84.5 -30.5t-32.5 -89.5q54 39 119 39q110 0 166.5 -55t56.5 -156q0 -113 -69.5 -179.5t-180.5 -66.5q-138 0 -212.5 94.5t-74.5 256.5q0 160 75 254.5t214 94.5q118 0 217 -45l-48 -156q-73 39 -146 39zM311 303q-37 0 -83 -30q14 -108 83 -108
q33 0 50.5 20.5t17.5 50.5q0 67 -68 67z" />
    <glyph glyph-name="seven.tf" horiz-adv-x="600" 
d="M99 18l254 496h-311v166h524v-132l-257 -548h-210v18z" />
    <glyph glyph-name="eight.tf" horiz-adv-x="600" 
d="M300 -10q-135 0 -202 52.5t-67 144.5q0 137 113 168q-44 13 -68.5 52t-24.5 89q0 194 249 194q248 0 248 -194q0 -50 -24 -89t-67 -52q58 -16 85 -57t27 -111q0 -92 -67 -144.5t-202 -52.5zM300 283q-37 0 -55.5 -19.5t-18.5 -48.5q0 -31 18.5 -50.5t55.5 -19.5
t55.5 19.5t18.5 50.5q0 29 -18.5 48.5t-55.5 19.5zM300 538q-58 0 -58 -59q0 -58 58 -58q57 0 57 58q0 59 -57 59z" />
    <glyph glyph-name="nine.tf" horiz-adv-x="600" 
d="M254 152q57 0 83.5 30.5t32.5 88.5q-55 -38 -119 -38q-109 0 -165 55t-56 156q0 113 69 179.5t180 66.5q138 0 213 -95t75 -256q0 -160 -75.5 -254.5t-213.5 -94.5q-120 0 -219 45l49 156q73 -39 146 -39zM290 377q36 0 79 29q-15 109 -80 109q-31 0 -49.5 -20.5
t-18.5 -50.5q0 -33 18 -50t51 -17z" />
    <glyph glyph-name="Euro.tf" horiz-adv-x="600" 
d="M571 604l-67 -143q-22 24 -54.5 39t-61.5 15q-85 0 -107 -95h205l-32 -69h-181v-12v-29h163l-31 -69h-121q23 -76 98 -76q62 0 121 44l70 -158q-89 -61 -207 -61q-114 0 -187 65.5t-94 185.5h-53v69h46q-1 9 -1 29v12h-45v69h50q18 129 93 199.5t196 70.5q117 0 200 -86z
" />
    <glyph glyph-name="cent.tf" horiz-adv-x="600" 
d="M38 262q0 121 77 198t211 77q16 0 48 -4l30 110l67 -18l-30 -108q51 -17 95 -51l-83 -142q-25 20 -57 30l-55 -195q60 0 112 40l83 -142q-90 -71 -210 -71q-12 0 -32 2l-35 -127l-66 18l33 121q-90 26 -139 96t-49 166zM233 262q0 -58 42 -86l52 186q-45 -4 -69.5 -31.5
t-24.5 -68.5z" />
    <glyph glyph-name="sterling.tf" horiz-adv-x="600" 
d="M468 310h-147q11 -88 5 -143q40 -25 58 -25q30 0 40.5 23t7.5 71h142q14 -112 -22.5 -179t-128.5 -67q-35 0 -65 15.5t-73 48.5q-27 -34 -60.5 -49t-86.5 -15q-56 0 -87.5 34t-31.5 87q0 49 30.5 79t77.5 30q14 0 41 -6q-1 35 -19 96h-92v70h72q-15 57 -15 111
q0 88 56.5 143.5t168.5 55.5q60 0 124 -20t95 -45l-53 -165q-69 55 -126 55q-72 0 -72 -73q0 -22 5 -62h156v-70zM134 119q-14 0 -22.5 -8t-8.5 -19q0 -24 23 -24q25 0 35 43q-10 8 -27 8z" />
    <glyph glyph-name="florin.tf" horiz-adv-x="600" 
d="M508 310h-112v-319q0 -81 -46.5 -135t-133.5 -54q-83 0 -142 22l24 143q38 -16 64 -16q42 0 42 42v317h-106v70h106v151q0 81 46.5 135t133.5 54q80 0 142 -22l-24 -145q-43 18 -64 18q-42 0 -42 -44v-147h112v-70z" />
    <glyph glyph-name="yen.tf" horiz-adv-x="600" 
d="M527 115h-134v-115h-192v115h-133v69h133v56h-133v69h109l-160 358v13h197l83 -273l93 273h196v-13l-169 -358h110v-69h-134v-56h134v-69z" />
    <glyph glyph-name="dollar.tf" horiz-adv-x="600" 
d="M269 -129v119q-66 3 -130 20.5t-101 38.5l45 167q90 -59 186 -66v114l-82 23q-81 23 -120 67.5t-39 116.5q0 87 63 146.5t178 69.5v83h61v-81q136 -5 228 -54l-53 -165q-78 49 -175 59v-108l58 -17q95 -29 138.5 -74.5t43.5 -114.5q0 -91 -64.5 -152t-175.5 -71v-121h-61
zM222 483q0 -16 10.5 -25.5t36.5 -17.5v87q-47 -10 -47 -44zM374 203q0 27 -44 43v-92q44 12 44 49z" />
    <glyph glyph-name="zero.denom" horiz-adv-x="380" 
d="M31 176q0 86 40.5 134t117.5 48q78 0 119 -47.5t41 -134.5q0 -85 -41 -133t-119 -48q-76 0 -117 48t-41 133zM130 176q0 -87 59 -87q60 0 60 87q0 89 -60 89q-59 0 -59 -89z" />
    <glyph glyph-name="one.denom" horiz-adv-x="288" 
d="M7 262l155 90h75v-352h-104v236l-86 -51z" />
    <glyph glyph-name="two.denom" horiz-adv-x="354" 
d="M40 0v76l127 95q40 29 40 60q0 14 -9.5 24t-26.5 10q-51 0 -51 -56l-93 17q2 62 40.5 97t105.5 35q68 0 104 -33t36 -87q0 -66 -76 -116l-48 -33h132v-89h-281z" />
    <glyph glyph-name="three.denom" horiz-adv-x="338" 
d="M72 219h76q43 0 43 27q0 25 -45 25q-43 0 -97 -18l-23 87q52 18 120 18q149 0 149 -101q0 -25 -16 -45t-43 -28q71 -18 71 -86q0 -48 -40.5 -75.5t-120.5 -27.5q-61 0 -118 19l25 85q41 -17 93 -17q55 0 55 31q0 28 -53 28h-76v78z" />
    <glyph glyph-name="four.denom" horiz-adv-x="375" 
d="M351 57h-51v-57h-103v57h-179v66l143 229h139v-219h51v-76zM120 133h77v124z" />
    <glyph glyph-name="five.denom" horiz-adv-x="335" 
d="M47 146l-5 3l18 203h232v-88h-146l-4 -44h13q149 0 149 -102q0 -60 -41.5 -91.5t-115.5 -31.5q-60 0 -123 21l25 84q41 -18 92 -18q57 0 57 34q0 30 -50 30h-101z" />
    <glyph glyph-name="six.denom" horiz-adv-x="367" 
d="M209 271q-65 0 -73 -63q33 23 75 23q128 0 128 -109q0 -58 -39.5 -92.5t-103.5 -34.5q-79 0 -122 49t-43 133t43 132.5t123 48.5q65 0 125 -22l-26 -84q-43 19 -87 19zM194 156q-27 0 -57 -15q10 -52 59 -52q19 0 30 9.5t11 23.5q0 34 -43 34z" />
    <glyph glyph-name="seven.denom" horiz-adv-x="311" 
d="M52 10l129 254h-158v88h273v-70l-132 -282h-112v10z" />
    <glyph glyph-name="eight.denom" horiz-adv-x="374" 
d="M187 -5q-77 0 -116.5 28t-39.5 75q0 70 71 86q-27 7 -43 27.5t-16 45.5q0 101 144 101q145 0 145 -101q0 -25 -16.5 -45.5t-43.5 -27.5q72 -16 72 -86q0 -47 -39.5 -75t-117.5 -28zM187 149q-26 0 -39 -10.5t-13 -25.5t14 -26t38 -11q25 0 38.5 11t13.5 26q0 36 -52 36z
M187 277q-42 0 -42 -30q0 -31 42 -31t42 31q0 30 -42 30z" />
    <glyph glyph-name="nine.denom" horiz-adv-x="368" 
d="M159 82q63 0 73 63q-34 -23 -75 -23q-129 0 -129 108q0 58 40 93t104 35q78 0 121.5 -49t43.5 -133q0 -83 -43.5 -132t-122.5 -49q-68 0 -125 22l26 85q40 -20 87 -20zM173 197q27 0 57 15q-10 53 -58 53q-20 0 -30.5 -10t-10.5 -25q0 -33 42 -33z" />
    <glyph glyph-name="zero.num" horiz-adv-x="380" 
d="M31 503q0 86 41 134t117 48q78 0 119 -48t41 -134t-41 -133.5t-119 -47.5q-76 0 -117 47.5t-41 133.5zM130 503q0 -87 59 -87q60 0 60 87q0 88 -60 88q-59 0 -59 -88z" />
    <glyph glyph-name="one.num" horiz-adv-x="288" 
d="M7 589l155 91h74v-352h-103v235l-86 -51z" />
    <glyph glyph-name="two.num" horiz-adv-x="354" 
d="M40 327v76l127 95q40 28 40 60q0 14 -9.5 23.5t-26.5 9.5q-50 0 -50 -56l-94 18q2 61 40.5 96.5t105.5 35.5q68 0 104 -33t36 -88q0 -65 -76 -116l-48 -32h132v-89h-281z" />
    <glyph glyph-name="three.num" horiz-adv-x="338" 
d="M72 546h76q43 0 43 27q0 25 -45 25t-97 -19l-23 87q55 19 120 19q149 0 149 -102q0 -25 -15.5 -44.5t-43.5 -27.5q71 -18 71 -87q0 -48 -40 -75t-121 -27q-61 0 -118 19l25 85q44 -18 93 -18q55 0 55 32q0 27 -53 27h-76v79z" />
    <glyph glyph-name="four.num" horiz-adv-x="376" 
d="M351 385h-51v-57h-103v57h-179v66l143 229h139v-220h51v-75zM120 460h77v124z" />
    <glyph glyph-name="five.num" horiz-adv-x="335" 
d="M47 473l-4 4l17 203h232v-88h-145l-4 -44h12q149 0 149 -102q0 -60 -41.5 -91.5t-115.5 -31.5q-60 0 -123 21l25 84q43 -19 92 -19q27 0 42.5 9.5t15.5 25.5q0 29 -51 29h-101z" />
    <glyph glyph-name="six.num" horiz-adv-x="368" 
d="M208 598q-65 0 -73 -64q33 23 75 23q129 0 129 -108q0 -58 -40 -92.5t-104 -34.5q-79 0 -122 49t-43 133q0 83 43.5 132t122.5 49q63 0 126 -22l-26 -85q-48 20 -88 20zM194 483q-28 0 -58 -16q12 -52 59 -52q20 0 30.5 10t10.5 24q0 34 -42 34z" />
    <glyph glyph-name="seven.num" horiz-adv-x="312" 
d="M52 337l129 255h-158v88h273v-70l-132 -282h-112v9z" />
    <glyph glyph-name="eight.num" horiz-adv-x="375" 
d="M188 322q-78 0 -117.5 27.5t-39.5 74.5q0 70 71 87q-27 7 -43 27t-16 45q0 102 145 102q144 0 144 -102q0 -25 -16 -45t-43 -27q71 -16 71 -87q0 -47 -39.5 -74.5t-116.5 -27.5zM188 476q-26 0 -39.5 -10.5t-13.5 -25.5t14 -26t39 -11q24 0 38 11t14 26t-13.5 25.5
t-38.5 10.5zM188 604q-20 0 -31.5 -8.5t-11.5 -21.5q0 -31 43 -31q42 0 42 31q0 30 -42 30z" />
    <glyph glyph-name="nine.num" horiz-adv-x="368" 
d="M159 408q63 0 73 64q-34 -23 -75 -23q-129 0 -129 107q0 59 40 94t104 35q78 0 121.5 -49.5t43.5 -132.5t-43.5 -132t-122.5 -49q-68 0 -125 22l26 84q45 -20 87 -20zM173 524q27 0 57 15q-10 52 -58 52q-20 0 -30.5 -10t-10.5 -25q0 -32 42 -32z" />
    <glyph glyph-name="parenleft.case" horiz-adv-x="338" 
d="M312 738q-46 -72 -77 -175t-31 -222q0 -118 31.5 -221t76.5 -174l-107 -59q-62 56 -115 178t-53 277t53 277t115 178z" />
    <glyph glyph-name="parenright.case" horiz-adv-x="338" 
d="M27 738l106 59q62 -56 115 -178t53 -277t-53 -277t-115 -178l-106 59q45 71 76 174t31 221q0 119 -31 222t-76 175z" />
    <glyph glyph-name="hyphen.case" horiz-adv-x="542" 
d="M61 417h420v-149h-420v149z" />
    <glyph glyph-name="bracketleft.case" horiz-adv-x="372" 
d="M334 -108h-263v898h263v-149h-113v-600h113v-149z" />
    <glyph glyph-name="bracketright.case" horiz-adv-x="372" 
d="M38 790h263v-898h-263v149h114v600h-114v149z" />
    <glyph glyph-name="braceleft.case" horiz-adv-x="377" 
d="M334 790v-132h-43q-25 0 -36.5 -13t-11.5 -32q0 -23 22 -83.5t22 -94.5q0 -81 -91 -97q91 -16 91 -97q0 -34 -22 -94.5t-22 -83.5q0 -19 11.5 -32.5t36.5 -13.5h43v-132h-62q-90 0 -134 34t-44 105q0 38 22 103t22 99q0 32 -25.5 44.5t-84.5 12.5v110q110 0 110 69
q0 32 -22 95.5t-22 101.5q0 131 178 131h62z" />
    <glyph glyph-name="bar.case" horiz-adv-x="292" 
d="M71 -108v898h150v-898h-150z" />
    <glyph glyph-name="braceright.case" horiz-adv-x="376" 
d="M43 790h61q179 0 179 -131q0 -38 -22 -101.5t-22 -95.5q0 -36 26 -52.5t84 -16.5v-110q-60 0 -85 -12.5t-25 -44.5q0 -34 22 -99t22 -103q0 -139 -179 -139h-61v132h42q26 0 37.5 13.5t11.5 32.5q0 23 -22 83.5t-22 94.5q0 81 90 97q-90 16 -90 97q0 34 22 94.5t22 83.5
q0 18 -12 31.5t-37 13.5h-42v132z" />
    <glyph glyph-name="guilsinglleft.case" horiz-adv-x="330" 
d="M38 323v36l164 209h14l70 -31l-89 -196l89 -194l-70 -32h-14z" />
    <glyph glyph-name="guilsinglright.case" horiz-adv-x="330" 
d="M292 359v-36l-164 -208h-13l-70 30l88 196l-88 194l70 33h13z" />
    <glyph glyph-name="guillemotleft.case" horiz-adv-x="583" 
d="M38 323v36l164 209h14l70 -31l-89 -196l89 -194l-70 -32h-14zM291 323v36l164 209h13l70 -31l-88 -196l88 -194l-70 -32h-13z" />
    <glyph glyph-name="guillemotright.case" horiz-adv-x="583" 
d="M292 359v-36l-164 -208h-13l-70 30l88 196l-88 194l70 33h13zM544 359v-36l-163 -208h-14l-69 30l88 196l-89 194l70 33h14z" />
    <glyph glyph-name="endash.case" horiz-adv-x="640" 
d="M61 417h519v-149h-519v149z" />
    <glyph glyph-name="emdash.case" horiz-adv-x="900" 
d="M61 417h779v-149h-779v149z" />
    <glyph glyph-name="bullet.case" horiz-adv-x="439" 
d="M71 342q0 71 38.5 110.5t109.5 39.5t110 -39.5t39 -110.5q0 -72 -39 -110.5t-110 -38.5t-109.5 38.5t-38.5 110.5z" />
    <glyph glyph-name="periodcentered.case" horiz-adv-x="320" 
d="M51 333q0 50 28.5 78t80.5 28t81 -28t29 -78t-29 -77t-81 -27q-53 0 -81 27t-28 77z" />
    <glyph glyph-name="a.alt" 
d="M37 262q0 119 66.5 194.5t171.5 75.5q83 0 143 -58v49h192v-523h-192v50q-55 -60 -143 -60q-105 0 -171.5 76.5t-66.5 195.5zM233 262q0 -49 26.5 -77.5t71.5 -28.5q49 0 87 30v150q-38 30 -87 30q-44 0 -71 -28t-27 -76z" />
    <glyph glyph-name="agrave.alt" 
d="M37 262q0 119 66.5 194.5t171.5 75.5q83 0 143 -58v49h192v-523h-192v50q-55 -60 -143 -60q-105 0 -171.5 76.5t-66.5 195.5zM233 262q0 -49 26.5 -77.5t71.5 -28.5q49 0 87 30v150q-38 30 -87 30q-44 0 -71 -28t-27 -76zM288 579l-110 162h188l80 -162h-158z" />
    <glyph glyph-name="aacute.alt" 
d="M37 262q0 119 66.5 194.5t171.5 75.5q83 0 143 -58v49h192v-523h-192v50q-55 -60 -143 -60q-105 0 -171.5 76.5t-66.5 195.5zM233 262q0 -49 26.5 -77.5t71.5 -28.5q49 0 87 30v150q-38 30 -87 30q-44 0 -71 -28t-27 -76zM529 741l-110 -162h-158l80 162h188z" />
    <glyph glyph-name="acircumflex.alt" 
d="M37 262q0 119 66.5 194.5t171.5 75.5q83 0 143 -58v49h192v-523h-192v50q-55 -60 -143 -60q-105 0 -171.5 76.5t-66.5 195.5zM233 262q0 -49 26.5 -77.5t71.5 -28.5q49 0 87 30v150q-38 30 -87 30q-44 0 -71 -28t-27 -76zM401 579l-53 73l-53 -73h-139l100 162h184
l99 -162h-138z" />
    <glyph glyph-name="atilde.alt" 
d="M37 262q0 119 66.5 194.5t171.5 75.5q83 0 143 -58v49h192v-523h-192v50q-55 -60 -143 -60q-105 0 -171.5 76.5t-66.5 195.5zM233 262q0 -49 26.5 -77.5t71.5 -28.5q49 0 87 30v150q-38 30 -87 30q-44 0 -71 -28t-27 -76zM206 590l-49 55q19 42 50.5 68.5t69.5 26.5
q41 0 89.5 -28t69.5 -28q44 0 68 44l50 -55q-49 -96 -120 -96q-37 0 -88 28t-69 28q-41 0 -71 -43z" />
    <glyph glyph-name="adieresis.alt" 
d="M37 262q0 119 66.5 194.5t171.5 75.5q83 0 143 -58v49h192v-523h-192v50q-55 -60 -143 -60q-105 0 -171.5 76.5t-66.5 195.5zM233 262q0 -49 26.5 -77.5t71.5 -28.5q49 0 87 30v150q-38 30 -87 30q-44 0 -71 -28t-27 -76zM128 661q0 80 97 80q96 0 96 -80t-96 -80
q-97 0 -97 80zM387 661q0 80 98 80q94 0 94 -80t-94 -80q-98 0 -98 80z" />
    <glyph glyph-name="amacron.alt" 
d="M37 262q0 119 66.5 194.5t171.5 75.5q83 0 143 -58v49h192v-523h-192v50q-55 -60 -143 -60q-105 0 -171.5 76.5t-66.5 195.5zM233 262q0 -49 26.5 -77.5t71.5 -28.5q49 0 87 30v150q-38 30 -87 30q-44 0 -71 -28t-27 -76zM484 600h-265v112h265v-112z" />
    <glyph glyph-name="abreve.alt" 
d="M37 262q0 119 66.5 194.5t171.5 75.5q83 0 143 -58v49h192v-523h-192v50q-55 -60 -143 -60q-105 0 -171.5 76.5t-66.5 195.5zM233 262q0 -49 26.5 -77.5t71.5 -28.5q49 0 87 30v150q-38 30 -87 30q-44 0 -71 -28t-27 -76zM191 670l43 65q42 -46 115 -46q36 0 66.5 14
t47.5 33l44 -66q-52 -88 -157 -88q-107 0 -159 88z" />
    <glyph glyph-name="aring.alt" 
d="M37 262q0 119 66.5 194.5t171.5 75.5q83 0 143 -58v49h192v-523h-192v50q-55 -60 -143 -60q-105 0 -171.5 76.5t-66.5 195.5zM233 262q0 -49 26.5 -77.5t71.5 -28.5q49 0 87 30v150q-38 30 -87 30q-44 0 -71 -28t-27 -76zM253 670q0 40 28.5 69t69.5 29t69.5 -29
t28.5 -69t-28.5 -69t-69.5 -29t-69.5 29t-28.5 69zM316 670q0 -15 10 -25t25 -10t25 10t10 25t-10 25t-25 10t-25 -10t-10 -25z" />
    <glyph glyph-name="aringacute.alt" 
d="M473 844l-77 -89h-112l55 89h134zM244 651q0 39 28 63t70 24t70 -24t28 -63t-28 -62.5t-70 -23.5t-70 23.5t-28 62.5zM307 651q0 -26 35 -26q34 0 34 26t-34 26q-35 0 -35 -26zM37 262q0 119 66.5 194.5t171.5 75.5q83 0 143 -58v49h192v-523h-192v50q-55 -60 -143 -60
q-105 0 -171.5 76.5t-66.5 195.5zM233 262q0 -49 26.5 -77.5t71.5 -28.5q49 0 87 30v150q-38 30 -87 30q-44 0 -71 -28t-27 -76z" />
    <glyph glyph-name="aogonek.alt" 
d="M37 262q0 119 66.5 194.5t171.5 75.5q83 0 143 -58v49h192v-523h-39q-33 -1 -52.5 -19t-19.5 -44q0 -47 46 -47q23 0 52 20l18 -77q-40 -26 -94 -26q-50 0 -79 28t-29 74q0 30 15 54t38 37h-48v50q-55 -60 -143 -60q-105 0 -171.5 76.5t-66.5 195.5zM233 262
q0 -49 26.5 -77.5t71.5 -28.5q49 0 87 30v150q-38 30 -87 30q-44 0 -71 -28t-27 -76z" />
    <glyph glyph-name="g.alt" horiz-adv-x="668" 
d="M403 523h192v-427q0 -77 -25.5 -136t-67 -92t-89 -49.5t-97.5 -16.5q-79 0 -124.5 36t-45.5 99q0 37 21 66t55 43q-81 16 -130.5 78t-49.5 156q0 111 61 181.5t165 70.5q82 0 135 -55v46zM403 194v142q-36 30 -76 30q-41 0 -65.5 -23.5t-24.5 -62.5q0 -42 26 -64t69 -22
h71zM403 37h-9q-50 0 -79 -18.5t-29 -44.5q0 -38 41 -38q31 0 53.5 27t22.5 65v9z" />
    <glyph glyph-name="y.alt" horiz-adv-x="627" 
d="M27 523h210l89 -318l97 318h192l-178 -502q-44 -127 -96.5 -173t-143.5 -46q-74 0 -118 38t-44 105q0 57 38.5 101t113.5 53zM187 -64q25 0 37 16t21 53l3 15q-99 0 -99 -51q0 -16 10.5 -24.5t27.5 -8.5z" />
    <glyph glyph-name="gcircumflex.alt" horiz-adv-x="655" 
d="M403 523h192v-427q0 -77 -25.5 -136t-67 -92t-89 -49.5t-97.5 -16.5q-79 0 -124.5 36t-45.5 99q0 37 21 66t55 43q-81 16 -130.5 78t-49.5 156q0 111 61 181.5t165 70.5q82 0 135 -55v46zM403 194v142q-36 30 -76 30q-41 0 -65.5 -23.5t-24.5 -62.5q0 -42 26 -64t69 -22
h71zM403 37h-9q-50 0 -79 -18.5t-29 -44.5q0 -38 41 -38q31 0 53.5 27t22.5 65v9zM399 579l-53 73l-53 -73h-139l100 162h184l99 -162h-138z" />
    <glyph glyph-name="gbreve.alt" horiz-adv-x="655" 
d="M185 670l43 65q42 -46 115 -46q36 0 66.5 14t47.5 33l44 -66q-52 -88 -157 -88q-107 0 -159 88zM403 523h192v-427q0 -77 -25.5 -136t-67 -92t-89 -49.5t-97.5 -16.5q-79 0 -124.5 36t-45.5 99q0 37 21 66t55 43q-81 16 -130.5 78t-49.5 156q0 111 61 181.5t165 70.5
q82 0 135 -55v46zM403 194v142q-36 30 -76 30q-41 0 -65.5 -23.5t-24.5 -62.5q0 -42 26 -64t69 -22h71zM403 37h-9q-50 0 -79 -18.5t-29 -44.5q0 -38 41 -38q31 0 53.5 27t22.5 65v9z" />
    <glyph glyph-name="gdotaccent.alt" horiz-adv-x="655" 
d="M403 523h192v-427q0 -77 -25.5 -136t-67 -92t-89 -49.5t-97.5 -16.5q-79 0 -124.5 36t-45.5 99q0 37 21 66t55 43q-81 16 -130.5 78t-49.5 156q0 111 61 181.5t165 70.5q82 0 135 -55v46zM403 194v142q-36 30 -76 30q-41 0 -65.5 -23.5t-24.5 -62.5q0 -42 26 -64t69 -22
h71zM403 37h-9q-50 0 -79 -18.5t-29 -44.5q0 -38 41 -38q31 0 53.5 27t22.5 65v9zM248 663q0 85 105 85q103 0 103 -85t-103 -85q-105 0 -105 85z" />
    <glyph glyph-name="gcommaaccent.alt" horiz-adv-x="655" 
d="M403 523h192v-427q0 -77 -25.5 -136t-67 -92t-89 -49.5t-97.5 -16.5q-79 0 -124.5 36t-45.5 99q0 37 21 66t55 43q-81 16 -130.5 78t-49.5 156q0 111 61 181.5t165 70.5q82 0 135 -55v46zM403 194v142q-36 30 -76 30q-41 0 -65.5 -23.5t-24.5 -62.5q0 -42 26 -64t69 -22
h71zM403 37h-9q-50 0 -79 -18.5t-29 -44.5q0 -38 41 -38q31 0 53.5 27t22.5 65v9zM398 788l-24 -61q61 -17 61 -76q0 -38 -25 -60t-64 -22q-107 0 -107 97q0 67 71 154z" />
    <glyph glyph-name="yacute.alt" horiz-adv-x="620" 
d="M511 741l-110 -162h-158l80 162h188zM27 523h210l89 -318l97 318h192l-178 -502q-44 -127 -96.5 -173t-143.5 -46q-74 0 -118 38t-44 105q0 57 38.5 101t113.5 53zM187 -64q25 0 37 16t21 53l3 15q-99 0 -99 -51q0 -16 10.5 -24.5t27.5 -8.5z" />
    <glyph glyph-name="ycircumflex.alt" horiz-adv-x="620" 
d="M27 523h210l89 -318l97 318h192l-178 -502q-44 -127 -96.5 -173t-143.5 -46q-74 0 -118 38t-44 105q0 57 38.5 101t113.5 53zM187 -64q25 0 37 16t21 53l3 15q-99 0 -99 -51q0 -16 10.5 -24.5t27.5 -8.5zM376 579l-53 73l-53 -73h-139l100 162h184l99 -162h-138z" />
    <glyph glyph-name="ydieresis.alt" horiz-adv-x="620" 
d="M27 523h210l89 -318l97 318h192l-178 -502q-44 -127 -96.5 -173t-143.5 -46q-74 0 -118 38t-44 105q0 57 38.5 101t113.5 53zM187 -64q25 0 37 16t21 53l3 15q-99 0 -99 -51q0 -16 10.5 -24.5t27.5 -8.5zM105 661q0 80 97 80q96 0 96 -80t-96 -80q-97 0 -97 80zM364 661
q0 80 98 80q94 0 94 -80t-94 -80q-98 0 -98 80z" />
    <glyph glyph-name="ygrave.alt" horiz-adv-x="620" 
d="M256 579l-110 162h188l80 -162h-158zM27 523h210l89 -318l97 318h192l-178 -502q-44 -127 -96.5 -173t-143.5 -46q-74 0 -118 38t-44 105q0 57 38.5 101t113.5 53zM187 -64q25 0 37 16t21 53l3 15q-99 0 -99 -51q0 -16 10.5 -24.5t27.5 -8.5z" />
    </font>
</defs>
</svg>
