<?xml version="1.0" standalone="no"?>
<!DOCTYPE svg PUBLIC "-//W3C//DTD SVG 1.1//EN" "http://www.w3.org/Graphics/SVG/1.1/DTD/svg11.dtd" >
<svg>
<metadata>
Created by FontForge 20110222 at Fri Jun  6 02:51:16 2014
 By deploy user
Copyright (c) 2012 by Hannes von Doehren. All rights reserved.
</metadata>
<defs>
<font id="PlutoSansRegular" horiz-adv-x="668" >
  <font-face 
    font-family="Pluto Sans Regular"
    font-weight="400"
    font-stretch="normal"
    units-per-em="1000"
    panose-1="2 0 0 0 0 0 0 0 0 0"
    ascent="750"
    descent="-250"
    x-height="523"
    cap-height="680"
    bbox="-154 -263 1231 907"
    underline-thickness="50"
    underline-position="0"
    unicode-range="U+0020-FB02"
  />
<missing-glyph horiz-adv-x="612" 
d="M50 720h512v-720h-512v720zM266 283h48q0 26 14 47t34 36t40 29.5t34 36t14 48.5q0 51 -36.5 85t-101.5 34q-39 0 -67 -14.5t-41.5 -37t-19 -43.5t-5.5 -41h47q0 40 21 66.5t65 26.5q41 0 64 -21.5t23 -54.5q0 -23 -21 -45t-45.5 -38t-45.5 -46t-21 -68zM255 194v-71h68
v71h-68z" />
    <glyph glyph-name=".notdef" horiz-adv-x="612" 
d="M50 720h512v-720h-512v720zM266 283h48q0 26 14 47t34 36t40 29.5t34 36t14 48.5q0 51 -36.5 85t-101.5 34q-39 0 -67 -14.5t-41.5 -37t-19 -43.5t-5.5 -41h47q0 40 21 66.5t65 26.5q41 0 64 -21.5t23 -54.5q0 -23 -21 -45t-45.5 -38t-45.5 -46t-21 -68zM255 194v-71h68
v71h-68z" />
    <glyph glyph-name=".null" horiz-adv-x="0" 
 />
    <glyph glyph-name=".null" horiz-adv-x="0" 
 />
    <glyph glyph-name="nonmarkingreturn" horiz-adv-x="333" 
 />
    <glyph glyph-name="space" unicode=" " horiz-adv-x="240" 
 />
    <glyph glyph-name="exclam" unicode="!" horiz-adv-x="286" 
d="M105 213l-15 467h105l-15 -467h-75zM73 58q0 70 70 70q34 0 52.5 -18t18.5 -52q0 -70 -71 -70q-70 0 -70 70z" />
    <glyph glyph-name="quotedbl" unicode="&#x22;" horiz-adv-x="448" 
d="M160 680l-5 -247h-74l-4 247h83zM371 680l-4 -247h-74l-5 247h83z" />
    <glyph glyph-name="numbersign" unicode="#" horiz-adv-x="698" 
d="M349 9l37 148h-172l-39 -157h-80v9l37 148h-89v79h109l52 208h-84v79h104l40 157h79v-8l-38 -149h174l40 157h79v-8l-38 -149h97v-79h-116l-52 -208h91v-79h-111l-39 -157h-81v9zM286 444l-52 -208h172l53 208h-173z" />
    <glyph glyph-name="dollar" unicode="$" horiz-adv-x="618" 
d="M278 -129v119q-128 6 -217 59l25 99q86 -55 192 -62v213l-74 19q-154 39 -154 173q0 78 58 132.5t170 63.5v82h65v-81q124 -6 213 -53l-31 -98q-73 45 -182 55v-203l41 -11q93 -26 138.5 -68t45.5 -112q0 -85 -61.5 -139.5t-163.5 -65.5v-122h-65zM157 499q0 -62 92 -85
l29 -8v185q-60 -6 -90.5 -31t-30.5 -61zM460 190q0 34 -29.5 55.5t-87.5 36.5v-193q54 8 85.5 34.5t31.5 66.5z" />
    <glyph glyph-name="percent" unicode="%" horiz-adv-x="868" 
d="M471 166q0 76 50.5 127t128.5 51t129 -51t51 -127t-51 -126t-129 -50t-128.5 50t-50.5 126zM552 166q0 -42 27.5 -70.5t70.5 -28.5t71 28.5t28 70.5q0 43 -28 71.5t-71 28.5t-70.5 -28.5t-27.5 -71.5zM208 9l354 671h91v-8l-354 -672h-91v9zM38 512q0 76 50.5 127
t128.5 51t129 -51t51 -127t-51 -126t-129 -50t-128.5 50t-50.5 126zM119 512q0 -42 27.5 -70.5t70.5 -28.5t71 28.5t28 70.5t-28 71t-71 29t-70.5 -28.5t-27.5 -71.5z" />
    <glyph glyph-name="ampersand" unicode="&#x26;" horiz-adv-x="752" 
d="M633 385l81 -53q-43 -120 -114 -200l127 -117v-15h-137l-66 63q-99 -73 -226 -73q-109 0 -171.5 51t-62.5 141q0 66 40 108t111 71q-41 40 -61.5 76t-20.5 83q0 73 56 121.5t154 48.5q92 0 152.5 -47.5t60.5 -120.5t-40.5 -115.5t-111.5 -67.5l-21 -8l148 -136
q66 77 102 190zM308 80q78 0 148 48l-174 167q-54 -20 -84 -44.5t-30 -62.5q0 -49 38 -78.5t102 -29.5zM234 514q0 -21 14 -45t27 -37t39 -37l51 18q47 17 68 39.5t21 58.5q0 38 -31 63.5t-80 25.5q-53 0 -81 -24t-28 -62z" />
    <glyph glyph-name="quotesingle" unicode="'" horiz-adv-x="236" 
d="M160 680l-5 -247h-74l-4 247h83z" />
    <glyph glyph-name="parenleft" unicode="(" horiz-adv-x="308" 
d="M269 680q-47 -67 -84.5 -174.5t-37.5 -244.5q0 -136 37.5 -243.5t84.5 -175.5l-61 -35q-55 56 -104.5 176.5t-49.5 278.5q0 157 49.5 277t104.5 177z" />
    <glyph glyph-name="parenright" unicode=")" horiz-adv-x="308" 
d="M39 680l61 36q55 -58 104.5 -177.5t49.5 -276.5q0 -158 -49.5 -278t-104.5 -177l-61 35q47 67 84.5 175t37.5 244q0 138 -37.5 245.5t-84.5 173.5z" />
    <glyph glyph-name="asterisk" unicode="*" horiz-adv-x="497" 
d="M108 341l79 123l-136 33l22 80l139 -44l-5 147h83l-5 -148l139 45l22 -80l-139 -34l81 -121l-64 -45l-77 127l-74 -126z" />
    <glyph glyph-name="plus" unicode="+" horiz-adv-x="568" 
d="M325 536v-192h192v-83h-192v-192h-83v192h-192v83h192v192h83z" />
    <glyph glyph-name="comma" unicode="," horiz-adv-x="279" 
d="M76 -147l46 135q-54 11 -54 66q0 35 18.5 54t51.5 19q34 0 53 -20t19 -53q0 -46 -25 -115t-49 -110z" />
    <glyph glyph-name="hyphen" unicode="-" horiz-adv-x="539" 
d="M77 344h385v-83h-385v83z" />
    <glyph glyph-name="period" unicode="." horiz-adv-x="279" 
d="M69 58q0 70 70 70q34 0 52.5 -18t18.5 -52q0 -70 -71 -70q-70 0 -70 70z" />
    <glyph glyph-name="slash" unicode="/" horiz-adv-x="508" 
d="M31 9l355 671h91v-8l-354 -672h-92v9z" />
    <glyph glyph-name="zero" unicode="0" horiz-adv-x="710" 
d="M63 339q0 163 73 257t218 94q146 0 220 -94t74 -257q0 -161 -74 -255t-220 -94q-145 0 -218 94t-73 255zM164 339q0 -115 45 -184t145 -69q102 0 147.5 69t45.5 184q0 117 -45.5 186t-147.5 69q-100 0 -145 -69.5t-45 -185.5z" />
    <glyph glyph-name="one" unicode="1" horiz-adv-x="488" 
d="M17 532l292 148h78v-680h-104v562l-227 -109z" />
    <glyph glyph-name="two" unicode="2" horiz-adv-x="638" 
d="M232 91h350v-91h-513v79l277 209q58 44 84 85t26 90q0 57 -36.5 94t-106.5 37q-79 0 -120.5 -43t-42.5 -115l-95 17q2 109 70 173t190 64q120 0 183.5 -63t63.5 -156q0 -70 -30 -126t-107 -112z" />
    <glyph glyph-name="three" unicode="3" horiz-adv-x="632" 
d="M144 304v92h164q64 0 99 28.5t35 72.5q0 49 -43 76t-113 27q-112 0 -202 -45l-26 89q104 46 226 46q126 0 195 -47.5t69 -135.5q0 -56 -31.5 -98.5t-86.5 -53.5q142 -37 142 -170q0 -90 -76.5 -142.5t-211.5 -52.5q-108 0 -226 44l26 88q97 -43 200 -43q80 0 130.5 32.5
t50.5 88.5q0 104 -157 104h-164z" />
    <glyph glyph-name="four" unicode="4" horiz-adv-x="685" 
d="M646 141h-132v-129h-99v129h-384v72l352 455l32 -1v1h99v-440h132v-87zM139 228h276v352z" />
    <glyph glyph-name="five" unicode="5" horiz-adv-x="628" 
d="M91 332l-5 5l29 343h434v-91h-347l-14 -179h103q132 0 206 -46.5t74 -144.5q0 -114 -80.5 -171.5t-208.5 -57.5q-122 0 -235 47l28 87q93 -45 202 -45q81 0 134 34t53 104q0 115 -179 115h-194z" />
    <glyph glyph-name="six" unicode="6" horiz-adv-x="688" 
d="M382 601q-103 0 -157 -64.5t-59 -175.5q87 92 218 92q118 0 183.5 -59t65.5 -163q0 -108 -74.5 -174.5t-189.5 -66.5q-145 0 -226.5 95t-81.5 256q0 158 82 253.5t228 95.5q73 0 136 -18.5t97 -40.5l-32 -85q-80 55 -190 55zM369 367q-111 0 -197 -99q15 -85 65 -133.5
t132 -48.5q71 0 116 41.5t45 103.5q0 67 -44 101.5t-117 34.5z" />
    <glyph glyph-name="seven" unicode="7" horiz-adv-x="549" 
d="M121 10l289 579h-380v91h497v-75l-291 -605h-115v10z" />
    <glyph glyph-name="eight" unicode="8" horiz-adv-x="686" 
d="M343 -10q-132 0 -207 52.5t-75 142.5q0 142 158 170q-62 9 -98.5 52.5t-36.5 99.5q0 88 68 135.5t191 47.5q122 0 190 -47.5t68 -135.5q0 -56 -36 -99.5t-98 -52.5q158 -28 158 -170q0 -90 -75 -142.5t-207 -52.5zM344 304q-89 0 -133.5 -29.5t-44.5 -78.5
q0 -54 49 -85.5t128 -31.5t128 31.5t49 85.5q0 50 -43.5 79t-132.5 29zM343 603q-72 0 -113.5 -25.5t-41.5 -75.5q0 -44 38 -72.5t118 -28.5q78 0 116 28.5t38 72.5q0 50 -42 75.5t-113 25.5z" />
    <glyph glyph-name="nine" unicode="9" horiz-adv-x="688" 
d="M116 134q80 -55 189 -55q103 0 157 64t59 175q-86 -91 -216 -91q-118 0 -184.5 59t-66.5 163q0 108 75 174.5t190 66.5q146 0 226.5 -95t80.5 -256q0 -159 -81.5 -254t-227.5 -95q-73 0 -136 18.5t-97 40.5zM319 312q115 0 197 101q-16 84 -66 132.5t-131 48.5
q-71 0 -116 -41.5t-45 -103.5q0 -67 44 -102t117 -35z" />
    <glyph glyph-name="colon" unicode=":" horiz-adv-x="292" 
d="M76 468q0 33 18 51t51 18t51.5 -18t18.5 -51t-18.5 -51t-51.5 -18q-69 0 -69 69zM76 56q0 33 18 51t51 18t51.5 -18t18.5 -51t-18.5 -51t-51.5 -18q-69 0 -69 69z" />
    <glyph glyph-name="semicolon" unicode=";" horiz-adv-x="300" 
d="M89 -145l45 132q-53 10 -53 65q0 34 18 53t51 19t51.5 -20t18.5 -52q0 -45 -24 -113t-48 -108zM77 468q0 33 18 51t51 18t51.5 -18t18.5 -51t-18.5 -51t-51.5 -18q-69 0 -69 69z" />
    <glyph glyph-name="less" unicode="&#x3c;" horiz-adv-x="584" 
d="M45 260v82l458 198h9v-81l-383 -157l383 -155v-82h-9z" />
    <glyph glyph-name="equal" unicode="=" horiz-adv-x="630" 
d="M81 204h467v-83h-467v83zM81 484h467v-83h-467v83z" />
    <glyph glyph-name="greater" unicode="&#x3e;" horiz-adv-x="584" 
d="M539 342v-82l-458 -195h-8v82l382 155l-382 157v81h8z" />
    <glyph glyph-name="question" unicode="?" horiz-adv-x="480" 
d="M255 213h-88q-11 31 -11 47q0 50 56 97l55 47q28 25 42.5 48t14.5 57q0 43 -29.5 68.5t-75.5 25.5q-47 0 -86.5 -21t-62.5 -51l-32 80q71 79 196 79q88 0 141 -48.5t53 -126.5q0 -31 -6.5 -55.5t-22.5 -45t-26 -30t-34 -29.5l-59 -51q-19 -16 -25 -26t-6 -28q0 -17 6 -37
zM141 58q0 70 70 70q34 0 52.5 -18t18.5 -52q0 -70 -71 -70q-70 0 -70 70z" />
    <glyph glyph-name="at" unicode="@" horiz-adv-x="992" 
d="M714 491v-353q0 -28 9 -41.5t35 -13.5q45 0 82.5 60.5t37.5 175.5q0 144 -102 236t-270 92q-169 0 -274 -107t-105 -277q0 -169 105.5 -277t273.5 -108q99 0 181 40l27 -66q-95 -46 -208 -46q-196 0 -325 130t-129 327q0 198 128.5 327t325.5 129q198 0 322 -112
t124 -288q0 -151 -64.5 -229.5t-167.5 -78.5q-77 0 -100 62q-55 -61 -154 -61q-100 0 -162 67.5t-62 174.5q0 108 62 176.5t162 68.5q96 0 147 -56v48h101zM613 150v210q-20 21 -52.5 36t-68.5 15q-68 0 -108 -43.5t-40 -113.5t40 -112.5t108 -42.5q72 0 121 51z" />
    <glyph glyph-name="A" unicode="A" horiz-adv-x="713" 
d="M17 0l282 680h121l270 -680h-106l-60 150h-339l-62 -150h-106zM359 576l-146 -347h284z" />
    <glyph glyph-name="B" unicode="B" horiz-adv-x="700" 
d="M100 0v680h263q110 0 170.5 -44.5t60.5 -133.5q0 -110 -114 -148q168 -29 168 -174q0 -84 -61.5 -132t-177.5 -48h-309zM204 90h191q142 0 142 102q0 109 -159 109h-174v-211zM204 393h140q142 0 142 97q0 100 -137 100h-145v-197z" />
    <glyph glyph-name="C" unicode="C" horiz-adv-x="724" 
d="M163 340q0 -108 70 -180.5t177 -72.5q128 0 216 81l50 -74q-104 -104 -266 -104q-151 0 -252.5 100.5t-101.5 249.5t101.5 249.5t252.5 100.5q162 0 266 -104l-50 -74q-88 81 -216 81q-107 0 -177 -72.5t-70 -180.5z" />
    <glyph glyph-name="D" unicode="D" horiz-adv-x="787" 
d="M100 0v680h277q156 -1 253.5 -90.5t97.5 -250.5q0 -160 -97.5 -249.5t-253.5 -89.5h-277zM373 589h-169v-498h169q112 0 180 65.5t68 182.5q0 119 -68 184t-180 66z" />
    <glyph glyph-name="E" unicode="E" horiz-adv-x="685" 
d="M628 0h-528v680h528v-92h-428v-191h355v-92h-355v-213h428v-92z" />
    <glyph glyph-name="F" unicode="F" horiz-adv-x="648" 
d="M554 261h-354v-261h-100v680h508v-92h-408v-235h354v-92z" />
    <glyph glyph-name="G" unicode="G" horiz-adv-x="772" 
d="M705 381v-301q-49 -38 -129.5 -64t-156.5 -26q-156 0 -259 94.5t-103 254.5q0 161 103 256t259 95q148 0 260 -94l-50 -80q-88 77 -208 77q-111 0 -184 -68t-73 -186q0 -116 73.5 -184t187.5 -68q101 0 176 48v155h-211v91h315z" />
    <glyph glyph-name="H" unicode="H" horiz-adv-x="830" 
d="M626 0v297h-422v-297h-104v680h104v-292h422v292h104v-680h-104z" />
    <glyph glyph-name="I" unicode="I" horiz-adv-x="305" 
d="M100 0v680h104v-680h-104z" />
    <glyph glyph-name="J" unicode="J" horiz-adv-x="650" 
d="M453 680h105v-416q0 -125 -69 -200t-198 -75q-127 0 -192 70.5t-73 195.5l103 10q13 -179 163 -179q81 0 121 48.5t40 136.5v409z" />
    <glyph glyph-name="K" unicode="K" horiz-adv-x="691" 
d="M100 0v680h104v-299h85l251 299h108v-16l-270 -329l298 -320v-15h-124l-264 289h-84v-289h-104z" />
    <glyph glyph-name="L" unicode="L" horiz-adv-x="596" 
d="M576 0h-476v680h104v-589h372v-91z" />
    <glyph glyph-name="M" unicode="M" horiz-adv-x="943" 
d="M738 0v515l-257 -310h-20l-257 310v-515h-104v680h95l276 -333l277 333h94v-680h-104z" />
    <glyph glyph-name="N" unicode="N" horiz-adv-x="829" 
d="M637 0l-433 514v-514h-104v680h92l432 -516v516h104v-680h-91z" />
    <glyph glyph-name="O" unicode="O" horiz-adv-x="813" 
d="M57 339q0 151 100 251t249 100q151 0 251 -100t100 -251q0 -149 -100 -249t-251 -100q-149 0 -249 100t-100 249zM159 339q0 -108 70 -179.5t177 -71.5q108 0 178 71.5t70 179.5q0 109 -70 180.5t-178 71.5q-107 0 -177 -71.5t-70 -180.5z" />
    <glyph glyph-name="P" unicode="P" horiz-adv-x="691" 
d="M100 0v680h309q104 0 173 -62.5t69 -180.5q0 -109 -70.5 -174t-171.5 -65h-205v-198h-104zM393 589h-189v-300h189q64 0 107 40.5t43 107.5q0 73 -42.5 112.5t-107.5 39.5z" />
    <glyph glyph-name="Q" unicode="Q" horiz-adv-x="812" 
d="M821 -75l13 -86q-55 -19 -125 -19q-56 0 -109.5 24t-86 52.5t-64.5 58t-45 35.5q-149 1 -248 100.5t-99 248.5q0 151 100 251t249 100q151 0 251 -100t100 -251q0 -117 -65.5 -206t-172.5 -122q4 -3 24.5 -20.5t28.5 -24t29 -20.5t35.5 -20t36 -11.5t43.5 -5.5
q66 0 105 16zM158 339q0 -108 70.5 -179.5t177.5 -71.5t177 71.5t70 179.5q0 109 -69.5 180.5t-177.5 71.5q-107 0 -177.5 -71.5t-70.5 -180.5z" />
    <glyph glyph-name="R" unicode="R" horiz-adv-x="722" 
d="M100 0v680h296q118 0 186.5 -54.5t68.5 -163.5q0 -85 -55 -142t-139 -68l238 -235v-17h-120l-247 250h-124v-250h-104zM407 589h-203v-256h203q59 0 97.5 34t38.5 93q0 63 -38 96t-98 33z" />
    <glyph glyph-name="S" unicode="S" horiz-adv-x="629" 
d="M61 49l25 100q100 -63 216 -63q76 0 121.5 28t45.5 77q0 36 -27.5 58t-90.5 37l-122 30q-170 40 -170 177q0 85 67 140.5t196 55.5q136 0 238 -54l-30 -96q-37 23 -97 38.5t-115 15.5q-76 0 -113.5 -25t-37.5 -66q0 -34 22.5 -54t71.5 -33l132 -34q93 -25 138.5 -68.5
t45.5 -113.5q0 -94 -77.5 -151.5t-199.5 -57.5q-67 0 -134 18.5t-105 40.5z" />
    <glyph glyph-name="T" unicode="T" horiz-adv-x="627" 
d="M603 588h-232v-588h-104v588h-244v92h580v-92z" />
    <glyph glyph-name="U" unicode="U" horiz-adv-x="783" 
d="M195 680v-392q0 -94 49 -148t146 -54q98 0 148 55.5t50 147.5v391h104v-399q0 -124 -79.5 -208t-222.5 -84q-144 0 -221.5 80t-77.5 212v399h104z" />
    <glyph glyph-name="V" unicode="V" horiz-adv-x="721" 
d="M293 0l-270 680h113l222 -586l232 586h113l-281 -680h-129z" />
    <glyph glyph-name="W" unicode="W" horiz-adv-x="1092" 
d="M681 0l-133 329l-143 -329h-112l-270 680h112l223 -563l144 335l-89 228h113l210 -547l226 547h113l-282 -680h-112z" />
    <glyph glyph-name="X" unicode="X" horiz-adv-x="710" 
d="M683 680v-8l-255 -333l255 -330v-9h-120l-208 270l-207 -270h-121v9l254 330l-254 333v8h120l208 -272l209 272h119z" />
    <glyph glyph-name="Y" unicode="Y" horiz-adv-x="690" 
d="M293 0v278l-275 394v8h116l211 -306l211 306h116v-8l-275 -393v-279h-104z" />
    <glyph glyph-name="Z" unicode="Z" horiz-adv-x="623" 
d="M54 75l382 514h-382v91h515v-75l-380 -514h380v-91h-515v75z" />
    <glyph glyph-name="bracketleft" unicode="[" horiz-adv-x="350" 
d="M307 -188h-217v898h217v-83h-133v-732h133v-83z" />
    <glyph glyph-name="backslash" unicode="\" horiz-adv-x="508" 
d="M122 680l355 -671v-9h-92l-354 672v8h91z" />
    <glyph glyph-name="bracketright" unicode="]" horiz-adv-x="349" 
d="M43 710h216v-898h-216v83h133v732h-133v83z" />
    <glyph glyph-name="asciicircum" unicode="^" horiz-adv-x="566" 
d="M242 680h79l187 -275v-9h-97l-129 202l-128 -202h-95v9z" />
    <glyph glyph-name="underscore" unicode="_" horiz-adv-x="654" 
d="M77 -36h500v-84h-500v84z" />
    <glyph glyph-name="grave" unicode="`" horiz-adv-x="600" 
d="M310 596l-96 145h105l81 -145h-90z" />
    <glyph glyph-name="a" unicode="a" horiz-adv-x="581" 
d="M114 406l-19 90q86 36 191 36q106 0 158.5 -54.5t52.5 -144.5v-333h-104v57q-71 -67 -167 -67q-83 0 -130.5 42t-47.5 115q0 91 66.5 138t179.5 47q51 0 99 -10v6q0 115 -115 115q-88 0 -164 -37zM152 158q0 -42 28.5 -63.5t77.5 -21.5q75 0 135 53v121q-36 9 -78 9
q-73 0 -118 -24.5t-45 -73.5z" />
    <glyph glyph-name="b" unicode="b" 
d="M612 262q0 -119 -69.5 -195.5t-181.5 -76.5q-103 0 -168 72v-62h-104v710h104v-247q67 69 168 69q112 0 181.5 -75.5t69.5 -194.5zM506 262q0 80 -47 129.5t-125 49.5q-41 0 -78.5 -18t-62.5 -44v-239q23 -24 61 -41.5t80 -17.5q78 0 125 50t47 131z" />
    <glyph glyph-name="c" unicode="c" horiz-adv-x="579" 
d="M55 262q0 119 78.5 197t201.5 78q117 0 197 -72l-52 -77q-57 53 -141 53q-79 0 -128.5 -50.5t-49.5 -128.5q0 -79 49.5 -129.5t128.5 -50.5q84 0 141 53l52 -77q-80 -72 -197 -72q-123 0 -201.5 78.5t-78.5 197.5z" />
    <glyph glyph-name="d" unicode="d" 
d="M56 262q0 119 69 194.5t182 75.5q99 0 167 -68v246h104v-710h-104v61q-66 -71 -167 -71q-112 0 -181.5 76t-69.5 196zM162 262q0 -81 47 -131t125 -50q81 0 140 59v240q-25 26 -62.5 43.5t-77.5 17.5q-78 0 -125 -49.5t-47 -129.5z" />
    <glyph glyph-name="e" unicode="e" horiz-adv-x="620" 
d="M515 132l41 -75q-87 -71 -217 -71q-141 0 -212 76.5t-71 197.5q0 118 75.5 197.5t198.5 79.5q114 0 173.5 -61.5t59.5 -156.5q0 -57 -11 -92h-389q8 -71 52.5 -112t126.5 -41q96 0 173 58zM461 308q2 16 2 28q0 49 -34 81.5t-101 32.5q-70 0 -113.5 -41t-49.5 -101h296z
" />
    <glyph glyph-name="f" unicode="f" horiz-adv-x="461" 
d="M426 412h-177v-412h-104v412h-103v83h103v43q0 81 43 131.5t129 50.5q75 0 134 -41l-26 -88q-46 37 -97 37q-79 0 -79 -90v-43h177v-83z" />
    <glyph glyph-name="g" unicode="g" 
d="M57 280q0 106 70 179t180 73q101 0 167 -71v62h104v-467q0 -120 -72.5 -187t-180.5 -67q-17 0 -32.5 1t-30.5 4t-26.5 5t-25 7t-21 7.5t-19.5 8t-16 7.5t-15 8t-12 6l23 90q86 -55 175 -55q64 0 106.5 36t42.5 108v66q-69 -71 -167 -71q-110 0 -180 72.5t-70 177.5z
M163 280q0 -69 47.5 -114t124.5 -45q82 0 139 59v200q-23 25 -60.5 43t-78.5 18q-77 0 -124.5 -45.5t-47.5 -115.5z" />
    <glyph glyph-name="h" unicode="h" 
d="M89 710h104v-266q64 88 187 88q102 0 153 -64t51 -167v-301h-104v285q0 70 -33 110.5t-100 40.5q-58 0 -98 -33t-56 -80v-323h-104v710z" />
    <glyph glyph-name="i" unicode="i" horiz-adv-x="283" 
d="M78 672q0 56 64 56q62 0 62 -56q0 -57 -62 -57q-64 0 -64 57zM89 0v523h104v-523h-104z" />
    <glyph glyph-name="j" unicode="j" horiz-adv-x="283" 
d="M89 523h104v-489q0 -160 -141 -231l-61 69q48 27 73 63t25 96v492zM79 672q0 56 63 56q62 0 62 -56q0 -57 -62 -57q-63 0 -63 57z" />
    <glyph glyph-name="k" unicode="k" horiz-adv-x="592" 
d="M548 523v-17l-250 -230l267 -259v-17h-125l-247 249v-249h-104v710h104v-412l238 225h117z" />
    <glyph glyph-name="l" unicode="l" horiz-adv-x="330" 
d="M91 710h104v-566q0 -65 52 -65q30 0 61 18l8 -83q-50 -24 -107 -24q-118 0 -118 130v590z" />
    <glyph glyph-name="m" unicode="m" horiz-adv-x="1037" 
d="M89 523h104v-79q64 89 182 89q134 0 181 -106q29 46 80 75.5t119 29.5q101 0 150 -63.5t49 -167.5v-301h-104v285q0 70 -31.5 110.5t-97.5 40.5q-58 0 -95 -30.5t-51 -77.5v-328h-104v286q0 150 -129 150q-58 0 -95.5 -31t-53.5 -78v-327h-104v523z" />
    <glyph glyph-name="n" unicode="n" 
d="M89 523h104v-81q64 90 187 90q102 0 153 -64t51 -167v-301h-104v285q0 70 -33 110.5t-100 40.5q-58 0 -98 -33t-56 -80v-323h-104v523z" />
    <glyph glyph-name="o" unicode="o" horiz-adv-x="669" 
d="M55 260q0 120 79 198.5t200 78.5q122 0 201 -78.5t79 -198.5q0 -118 -79 -196t-201 -78q-121 0 -200 78t-79 196zM156 260q0 -77 49.5 -127.5t128.5 -50.5t129.5 50.5t50.5 127.5q0 78 -50.5 129.5t-129.5 51.5t-128.5 -51.5t-49.5 -129.5z" />
    <glyph glyph-name="p" unicode="p" horiz-adv-x="666" 
d="M610 260q0 -119 -69 -194.5t-181 -75.5q-100 0 -167 67v-245h-104v711h104v-62q66 71 167 71q112 0 181 -76t69 -196zM505 260q0 81 -47 131t-125 50q-43 0 -81 -18t-59 -43v-240q23 -25 61 -42t79 -17q78 0 125 49.5t47 129.5z" />
    <glyph glyph-name="q" unicode="q" horiz-adv-x="667" 
d="M57 260q0 120 69 196t181 76q100 0 166 -70v61h104v-711h-104v244q-68 -66 -166 -66q-112 0 -181 75.5t-69 194.5zM162 260q0 -80 47 -129.5t125 -49.5q81 0 139 58v242q-23 25 -60.5 42.5t-78.5 17.5q-78 0 -125 -50t-47 -131z" />
    <glyph glyph-name="r" unicode="r" horiz-adv-x="470" 
d="M89 0v523h104v-103q53 112 150 112q61 0 111 -38l-41 -86q-39 28 -86 28q-48 0 -83 -33.5t-51 -85.5v-317h-104z" />
    <glyph glyph-name="s" unicode="s" horiz-adv-x="532" 
d="M461 494l-28 -90q-80 40 -164 40q-102 0 -102 -68q0 -25 15.5 -36t60.5 -22l86 -21q78 -18 114 -54t36 -92q0 -73 -59 -117t-158 -44q-110 0 -198 45l20 90q90 -48 174 -48q53 0 84.5 17.5t31.5 49.5q0 42 -84 63l-82 20q-76 18 -110 50.5t-34 90.5q0 75 55.5 119.5
t157.5 44.5q48 0 100 -11.5t84 -26.5z" />
    <glyph glyph-name="t" unicode="t" horiz-adv-x="497" 
d="M148 656h92v-133h204v-82h-204v-260q0 -100 84 -100q61 0 116 40l34 -81q-81 -50 -181 -50q-74 0 -115.5 44t-41.5 127v280h-98v82h98z" />
    <glyph glyph-name="u" unicode="u" 
d="M578 0h-104v81q-64 -90 -186 -90q-102 0 -153.5 64t-51.5 167v301h104v-285q0 -70 33.5 -110.5t101.5 -40.5q57 0 97 33t55 80v323h104v-523z" />
    <glyph glyph-name="v" unicode="v" horiz-adv-x="616" 
d="M475 523h111l-213 -523h-130l-213 523h111l167 -427z" />
    <glyph glyph-name="w" unicode="w" horiz-adv-x="1003" 
d="M862 523h112l-198 -523h-128l-146 418l-151 -418h-128l-191 523h112l146 -427l151 427h124l144 -427z" />
    <glyph glyph-name="x" unicode="x" horiz-adv-x="594" 
d="M558 523v-8l-189 -255l189 -251v-9h-114l-147 199l-146 -199h-115v9l188 251l-188 255v8h113l148 -202l149 202h112z" />
    <glyph glyph-name="y" unicode="y" horiz-adv-x="616" 
d="M475 523h105l-228 -544q-38 -93 -83 -135t-122 -42q-65 0 -120 36l17 85q52 -32 103 -32q39 0 62 20t42 64l14 34l-245 514h115l176 -409z" />
    <glyph glyph-name="z" unicode="z" horiz-adv-x="535" 
d="M56 75l292 365h-292v83h423v-75l-291 -365h291v-83h-423v75z" />
    <glyph glyph-name="braceleft" unicode="{" horiz-adv-x="328" 
d="M276 710v-75h-35q-33 0 -51 -18t-18 -45t28.5 -104t28.5 -118q0 -39 -18.5 -61.5t-60.5 -30.5q42 -8 60.5 -30.5t18.5 -63.5q0 -40 -28.5 -116t-28.5 -104t18 -46t51 -18h35v-75h-45q-72 0 -107 32t-35 88q0 36 28.5 114t28.5 119q0 36 -24 52.5t-77 16.5v64
q101 0 101 72q0 41 -28.5 118t-28.5 113q0 53 35 84.5t107 31.5h45z" />
    <glyph glyph-name="bar" unicode="|" horiz-adv-x="264" 
d="M90 -188v898h84v-898h-84z" />
    <glyph glyph-name="braceright" unicode="}" horiz-adv-x="328" 
d="M52 710h45q71 0 107 -31.5t36 -84.5q0 -36 -29 -113t-29 -118q0 -37 24 -54.5t77 -17.5v-64q-54 0 -77.5 -16.5t-23.5 -52.5q0 -41 29 -119t29 -114q0 -56 -35.5 -88t-107.5 -32h-45v75h35q33 0 51.5 18t18.5 46t-29 104t-29 116q0 41 19 63.5t61 30.5q-80 15 -80 92
q0 41 29 118t29 104t-18.5 45t-51.5 18h-35v75z" />
    <glyph glyph-name="asciitilde" unicode="~" horiz-adv-x="526" 
d="M422 362l38 -47q-11 -42 -40.5 -68t-68.5 -26q-37 0 -90 40t-84 40q-25 0 -45.5 -16.5t-28.5 -46.5l-37 50q9 37 38 63.5t69 26.5q32 0 64.5 -20t60.5 -39.5t50 -19.5q52 0 74 63z" />
    <glyph glyph-name="uni00A0" unicode="&#xa0;" horiz-adv-x="240" 
 />
    <glyph glyph-name="exclamdown" unicode="&#xa1;" horiz-adv-x="271" 
d="M173 312l15 -467h-105l15 467h75zM205 467q0 -34 -18 -52.5t-52 -18.5t-52.5 18.5t-18.5 52.5t18.5 52t52.5 18q70 0 70 -70z" />
    <glyph glyph-name="cent" unicode="&#xa2;" horiz-adv-x="605" 
d="M55 262q0 119 78.5 197t201.5 78q12 0 38 -2l30 108l63 -17l-29 -106q53 -18 95 -55l-52 -77q-30 29 -69 41l-96 -346q8 -1 24 -1q84 0 141 53l52 -77q-80 -72 -197 -72q-23 0 -46 3l-34 -125l-63 17l34 124q-79 29 -125 98t-46 159zM161 262q0 -54 24.5 -96.5
t67.5 -64.5l94 340h-8q-79 0 -128.5 -50.5t-49.5 -128.5z" />
    <glyph glyph-name="sterling" unicode="&#xa3;" horiz-adv-x="634" 
d="M476 314h-202q19 -108 14 -162q9 -6 37 -27t51.5 -33.5t42.5 -12.5q44 0 61 34.5t15 105.5h83q6 -106 -28 -167.5t-112 -61.5q-29 0 -57.5 14t-67 44.5t-46.5 35.5q-19 -45 -46.5 -69.5t-75.5 -24.5q-46 0 -71 28t-25 73q0 44 28 71.5t73 27.5q29 0 51 -11q1 42 -23 135
h-99v66h84q-13 58 -13 114q0 87 52 141.5t153 54.5q63 0 117 -27t84 -56l-34 -88q-23 23 -35 34t-45 26t-68 15q-59 0 -89.5 -34t-30.5 -90q0 -40 8 -90h214v-66zM160 130q-21 0 -34 -11.5t-13 -29.5q0 -38 34 -38q39 0 49 68q-15 11 -36 11z" />
    <glyph glyph-name="currency" unicode="&#xa4;" horiz-adv-x="555" 
d="M95 302q0 56 29 94l-53 54l59 59l56 -56q39 26 88 26q56 0 94 -29l58 59l59 -59l-58 -58q27 -38 27 -90q0 -50 -26 -91l57 -57l-59 -59l-58 58q-40 -27 -94 -27q-51 0 -89 24l-55 -55l-59 59l53 53q-29 40 -29 95zM169 302q0 -45 29.5 -75.5t75.5 -30.5q47 0 76 30t29 76
q0 45 -29.5 75.5t-75.5 30.5t-75.5 -30.5t-29.5 -75.5z" />
    <glyph glyph-name="yen" unicode="&#xa5;" horiz-adv-x="608" 
d="M517 135h-162v-135h-104v135h-162v65h162v63h-162v65h135l-184 344v8h108l155 -317l159 317h108v-8l-188 -344h135v-65h-162v-63h162v-65z" />
    <glyph glyph-name="brokenbar" unicode="&#xa6;" horiz-adv-x="269" 
d="M176 375h-83v335h83v-335zM93 159h83v-347h-83v347z" />
    <glyph glyph-name="section" unicode="&#xa7;" horiz-adv-x="639" 
d="M76 -51l25 90q39 -19 103.5 -34.5t126.5 -15.5q60 0 99 16t39 48q0 23 -23.5 35.5t-78.5 22.5l-150 29q-152 30 -152 149q0 87 87 133q-84 30 -84 109q0 68 64 113.5t184 45.5q138 0 245 -43l-28 -89q-39 19 -104 33.5t-122 14.5q-68 0 -103.5 -18.5t-35.5 -46.5
q0 -38 67 -50l158 -27q87 -16 134 -59t47 -102q0 -87 -91 -133q91 -36 91 -108t-70 -115.5t-185 -43.5q-133 0 -243 46zM361 382l-79 13q-59 -3 -89.5 -31.5t-30.5 -62.5q0 -33 20 -51t70 -28l97 -19q57 2 90.5 26.5t33.5 62.5q0 72 -112 90z" />
    <glyph glyph-name="dieresis" unicode="&#xa8;" horiz-adv-x="600" 
d="M121 670q0 54 60 54t60 -54t-60 -54t-60 54zM373 670q0 54 61 54q59 0 59 -54t-59 -54q-61 0 -61 54z" />
    <glyph glyph-name="copyright" unicode="&#xa9;" horiz-adv-x="816" 
d="M58 339q0 151 100 251t249 100q151 0 251 -100t100 -251q0 -149 -100 -249t-251 -100q-149 0 -249 100t-100 249zM119 339q0 -125 82 -208t206 -83q125 0 207.5 83t82.5 208t-82.5 208.5t-207.5 83.5q-124 0 -206 -83.5t-82 -208.5zM315 339q0 -44 29 -72t76 -28
q57 0 92 35l35 -60q-57 -50 -136 -50q-76 0 -126.5 49t-50.5 126t50.5 126t126.5 49q81 0 136 -50l-35 -59q-35 35 -92 35q-47 0 -76 -28.5t-29 -72.5z" />
    <glyph glyph-name="ordfeminine" unicode="&#xaa;" horiz-adv-x="491" 
d="M355 336q-47 0 -62 42q-44 -42 -104 -42q-52 0 -82.5 28t-30.5 76q0 57 46 86.5t127 29.5q15 0 37 -4v15q0 32 -16 45.5t-51 13.5q-57 0 -100 -25l-14 64q39 16 113 22h23q65 -2 91.5 -30t26.5 -84v-140q0 -36 26 -36q16 0 34 12l5 -57q-39 -16 -69 -16zM94 254h309v-59
h-309v59zM145 447q0 -51 66 -51q43 0 75 28v81q-12 3 -35 3q-106 0 -106 -61z" />
    <glyph glyph-name="guillemotleft" unicode="&#xab;" horiz-adv-x="540" 
d="M53 291v22l161 201h8l38 -23l-118 -189l118 -188l-38 -24h-8zM273 291v22l160 201h8l38 -23l-118 -189l118 -188l-38 -24h-8z" />
    <glyph glyph-name="logicalnot" unicode="&#xac;" horiz-adv-x="629" 
d="M461 129v192h-384v83h468l-1 -275h-83z" />
    <glyph glyph-name="uni00AD" unicode="&#xad;" horiz-adv-x="539" 
d="M77 344h385v-83h-385v83z" />
    <glyph glyph-name="registered" unicode="&#xae;" horiz-adv-x="816" 
d="M58 339q0 151 100 251t249 100q151 0 251 -100t100 -251q0 -149 -100 -249t-251 -100q-149 0 -249 100t-100 249zM119 339q0 -125 82 -208t206 -83q125 0 207.5 83t82.5 208t-82.5 208.5t-207.5 83.5q-124 0 -206 -83.5t-82 -208.5zM270 169v340h157q54 0 89.5 -29.5
t35.5 -84.5q0 -41 -24.5 -68t-60.5 -36l96 -107v-15h-84l-99 118h-32v-118h-78zM424 444h-76v-100h76q22 0 36.5 13.5t14.5 36.5q0 24 -14 37t-37 13z" />
    <glyph glyph-name="macron" unicode="&#xaf;" horiz-adv-x="600" 
d="M430 623h-247v73h247v-73z" />
    <glyph glyph-name="degree" unicode="&#xb0;" horiz-adv-x="470" 
d="M55 512q0 76 50.5 127t128.5 51t129 -51t51 -127t-51 -126t-129 -50t-128.5 50t-50.5 126zM129 512q0 -45 30 -75.5t75 -30.5q47 0 76.5 30.5t29.5 75.5q0 46 -29.5 76.5t-76.5 30.5q-45 0 -75 -31t-30 -76z" />
    <glyph glyph-name="plusminus" unicode="&#xb1;" horiz-adv-x="635" 
d="M359 647v-192h192v-83h-192v-139h-83v139h-192v83h192v192h83zM84 150h467v-83h-467v83z" />
    <glyph glyph-name="twosuperior" unicode="&#xb2;" horiz-adv-x="338" 
d="M47 456v46l130 98q50 37 50 78q0 25 -16 41t-45 16q-36 0 -54 -19.5t-18 -52.5l-56 10q2 53 35.5 85t92.5 32q60 0 91.5 -30.5t31.5 -80.5q0 -64 -70 -115l-77 -55h156v-53h-251z" />
    <glyph glyph-name="threesuperior" unicode="&#xb3;" horiz-adv-x="331" 
d="M78 650h80q28 0 44 12.5t16 31.5q0 43 -69 43q-52 0 -97 -20l-13 52q53 21 110 21q62 0 96 -23.5t34 -67.5q0 -26 -16.5 -46t-44.5 -26q72 -14 72 -81q0 -44 -37 -69.5t-104 -25.5q-54 0 -111 20l16 51q43 -19 95 -19q35 0 57 14t22 38q0 44 -70 44h-80v51z" />
    <glyph glyph-name="acute" unicode="&#xb4;" horiz-adv-x="600" 
d="M400 741l-96 -145h-90l81 145h105z" />
    <glyph glyph-name="mu" unicode="&#xb5;" horiz-adv-x="639" 
d="M194 523v-278q0 -82 29.5 -120.5t99.5 -38.5q52 0 89 27t54 66v344h104v-523h-104v63q-61 -73 -179 -73q-52 0 -93 19v-197h-104v711h104z" />
    <glyph glyph-name="paragraph" unicode="&#xb6;" horiz-adv-x="571" 
d="M224 -188v457h-59q-58 0 -94.5 33.5t-36.5 93.5t36.5 93t94.5 34h141v-711h-82zM395 -188v711h81v-711h-81z" />
    <glyph glyph-name="periodcentered" unicode="&#xb7;" horiz-adv-x="286" 
d="M72 297q0 70 70 70q34 0 52.5 -18t18.5 -52q0 -70 -71 -70q-70 0 -70 70z" />
    <glyph glyph-name="cedilla" unicode="&#xb8;" horiz-adv-x="600" 
d="M221 -96l27 96h46l-17 -62q12 3 29 3q40 0 62.5 -17.5t22.5 -46.5q0 -36 -30 -55.5t-77 -19.5q-41 0 -76 12l11 37q35 -11 62 -11q60 0 60 35q0 31 -55 31q-36 0 -62 -7z" />
    <glyph glyph-name="onesuperior" unicode="&#xb9;" horiz-adv-x="265" 
d="M17 710l141 74h46v-328h-60v260l-103 -52z" />
    <glyph glyph-name="ordmasculine" unicode="&#xba;" horiz-adv-x="510" 
d="M75 512q0 76 51 127t129 51t129 -51t51 -127t-51 -126t-129 -50t-129 50t-51 126zM142 512q0 -49 31.5 -81t81.5 -32q49 0 80.5 32.5t31.5 80.5q0 49 -31.5 81.5t-80.5 32.5q-50 0 -81.5 -32.5t-31.5 -81.5zM101 254h309v-59h-309v59z" />
    <glyph glyph-name="guillemotright" unicode="&#xbb;" horiz-adv-x="539" 
d="M267 313v-22l-160 -201h-9l-37 23l117 189l-118 188l38 24h9zM486 313v-22l-160 -201h-8l-37 23l117 189l-118 188l38 24h8z" />
    <glyph glyph-name="onequarter" unicode="&#xbc;" horiz-adv-x="778" 
d="M137 9l369 671h62v-8l-368 -672h-63v9zM738 64h-62v-64h-60v64h-186v41l166 223h80v-218h62v-46zM492 110h124v168zM31 610l141 74h46v-328h-60v260l-103 -52z" />
    <glyph glyph-name="onehalf" unicode="&#xbd;" horiz-adv-x="761" 
d="M137 9l369 671h62v-8l-368 -672h-63v9zM463 0v46l130 98q50 37 50 78q0 25 -16 41t-45 16q-35 0 -53.5 -19.5t-18.5 -52.5l-55 10q1 54 34.5 85.5t93.5 31.5t91 -30t31 -81q0 -65 -70 -115l-76 -55h156v-53h-252zM31 606l141 74h46v-328h-60v260l-103 -52z" />
    <glyph glyph-name="threequarters" unicode="&#xbe;" horiz-adv-x="831" 
d="M193 9l369 671h62v-8l-368 -672h-63v9zM794 64h-62v-64h-60v64h-186v41l166 223h80v-218h62v-46zM548 110h124v168zM88 550h80q28 0 44 12.5t16 31.5q0 43 -69 43q-52 0 -97 -20l-13 52q53 21 110 21q62 0 96 -23.5t34 -67.5q0 -26 -16.5 -46t-44.5 -26q72 -14 72 -81
q0 -44 -37 -69.5t-104 -25.5q-54 0 -111 20l16 51q43 -19 95 -19q35 0 57 14t22 38q0 44 -70 44h-80v51z" />
    <glyph glyph-name="questiondown" unicode="&#xbf;" horiz-adv-x="464" 
d="M217 312h86q10 -35 10 -47q0 -50 -54 -97l-54 -48q-56 -47 -56 -104q0 -43 29 -68.5t73 -25.5q47 0 85.5 20.5t61.5 51.5l32 -80q-71 -79 -193 -79q-86 0 -138 48.5t-52 126.5q0 31 6.5 55t22.5 45t25.5 30t32.5 30l59 51q18 16 24 26t6 28q0 17 -6 37zM328 467
q0 -34 -17.5 -52.5t-50.5 -18.5t-51 18.5t-18 52.5t18 52t51 18q68 0 68 -70z" />
    <glyph glyph-name="Agrave" unicode="&#xc0;" horiz-adv-x="713" 
d="M17 0l282 680h121l270 -680h-106l-60 150h-339l-62 -150h-106zM359 576l-146 -347h284zM321 753l-96 145h105l81 -145h-90z" />
    <glyph glyph-name="Aacute" unicode="&#xc1;" horiz-adv-x="713" 
d="M17 0l282 680h121l270 -680h-106l-60 150h-339l-62 -150h-106zM359 576l-146 -347h284zM485 898l-96 -145h-90l81 145h105z" />
    <glyph glyph-name="Acircumflex" unicode="&#xc2;" horiz-adv-x="713" 
d="M17 0l282 680h121l270 -680h-106l-60 150h-339l-62 -150h-106zM359 576l-146 -347h284zM435 753l-76 92l-76 -92h-82l106 145h103l106 -145h-81z" />
    <glyph glyph-name="Atilde" unicode="&#xc3;" horiz-adv-x="713" 
d="M17 0l282 680h121l270 -680h-106l-60 150h-339l-62 -150h-106zM359 576l-146 -347h284zM214 770l-34 43q15 32 43 54t61 22t81 -31.5t67 -31.5q46 0 69 47l34 -42q-38 -78 -103 -78q-31 0 -80 32t-67 32q-43 0 -71 -47z" />
    <glyph glyph-name="Adieresis" unicode="&#xc4;" horiz-adv-x="713" 
d="M17 0l282 680h121l270 -680h-106l-60 150h-339l-62 -150h-106zM359 576l-146 -347h284zM173 827q0 54 60 54t60 -54t-60 -54t-60 54zM425 827q0 54 61 54q59 0 59 -54t-59 -54q-61 0 -61 54z" />
    <glyph glyph-name="Aring" unicode="&#xc5;" horiz-adv-x="713" 
d="M261 740q0 40 28.5 69t69.5 29t69.5 -29t28.5 -69q0 -43 -32 -73l265 -667h-106l-60 150h-339l-62 -150h-106l276 667q-32 29 -32 73zM359 576l-146 -347h284zM307 740q0 -22 15 -37t37 -15q21 0 36 15t15 37q0 21 -15 36t-36 15q-22 0 -37 -15t-15 -36z" />
    <glyph glyph-name="AE" unicode="&#xc6;" horiz-adv-x="1057" 
d="M472 0v150h-268l-92 -150h-112l412 680h587v-92h-427v-194h354v-85h-354v-218h427v-91h-527zM246 229h226v376z" />
    <glyph glyph-name="Ccedilla" unicode="&#xc7;" horiz-adv-x="725" 
d="M340 -96l25 89q-135 15 -221.5 112t-86.5 235q0 149 101.5 249.5t252.5 100.5q162 0 266 -104l-50 -74q-88 81 -216 81q-107 0 -177 -72.5t-70 -180.5t70 -180.5t177 -72.5q128 0 216 81l50 -74q-104 -104 -266 -104h-1l-14 -52q12 3 29 3q40 0 62.5 -17.5t22.5 -46.5
q0 -36 -30 -55.5t-77 -19.5q-41 0 -76 12l11 37q35 -11 62 -11q60 0 60 35q0 31 -55 31q-36 0 -62 -7z" />
    <glyph glyph-name="Egrave" unicode="&#xc8;" horiz-adv-x="685" 
d="M628 0h-528v680h528v-92h-428v-191h355v-92h-355v-213h428v-92zM326 753l-96 145h105l81 -145h-90z" />
    <glyph glyph-name="Eacute" unicode="&#xc9;" horiz-adv-x="685" 
d="M628 0h-528v680h528v-92h-428v-191h355v-92h-355v-213h428v-92zM493 898l-96 -145h-90l81 145h105z" />
    <glyph glyph-name="Ecircumflex" unicode="&#xca;" horiz-adv-x="685" 
d="M628 0h-528v680h528v-92h-428v-191h355v-92h-355v-213h428v-92zM440 753l-76 92l-76 -92h-82l106 145h103l106 -145h-81z" />
    <glyph glyph-name="Edieresis" unicode="&#xcb;" horiz-adv-x="685" 
d="M628 0h-528v680h528v-92h-428v-191h355v-92h-355v-213h428v-92zM178 827q0 54 60 54t60 -54t-60 -54t-60 54zM430 827q0 54 61 54q59 0 59 -54t-59 -54q-61 0 -61 54z" />
    <glyph glyph-name="Igrave" unicode="&#xcc;" horiz-adv-x="305" 
d="M100 0v680h104v-680h-104zM115 753l-96 145h105l81 -145h-90z" />
    <glyph glyph-name="Iacute" unicode="&#xcd;" horiz-adv-x="305" 
d="M100 0v680h104v-680h-104zM289 898l-96 -145h-90l81 145h105z" />
    <glyph glyph-name="Icircumflex" unicode="&#xce;" horiz-adv-x="305" 
d="M100 0v680h104v-680h-104zM228 753l-76 92l-76 -92h-82l106 145h103l106 -145h-81z" />
    <glyph glyph-name="Idieresis" unicode="&#xcf;" horiz-adv-x="305" 
d="M100 0v680h104v-680h-104zM-35 827q0 54 60 54t60 -54t-60 -54t-60 54zM217 827q0 54 61 54q59 0 59 -54t-59 -54q-61 0 -61 54z" />
    <glyph glyph-name="Eth" unicode="&#xd0;" horiz-adv-x="792" 
d="M364 313h-322v55h322v-55zM106 0v680h104v-680h-104zM160 589v91h222q156 -1 253.5 -90.5t97.5 -250.5q0 -160 -97.5 -249.5t-253.5 -89.5h-226v91h222q112 0 180.5 65.5t68.5 182.5q0 118 -68.5 183.5t-180.5 66.5h-218z" />
    <glyph glyph-name="Ntilde" unicode="&#xd1;" horiz-adv-x="829" 
d="M637 0l-433 514v-514h-104v680h92l432 -516v516h104v-680h-91zM275 770l-34 43q15 32 43 54t61 22t81 -31.5t67 -31.5q45 0 69 47l34 -42q-38 -78 -103 -78q-31 0 -80 32t-67 32q-43 0 -71 -47z" />
    <glyph glyph-name="Ograve" unicode="&#xd2;" horiz-adv-x="813" 
d="M57 339q0 151 100 251t249 100q151 0 251 -100t100 -251q0 -149 -100 -249t-251 -100q-149 0 -249 100t-100 249zM159 339q0 -108 70 -179.5t177 -71.5q108 0 178 71.5t70 179.5q0 109 -70 180.5t-178 71.5q-107 0 -177 -71.5t-70 -180.5zM364 753l-96 145h105l81 -145
h-90z" />
    <glyph glyph-name="Oacute" unicode="&#xd3;" horiz-adv-x="813" 
d="M57 339q0 151 100 251t249 100q151 0 251 -100t100 -251q0 -149 -100 -249t-251 -100q-149 0 -249 100t-100 249zM159 339q0 -108 70 -179.5t177 -71.5q108 0 178 71.5t70 179.5q0 109 -70 180.5t-178 71.5q-107 0 -177 -71.5t-70 -180.5zM543 898l-96 -145h-90l81 145
h105z" />
    <glyph glyph-name="Ocircumflex" unicode="&#xd4;" horiz-adv-x="813" 
d="M57 339q0 151 100 251t249 100q151 0 251 -100t100 -251q0 -149 -100 -249t-251 -100q-149 0 -249 100t-100 249zM159 339q0 -108 70 -179.5t177 -71.5q108 0 178 71.5t70 179.5q0 109 -70 180.5t-178 71.5q-107 0 -177 -71.5t-70 -180.5zM482 753l-76 92l-76 -92h-82
l106 145h103l106 -145h-81z" />
    <glyph glyph-name="Otilde" unicode="&#xd5;" horiz-adv-x="813" 
d="M57 339q0 151 100 251t249 100q151 0 251 -100t100 -251q0 -149 -100 -249t-251 -100q-149 0 -249 100t-100 249zM159 339q0 -108 70 -179.5t177 -71.5q108 0 178 71.5t70 179.5q0 109 -70 180.5t-178 71.5q-107 0 -177 -71.5t-70 -180.5zM262 770l-34 43q15 32 43 54
t61 22t81 -31.5t67 -31.5q46 0 69 47l34 -42q-38 -78 -103 -78q-31 0 -80 32t-67 32q-43 0 -71 -47z" />
    <glyph glyph-name="Odieresis" unicode="&#xd6;" horiz-adv-x="813" 
d="M57 339q0 151 100 251t249 100q151 0 251 -100t100 -251q0 -149 -100 -249t-251 -100q-149 0 -249 100t-100 249zM159 339q0 -108 70 -179.5t177 -71.5q108 0 178 71.5t70 179.5q0 109 -70 180.5t-178 71.5q-107 0 -177 -71.5t-70 -180.5zM220 827q0 54 60 54t60 -54
t-60 -54t-60 54zM472 827q0 54 61 54q59 0 59 -54t-59 -54q-61 0 -61 54z" />
    <glyph glyph-name="multiply" unicode="&#xd7;" horiz-adv-x="532" 
d="M460 438l-136 -135l136 -136l-59 -59l-135 136l-136 -136l-59 59l136 136l-136 135l59 59l136 -136l135 136z" />
    <glyph glyph-name="Oslash" unicode="&#xd8;" horiz-adv-x="812" 
d="M57 339q0 151 100 251t249 100q113 0 200 -59l40 49h76v-8l-66 -81q101 -101 101 -252q0 -149 -100 -249t-251 -100q-107 0 -193 55l-36 -45h-77v9l62 76q-105 99 -105 254zM157 339q0 -106 68 -177l318 391q-61 39 -137 39q-107 0 -178 -72t-71 -181zM655 339
q0 100 -63 173l-316 -390q59 -35 130 -35q108 0 178.5 72t70.5 180z" />
    <glyph glyph-name="Ugrave" unicode="&#xd9;" horiz-adv-x="783" 
d="M195 680v-392q0 -94 49 -148t146 -54q98 0 148 55.5t50 147.5v391h104v-399q0 -124 -79.5 -208t-222.5 -84q-144 0 -221.5 80t-77.5 212v399h104zM350 753l-96 145h105l81 -145h-90z" />
    <glyph glyph-name="Uacute" unicode="&#xda;" horiz-adv-x="783" 
d="M195 680v-392q0 -94 49 -148t146 -54q98 0 148 55.5t50 147.5v391h104v-399q0 -124 -79.5 -208t-222.5 -84q-144 0 -221.5 80t-77.5 212v399h104zM528 898l-96 -145h-90l81 145h105z" />
    <glyph glyph-name="Ucircumflex" unicode="&#xdb;" horiz-adv-x="783" 
d="M195 680v-392q0 -94 49 -148t146 -54q98 0 148 55.5t50 147.5v391h104v-399q0 -124 -79.5 -208t-222.5 -84q-144 0 -221.5 80t-77.5 212v399h104zM467 753l-76 92l-76 -92h-82l106 145h103l106 -145h-81z" />
    <glyph glyph-name="Udieresis" unicode="&#xdc;" horiz-adv-x="783" 
d="M195 680v-392q0 -94 49 -148t146 -54q98 0 148 55.5t50 147.5v391h104v-399q0 -124 -79.5 -208t-222.5 -84q-144 0 -221.5 80t-77.5 212v399h104zM205 827q0 54 60 54t60 -54t-60 -54t-60 54zM457 827q0 54 61 54q59 0 59 -54t-59 -54q-61 0 -61 54z" />
    <glyph glyph-name="Yacute" unicode="&#xdd;" horiz-adv-x="690" 
d="M293 0v278l-275 394v8h116l211 -306l211 306h116v-8l-275 -393v-279h-104zM481 898l-96 -145h-90l81 145h105z" />
    <glyph glyph-name="Thorn" unicode="&#xde;" horiz-adv-x="691" 
d="M100 0v680h104v-102h205q106 0 174 -57t68 -174q0 -108 -69.5 -168.5t-172.5 -60.5h-205v-118h-104zM395 487h-191v-277h191q65 0 107.5 35t42.5 102q0 71 -42 105.5t-108 34.5z" />
    <glyph glyph-name="germandbls" unicode="&#xdf;" horiz-adv-x="681" 
d="M346 720q105 0 166 -59.5t61 -140.5q0 -32 -12.5 -61t-27 -46t-27 -32t-12.5 -23q0 -7 21 -25t46 -39t46 -57.5t21 -76.5q0 -82 -53 -126t-140 -44q-85 0 -150 30l17 85q45 -26 104 -26q50 0 80 24t30 64q0 30 -21.5 59t-47 47.5t-47 38.5t-21.5 35q0 16 13.5 34.5
t30.5 34.5t30.5 42.5t13.5 55.5q0 50 -37.5 82.5t-92.5 32.5q-67 0 -105.5 -48.5t-38.5 -129.5v-451h-104v443q0 134 72.5 205.5t184.5 71.5z" />
    <glyph glyph-name="agrave" unicode="&#xe0;" horiz-adv-x="581" 
d="M264 596l-96 145h105l81 -145h-90zM114 406l-19 90q86 36 191 36q106 0 158.5 -54.5t52.5 -144.5v-333h-104v57q-71 -67 -167 -67q-83 0 -130.5 42t-47.5 115q0 91 66.5 138t179.5 47q51 0 99 -10v6q0 115 -115 115q-88 0 -164 -37zM152 158q0 -42 28.5 -63.5t77.5 -21.5
q75 0 135 53v121q-36 9 -78 9q-73 0 -118 -24.5t-45 -73.5z" />
    <glyph glyph-name="aacute" unicode="&#xe1;" horiz-adv-x="581" 
d="M433 741l-96 -145h-90l81 145h105zM114 406l-19 90q86 36 191 36q106 0 158.5 -54.5t52.5 -144.5v-333h-104v57q-71 -67 -167 -67q-83 0 -130.5 42t-47.5 115q0 91 66.5 138t179.5 47q51 0 99 -10v6q0 115 -115 115q-88 0 -164 -37zM152 158q0 -42 28.5 -63.5t77.5 -21.5
q75 0 135 53v121q-36 9 -78 9q-73 0 -118 -24.5t-45 -73.5z" />
    <glyph glyph-name="acircumflex" unicode="&#xe2;" horiz-adv-x="581" 
d="M372 596l-76 92l-76 -92h-82l106 145h103l106 -145h-81zM114 406l-19 90q86 36 191 36q106 0 158.5 -54.5t52.5 -144.5v-333h-104v57q-71 -67 -167 -67q-83 0 -130.5 42t-47.5 115q0 91 66.5 138t179.5 47q51 0 99 -10v6q0 115 -115 115q-88 0 -164 -37zM152 158
q0 -42 28.5 -63.5t77.5 -21.5q75 0 135 53v121q-36 9 -78 9q-73 0 -118 -24.5t-45 -73.5z" />
    <glyph glyph-name="atilde" unicode="&#xe3;" horiz-adv-x="581" 
d="M153 613l-34 43q15 32 43 54t61 22t81 -31.5t67 -31.5q45 0 69 47l34 -42q-38 -78 -103 -78q-31 0 -80 32t-67 32q-43 0 -71 -47zM114 406l-19 90q86 36 191 36q106 0 158.5 -54.5t52.5 -144.5v-333h-104v57q-71 -67 -167 -67q-83 0 -130.5 42t-47.5 115q0 91 66.5 138
t179.5 47q51 0 99 -10v6q0 115 -115 115q-88 0 -164 -37zM152 158q0 -42 28.5 -63.5t77.5 -21.5q75 0 135 53v121q-36 9 -78 9q-73 0 -118 -24.5t-45 -73.5z" />
    <glyph glyph-name="adieresis" unicode="&#xe4;" horiz-adv-x="581" 
d="M111 670q0 54 60 54t60 -54t-60 -54t-60 54zM363 670q0 54 61 54q59 0 59 -54t-59 -54q-61 0 -61 54zM114 406l-19 90q86 36 191 36q106 0 158.5 -54.5t52.5 -144.5v-333h-104v57q-71 -67 -167 -67q-83 0 -130.5 42t-47.5 115q0 91 66.5 138t179.5 47q51 0 99 -10v6
q0 115 -115 115q-88 0 -164 -37zM152 158q0 -42 28.5 -63.5t77.5 -21.5q75 0 135 53v121q-36 9 -78 9q-73 0 -118 -24.5t-45 -73.5z" />
    <glyph glyph-name="aring" unicode="&#xe5;" horiz-adv-x="581" 
d="M198 670q0 40 29 69t69 29t69 -29t29 -69t-29 -69t-69 -29t-69 29t-29 69zM244 670q0 -22 15 -37t37 -15q21 0 36 15t15 37q0 21 -15 36t-36 15q-22 0 -37 -15t-15 -36zM114 406l-19 90q86 36 191 36q106 0 158.5 -54.5t52.5 -144.5v-333h-104v57q-71 -67 -167 -67
q-83 0 -130.5 42t-47.5 115q0 91 66.5 138t179.5 47q51 0 99 -10v6q0 115 -115 115q-88 0 -164 -37zM152 158q0 -42 28.5 -63.5t77.5 -21.5q75 0 135 53v121q-36 9 -78 9q-73 0 -118 -24.5t-45 -73.5z" />
    <glyph glyph-name="ae" unicode="&#xe6;" horiz-adv-x="929" 
d="M862 231h-363q2 -77 40 -119t124 -42q84 0 161 58l41 -71q-87 -71 -211 -71q-152 0 -203 106q-100 -102 -216 -102q-87 0 -137.5 42.5t-50.5 114.5q0 87 70 135t188 48q49 0 88 -7q0 67 -23.5 93.5t-91.5 26.5q-86 0 -164 -37l-19 90q89 36 190 36q90 0 127 -28.5
t51 -81.5q26 46 72.5 80.5t112.5 34.5q107 0 165 -62.5t58 -155.5q0 -57 -9 -88zM649 460q-68 0 -106 -45.5t-40 -110.5h279q2 8 2 24q0 59 -34.5 95.5t-100.5 36.5zM152 158q0 -42 29 -63.5t77 -21.5q42 0 78 20t57 47v116q-42 7 -81 7q-160 -3 -160 -105z" />
    <glyph glyph-name="ccedilla" unicode="&#xe7;" horiz-adv-x="581" 
d="M263 -96l24 86q-104 15 -167.5 90.5t-63.5 181.5q0 119 78.5 197t201.5 78q117 0 197 -72l-52 -77q-57 53 -141 53q-79 0 -128.5 -50.5t-49.5 -128.5q0 -79 49.5 -129.5t128.5 -50.5q84 0 141 53l52 -77q-80 -72 -197 -72h-4l-13 -48q12 3 29 3q40 0 62.5 -17.5
t22.5 -46.5q0 -36 -30 -55.5t-77 -19.5q-41 0 -76 12l11 37q35 -11 62 -11q60 0 60 35q0 31 -55 31q-36 0 -62 -7z" />
    <glyph glyph-name="egrave" unicode="&#xe8;" horiz-adv-x="620" 
d="M515 132l41 -75q-87 -71 -217 -71q-141 0 -212 76.5t-71 197.5q0 118 75.5 197.5t198.5 79.5q114 0 173.5 -61.5t59.5 -156.5q0 -57 -11 -92h-389q8 -71 52.5 -112t126.5 -41q96 0 173 58zM461 308q2 16 2 28q0 49 -34 81.5t-101 32.5q-70 0 -113.5 -41t-49.5 -101h296z
M305 596l-96 145h105l81 -145h-90z" />
    <glyph glyph-name="eacute" unicode="&#xe9;" horiz-adv-x="620" 
d="M515 132l41 -75q-87 -71 -217 -71q-141 0 -212 76.5t-71 197.5q0 118 75.5 197.5t198.5 79.5q114 0 173.5 -61.5t59.5 -156.5q0 -57 -11 -92h-389q8 -71 52.5 -112t126.5 -41q96 0 173 58zM461 308q2 16 2 28q0 49 -34 81.5t-101 32.5q-70 0 -113.5 -41t-49.5 -101h296z
M464 741l-96 -145h-90l81 145h105z" />
    <glyph glyph-name="ecircumflex" unicode="&#xea;" horiz-adv-x="620" 
d="M515 132l41 -75q-87 -71 -217 -71q-141 0 -212 76.5t-71 197.5q0 118 75.5 197.5t198.5 79.5q114 0 173.5 -61.5t59.5 -156.5q0 -57 -11 -92h-389q8 -71 52.5 -112t126.5 -41q96 0 173 58zM461 308q2 16 2 28q0 49 -34 81.5t-101 32.5q-70 0 -113.5 -41t-49.5 -101h296z
M411 596l-76 92l-76 -92h-82l106 145h103l106 -145h-81z" />
    <glyph glyph-name="edieresis" unicode="&#xeb;" horiz-adv-x="620" 
d="M515 132l41 -75q-87 -71 -217 -71q-141 0 -212 76.5t-71 197.5q0 118 75.5 197.5t198.5 79.5q114 0 173.5 -61.5t59.5 -156.5q0 -57 -11 -92h-389q8 -71 52.5 -112t126.5 -41q96 0 173 58zM461 308q2 16 2 28q0 49 -34 81.5t-101 32.5q-70 0 -113.5 -41t-49.5 -101h296z
M148 670q0 54 60 54t60 -54t-60 -54t-60 54zM400 670q0 54 61 54q59 0 59 -54t-59 -54q-61 0 -61 54z" />
    <glyph glyph-name="igrave" unicode="&#xec;" horiz-adv-x="283" 
d="M106 596l-96 145h105l81 -145h-90zM193 0h-104v523h104v-523z" />
    <glyph glyph-name="iacute" unicode="&#xed;" horiz-adv-x="283" 
d="M277 741l-96 -145h-90l81 145h105zM193 0h-104v523h104v-523z" />
    <glyph glyph-name="icircumflex" unicode="&#xee;" horiz-adv-x="283" 
d="M193 0h-104v523h104v-523zM217 596l-76 92l-76 -92h-82l106 145h103l106 -145h-81z" />
    <glyph glyph-name="idieresis" unicode="&#xef;" horiz-adv-x="283" 
d="M-44 670q0 54 60 54t60 -54t-60 -54t-60 54zM208 670q0 54 61 54q59 0 59 -54t-59 -54q-61 0 -61 54zM193 0h-104v523h104v-523z" />
    <glyph glyph-name="eth" unicode="&#xf0;" horiz-adv-x="634" 
d="M484 702l-54 -56q64 -53 102 -131.5t38 -173.5q0 -161 -72 -256t-203 -95q-102 0 -168.5 66.5t-66.5 174.5q0 100 58 161t157 61q110 0 190 -94q-5 129 -99 219l-60 -62l-29 27l58 61q-44 33 -91 49l41 67q58 -13 113 -50l56 58zM299 86q69 0 109.5 49t52.5 136
q-70 96 -163 96q-62 0 -98.5 -35.5t-36.5 -101.5q0 -61 38 -102.5t98 -41.5z" />
    <glyph glyph-name="ntilde" unicode="&#xf1;" 
d="M89 523h104v-81q64 90 187 90q102 0 153 -64t51 -167v-301h-104v285q0 70 -33 110.5t-100 40.5q-58 0 -98 -33t-56 -80v-323h-104v523zM194 613l-34 43q15 32 43 54t61 22t81 -31.5t67 -31.5q46 0 69 47l34 -42q-38 -78 -103 -78q-31 0 -80 32t-67 32q-43 0 -71 -47z" />
    <glyph glyph-name="ograve" unicode="&#xf2;" horiz-adv-x="669" 
d="M55 260q0 120 79 198.5t200 78.5q122 0 201 -78.5t79 -198.5q0 -118 -79 -196t-201 -78q-121 0 -200 78t-79 196zM156 260q0 -77 49.5 -127.5t128.5 -50.5t129.5 50.5t50.5 127.5q0 78 -50.5 129.5t-129.5 51.5t-128.5 -51.5t-49.5 -129.5zM292 596l-96 145h105l81 -145
h-90z" />
    <glyph glyph-name="oacute" unicode="&#xf3;" horiz-adv-x="669" 
d="M55 260q0 120 79 198.5t200 78.5q122 0 201 -78.5t79 -198.5q0 -118 -79 -196t-201 -78q-121 0 -200 78t-79 196zM156 260q0 -77 49.5 -127.5t128.5 -50.5t129.5 50.5t50.5 127.5q0 78 -50.5 129.5t-129.5 51.5t-128.5 -51.5t-49.5 -129.5zM471 741l-96 -145h-90l81 145
h105z" />
    <glyph glyph-name="ocircumflex" unicode="&#xf4;" horiz-adv-x="669" 
d="M55 260q0 120 79 198.5t200 78.5q122 0 201 -78.5t79 -198.5q0 -118 -79 -196t-201 -78q-121 0 -200 78t-79 196zM156 260q0 -77 49.5 -127.5t128.5 -50.5t129.5 50.5t50.5 127.5q0 78 -50.5 129.5t-129.5 51.5t-128.5 -51.5t-49.5 -129.5zM410 596l-76 92l-76 -92h-82
l106 145h103l106 -145h-81z" />
    <glyph glyph-name="otilde" unicode="&#xf5;" horiz-adv-x="669" 
d="M55 260q0 120 79 198.5t200 78.5q122 0 201 -78.5t79 -198.5q0 -118 -79 -196t-201 -78q-121 0 -200 78t-79 196zM156 260q0 -77 49.5 -127.5t128.5 -50.5t129.5 50.5t50.5 127.5q0 78 -50.5 129.5t-129.5 51.5t-128.5 -51.5t-49.5 -129.5zM190 613l-34 43q15 32 43 54
t61 22t81 -31.5t67 -31.5q46 0 69 47l34 -42q-38 -78 -103 -78q-31 0 -80 32t-67 32q-43 0 -71 -47z" />
    <glyph glyph-name="odieresis" unicode="&#xf6;" horiz-adv-x="669" 
d="M55 260q0 120 79 198.5t200 78.5q122 0 201 -78.5t79 -198.5q0 -118 -79 -196t-201 -78q-121 0 -200 78t-79 196zM156 260q0 -77 49.5 -127.5t128.5 -50.5t129.5 50.5t50.5 127.5q0 78 -50.5 129.5t-129.5 51.5t-128.5 -51.5t-49.5 -129.5zM148 670q0 54 60 54t60 -54
t-60 -54t-60 54zM400 670q0 54 61 54q59 0 59 -54t-59 -54q-61 0 -61 54z" />
    <glyph glyph-name="divide" unicode="&#xf7;" horiz-adv-x="597" 
d="M64 344h468v-83h-468v83zM229 487q0 31 16.5 48t47.5 17t48 -17t17 -48t-17 -48t-48 -17q-64 0 -64 65zM229 117q0 31 16.5 48t47.5 17t48 -17t17 -48t-17 -48t-48 -17q-64 0 -64 65z" />
    <glyph glyph-name="oslash" unicode="&#xf8;" horiz-adv-x="669" 
d="M55 260q0 120 79 198.5t200 78.5q96 0 166 -50l30 36h55v-9l-48 -58q77 -77 77 -196q0 -118 -79 -196t-201 -78q-85 0 -151 39l-21 -25h-56v9l38 46q-89 78 -89 205zM156 260q0 -80 51 -129l231 280q-46 30 -104 30q-79 0 -128.5 -51.5t-49.5 -129.5zM514 260
q0 69 -41 118l-227 -276q38 -21 88 -21q79 0 129.5 51t50.5 128z" />
    <glyph glyph-name="ugrave" unicode="&#xf9;" 
d="M578 0h-104v81q-64 -90 -186 -90q-102 0 -153.5 64t-51.5 167v301h104v-285q0 -70 33.5 -110.5t101.5 -40.5q57 0 97 33t55 80v323h104v-523zM288 596l-96 145h105l81 -145h-90z" />
    <glyph glyph-name="uacute" unicode="&#xfa;" 
d="M578 0h-104v81q-64 -90 -186 -90q-102 0 -153.5 64t-51.5 167v301h104v-285q0 -70 33.5 -110.5t101.5 -40.5q57 0 97 33t55 80v323h104v-523zM479 741l-96 -145h-90l81 145h105z" />
    <glyph glyph-name="ucircumflex" unicode="&#xfb;" 
d="M578 0h-104v81q-64 -90 -186 -90q-102 0 -153.5 64t-51.5 167v301h104v-285q0 -70 33.5 -110.5t101.5 -40.5q57 0 97 33t55 80v323h104v-523zM406 596l-76 92l-76 -92h-82l106 145h103l106 -145h-81z" />
    <glyph glyph-name="udieresis" unicode="&#xfc;" 
d="M578 0h-104v81q-64 -90 -186 -90q-102 0 -153.5 64t-51.5 167v301h104v-285q0 -70 33.5 -110.5t101.5 -40.5q57 0 97 33t55 80v323h104v-523zM143 670q0 54 60 54t60 -54t-60 -54t-60 54zM395 670q0 54 61 54q59 0 59 -54t-59 -54q-61 0 -61 54z" />
    <glyph glyph-name="yacute" unicode="&#xfd;" horiz-adv-x="616" 
d="M475 523h105l-228 -544q-38 -93 -83 -135t-122 -42q-65 0 -120 36l17 85q52 -32 103 -32q39 0 62 20t42 64l14 34l-245 514h115l176 -409zM442 741l-96 -145h-90l81 145h105z" />
    <glyph glyph-name="thorn" unicode="&#xfe;" horiz-adv-x="666" 
d="M610 260q0 -119 -69 -194.5t-181 -75.5q-100 0 -167 67v-245h-104v898h104v-249q66 71 167 71q112 0 181 -76t69 -196zM505 260q0 81 -47 131t-125 50q-42 0 -79.5 -18t-60.5 -43v-240q23 -25 61 -42t79 -17q78 0 125 49.5t47 129.5z" />
    <glyph glyph-name="ydieresis" unicode="&#xff;" horiz-adv-x="616" 
d="M475 523h105l-228 -544q-38 -93 -83 -135t-122 -42q-65 0 -120 36l17 85q52 -32 103 -32q39 0 62 20t42 64l14 34l-245 514h115l176 -409zM123 670q0 54 60 54t60 -54t-60 -54t-60 54zM375 670q0 54 61 54q59 0 59 -54t-59 -54q-61 0 -61 54z" />
    <glyph glyph-name="Amacron" unicode="&#x100;" horiz-adv-x="713" 
d="M17 0l282 680h121l270 -680h-106l-60 150h-339l-62 -150h-106zM359 576l-146 -347h284zM482 780h-247v73h247v-73z" />
    <glyph glyph-name="amacron" unicode="&#x101;" horiz-adv-x="581" 
d="M420 623h-247v73h247v-73zM114 406l-19 90q86 36 191 36q106 0 158.5 -54.5t52.5 -144.5v-333h-104v57q-71 -67 -167 -67q-83 0 -130.5 42t-47.5 115q0 91 66.5 138t179.5 47q51 0 99 -10v6q0 115 -115 115q-88 0 -164 -37zM152 158q0 -42 28.5 -63.5t77.5 -21.5
q75 0 135 53v121q-36 9 -78 9q-73 0 -118 -24.5t-45 -73.5z" />
    <glyph glyph-name="Abreve" unicode="&#x102;" horiz-adv-x="713" 
d="M17 0l282 680h121l270 -680h-106l-60 150h-339l-62 -150h-106zM359 576l-146 -347h284zM219 837l29 42q40 -50 111 -50q73 0 109 50l30 -42q-46 -79 -138 -79q-93 0 -141 79z" />
    <glyph glyph-name="abreve" unicode="&#x103;" horiz-adv-x="581" 
d="M152 680l29 42q40 -50 111 -50q73 0 109 50l30 -42q-46 -79 -138 -79q-93 0 -141 79zM114 406l-19 90q86 36 191 36q106 0 158.5 -54.5t52.5 -144.5v-333h-104v57q-71 -67 -167 -67q-83 0 -130.5 42t-47.5 115q0 91 66.5 138t179.5 47q51 0 99 -10v6q0 115 -115 115
q-88 0 -164 -37zM152 158q0 -42 28.5 -63.5t77.5 -21.5q75 0 135 53v121q-36 9 -78 9q-73 0 -118 -24.5t-45 -73.5z" />
    <glyph glyph-name="Aogonek" unicode="&#x104;" horiz-adv-x="713" 
d="M17 0l282 680h121l270 -680h-34q-41 -2 -67.5 -21t-26.5 -52q0 -26 15.5 -40.5t41.5 -14.5q27 0 56 18l11 -49q-36 -20 -81 -20q-43 0 -69 25t-26 68q0 33 21.5 57.5t50.5 33.5l-58 145h-339l-62 -150h-106zM359 576l-146 -347h284z" />
    <glyph glyph-name="aogonek" unicode="&#x105;" horiz-adv-x="581" 
d="M114 406l-19 90q86 36 191 36q106 0 158.5 -54.5t52.5 -144.5v-333h-22q-40 -2 -65 -21.5t-25 -51.5q0 -26 15.5 -40.5t41.5 -14.5q27 0 56 18l11 -49q-36 -20 -81 -20q-43 0 -69 25t-26 68q0 30 17 53t43 34v56q-71 -67 -167 -67q-83 0 -130.5 42t-47.5 115
q0 91 66.5 138t179.5 47q51 0 99 -10v6q0 115 -115 115q-88 0 -164 -37zM152 158q0 -42 28.5 -63.5t77.5 -21.5q75 0 135 53v121q-36 9 -78 9q-73 0 -118 -24.5t-45 -73.5z" />
    <glyph glyph-name="Cacute" unicode="&#x106;" horiz-adv-x="724" 
d="M163 340q0 -108 70 -180.5t177 -72.5q128 0 216 81l50 -74q-104 -104 -266 -104q-151 0 -252.5 100.5t-101.5 249.5t101.5 249.5t252.5 100.5q162 0 266 -104l-50 -74q-88 81 -216 81q-107 0 -177 -72.5t-70 -180.5zM553 898l-96 -145h-90l81 145h105z" />
    <glyph glyph-name="cacute" unicode="&#x107;" horiz-adv-x="579" 
d="M55 262q0 119 78.5 197t201.5 78q117 0 197 -72l-52 -77q-57 53 -141 53q-79 0 -128.5 -50.5t-49.5 -128.5q0 -79 49.5 -129.5t128.5 -50.5q84 0 141 53l52 -77q-80 -72 -197 -72q-123 0 -201.5 78.5t-78.5 197.5zM469 741l-96 -145h-90l81 145h105z" />
    <glyph glyph-name="Ccircumflex" unicode="&#x108;" horiz-adv-x="724" 
d="M163 340q0 -108 70 -180.5t177 -72.5q128 0 216 81l50 -74q-104 -104 -266 -104q-151 0 -252.5 100.5t-101.5 249.5t101.5 249.5t252.5 100.5q162 0 266 -104l-50 -74q-88 81 -216 81q-107 0 -177 -72.5t-70 -180.5zM486 753l-76 92l-76 -92h-82l106 145h103l106 -145
h-81z" />
    <glyph glyph-name="ccircumflex" unicode="&#x109;" horiz-adv-x="579" 
d="M55 262q0 119 78.5 197t201.5 78q117 0 197 -72l-52 -77q-57 53 -141 53q-79 0 -128.5 -50.5t-49.5 -128.5q0 -79 49.5 -129.5t128.5 -50.5q84 0 141 53l52 -77q-80 -72 -197 -72q-123 0 -201.5 78.5t-78.5 197.5zM413 596l-76 92l-76 -92h-82l106 145h103l106 -145h-81z
" />
    <glyph glyph-name="Cdotaccent" unicode="&#x10a;" horiz-adv-x="724" 
d="M163 340q0 -108 70 -180.5t177 -72.5q128 0 216 81l50 -74q-104 -104 -266 -104q-151 0 -252.5 100.5t-101.5 249.5t101.5 249.5t252.5 100.5q162 0 266 -104l-50 -74q-88 81 -216 81q-107 0 -177 -72.5t-70 -180.5zM349 829q0 56 64 56q62 0 62 -56q0 -57 -62 -57
q-64 0 -64 57z" />
    <glyph glyph-name="cdotaccent" unicode="&#x10b;" horiz-adv-x="579" 
d="M55 262q0 119 78.5 197t201.5 78q117 0 197 -72l-52 -77q-57 53 -141 53q-79 0 -128.5 -50.5t-49.5 -128.5q0 -79 49.5 -129.5t128.5 -50.5q84 0 141 53l52 -77q-80 -72 -197 -72q-123 0 -201.5 78.5t-78.5 197.5zM273 672q0 56 64 56q62 0 62 -56q0 -57 -62 -57
q-64 0 -64 57z" />
    <glyph glyph-name="Ccaron" unicode="&#x10c;" horiz-adv-x="724" 
d="M163 340q0 -108 70 -180.5t177 -72.5q128 0 216 81l50 -74q-104 -104 -266 -104q-151 0 -252.5 100.5t-101.5 249.5t101.5 249.5t252.5 100.5q162 0 266 -104l-50 -74q-88 81 -216 81q-107 0 -177 -72.5t-70 -180.5zM336 898l76 -91l76 91h81l-106 -145h-103l-106 145h82
z" />
    <glyph glyph-name="ccaron" unicode="&#x10d;" horiz-adv-x="579" 
d="M55 262q0 119 78.5 197t201.5 78q117 0 197 -72l-52 -77q-57 53 -141 53q-79 0 -128.5 -50.5t-49.5 -128.5q0 -79 49.5 -129.5t128.5 -50.5q84 0 141 53l52 -77q-80 -72 -197 -72q-123 0 -201.5 78.5t-78.5 197.5zM263 741l76 -91l76 91h81l-106 -145h-103l-106 145h82z
" />
    <glyph glyph-name="Dcaron" unicode="&#x10e;" horiz-adv-x="787" 
d="M100 0v680h277q156 -1 253.5 -90.5t97.5 -250.5q0 -160 -97.5 -249.5t-253.5 -89.5h-277zM373 589h-169v-498h169q112 0 180 65.5t68 182.5q0 119 -68 184t-180 66zM266 898l76 -91l76 91h81l-106 -145h-103l-106 145h82z" />
    <glyph glyph-name="dcaron" unicode="&#x10f;" horiz-adv-x="719" 
d="M56 262q0 119 69 194.5t182 75.5q99 0 167 -68v246h104v-710h-104v61q-66 -71 -167 -71q-112 0 -181.5 76t-69.5 196zM162 262q0 -81 47 -131t125 -50q81 0 140 59v240q-25 26 -62.5 43.5t-77.5 17.5q-78 0 -125 -49.5t-47 -129.5zM668 509l24 67q-53 8 -53 54
q0 28 17 43.5t44 15.5q33 0 51.5 -17.5t18.5 -49.5q0 -64 -50 -132z" />
    <glyph glyph-name="Dcroat" unicode="&#x110;" horiz-adv-x="792" 
d="M106 368v312h276q156 -1 253.5 -90.5t97.5 -250.5q0 -160 -97.5 -249.5t-253.5 -89.5h-276v313h-64v55h64zM210 368h154v-55h-154v-222h168q112 0 180.5 65.5t68.5 182.5q0 118 -68.5 183.5t-180.5 66.5h-168v-221z" />
    <glyph glyph-name="dcroat" unicode="&#x111;" 
d="M56 262q0 119 69 194.5t182 75.5q99 0 167 -68v124h-122v55h122v67h104v-67h97v-55h-97v-588h-104v61q-66 -71 -167 -71q-112 0 -181.5 76t-69.5 196zM162 262q0 -81 47 -131t125 -50q81 0 140 59v240q-25 26 -62.5 43.5t-77.5 17.5q-78 0 -125 -49.5t-47 -129.5z" />
    <glyph glyph-name="Emacron" unicode="&#x112;" horiz-adv-x="685" 
d="M628 0h-528v680h528v-92h-428v-191h355v-92h-355v-213h428v-92zM487 780h-247v73h247v-73z" />
    <glyph glyph-name="emacron" unicode="&#x113;" horiz-adv-x="620" 
d="M515 132l41 -75q-87 -71 -217 -71q-141 0 -212 76.5t-71 197.5q0 118 75.5 197.5t198.5 79.5q114 0 173.5 -61.5t59.5 -156.5q0 -57 -11 -92h-389q8 -71 52.5 -112t126.5 -41q96 0 173 58zM461 308q2 16 2 28q0 49 -34 81.5t-101 32.5q-70 0 -113.5 -41t-49.5 -101h296z
M454 623h-247v73h247v-73z" />
    <glyph glyph-name="Ebreve" unicode="&#x114;" horiz-adv-x="685" 
d="M628 0h-528v680h528v-92h-428v-191h355v-92h-355v-213h428v-92zM223 837l29 42q40 -50 111 -50q73 0 109 50l30 -42q-46 -79 -138 -79q-93 0 -141 79z" />
    <glyph glyph-name="ebreve" unicode="&#x115;" horiz-adv-x="620" 
d="M515 132l41 -75q-87 -71 -217 -71q-141 0 -212 76.5t-71 197.5q0 118 75.5 197.5t198.5 79.5q114 0 173.5 -61.5t59.5 -156.5q0 -57 -11 -92h-389q8 -71 52.5 -112t126.5 -41q96 0 173 58zM461 308q2 16 2 28q0 49 -34 81.5t-101 32.5q-70 0 -113.5 -41t-49.5 -101h296z
M194 680l29 42q40 -50 111 -50q73 0 109 50l30 -42q-46 -79 -138 -79q-93 0 -141 79z" />
    <glyph glyph-name="Edotaccent" unicode="&#x116;" horiz-adv-x="685" 
d="M628 0h-528v680h528v-92h-428v-191h355v-92h-355v-213h428v-92zM299 829q0 56 64 56q62 0 62 -56q0 -57 -62 -57q-64 0 -64 57z" />
    <glyph glyph-name="edotaccent" unicode="&#x117;" horiz-adv-x="620" 
d="M515 132l41 -75q-87 -71 -217 -71q-141 0 -212 76.5t-71 197.5q0 118 75.5 197.5t198.5 79.5q114 0 173.5 -61.5t59.5 -156.5q0 -57 -11 -92h-389q8 -71 52.5 -112t126.5 -41q96 0 173 58zM461 308q2 16 2 28q0 49 -34 81.5t-101 32.5q-70 0 -113.5 -41t-49.5 -101h296z
M271 672q0 56 64 56q62 0 62 -56q0 -57 -62 -57q-64 0 -64 57z" />
    <glyph glyph-name="Eogonek" unicode="&#x118;" horiz-adv-x="685" 
d="M628 0h-19q-40 -2 -65 -21.5t-25 -51.5q0 -26 15.5 -40.5t41.5 -14.5q27 0 56 18l11 -49q-36 -20 -81 -20q-43 0 -69 25t-26 68q0 58 58 86h-425v680h528v-92h-428v-191h355v-92h-355v-213h428v-92z" />
    <glyph glyph-name="eogonek" unicode="&#x119;" horiz-adv-x="620" 
d="M515 132l41 -75q-67 -55 -165 -68q-43 -20 -43 -62q0 -26 15.5 -40.5t41.5 -14.5q27 0 56 18l11 -49q-36 -20 -81 -20q-43 0 -69 25t-26 68q0 45 36 72q-137 2 -206.5 78t-69.5 196q0 118 75.5 197.5t198.5 79.5q114 0 173.5 -61.5t59.5 -156.5q0 -57 -11 -92h-389
q8 -71 52.5 -112t126.5 -41q96 0 173 58zM461 308q2 16 2 28q0 49 -34 81.5t-101 32.5q-70 0 -113.5 -41t-49.5 -101h296z" />
    <glyph glyph-name="Ecaron" unicode="&#x11a;" horiz-adv-x="685" 
d="M628 0h-528v680h528v-92h-428v-191h355v-92h-355v-213h428v-92zM288 898l76 -91l76 91h81l-106 -145h-103l-106 145h82z" />
    <glyph glyph-name="ecaron" unicode="&#x11b;" horiz-adv-x="620" 
d="M515 132l41 -75q-87 -71 -217 -71q-141 0 -212 76.5t-71 197.5q0 118 75.5 197.5t198.5 79.5q114 0 173.5 -61.5t59.5 -156.5q0 -57 -11 -92h-389q8 -71 52.5 -112t126.5 -41q96 0 173 58zM461 308q2 16 2 28q0 49 -34 81.5t-101 32.5q-70 0 -113.5 -41t-49.5 -101h296z
M255 741l76 -91l76 91h81l-106 -145h-103l-106 145h82z" />
    <glyph glyph-name="Gcircumflex" unicode="&#x11c;" horiz-adv-x="772" 
d="M705 381v-301q-49 -38 -129.5 -64t-156.5 -26q-156 0 -259 94.5t-103 254.5q0 161 103 256t259 95q148 0 260 -94l-50 -80q-88 77 -208 77q-111 0 -184 -68t-73 -186q0 -116 73.5 -184t187.5 -68q101 0 176 48v155h-211v91h315zM495 753l-76 92l-76 -92h-82l106 145h103
l106 -145h-81z" />
    <glyph glyph-name="gcircumflex" unicode="&#x11d;" 
d="M57 280q0 106 70 179t180 73q101 0 167 -71v62h104v-467q0 -120 -72.5 -187t-180.5 -67q-17 0 -32.5 1t-30.5 4t-26.5 5t-25 7t-21 7.5t-19.5 8t-16 7.5t-15 8t-12 6l23 90q86 -55 175 -55q64 0 106.5 36t42.5 108v66q-69 -71 -167 -71q-110 0 -180 72.5t-70 177.5z
M163 280q0 -69 47.5 -114t124.5 -45q82 0 139 59v200q-23 25 -60.5 43t-78.5 18q-77 0 -124.5 -45.5t-47.5 -115.5zM416 596l-76 92l-76 -92h-82l106 145h103l106 -145h-81z" />
    <glyph glyph-name="Gbreve" unicode="&#x11e;" horiz-adv-x="772" 
d="M705 381v-301q-49 -38 -129.5 -64t-156.5 -26q-156 0 -259 94.5t-103 254.5q0 161 103 256t259 95q148 0 260 -94l-50 -80q-88 77 -208 77q-111 0 -184 -68t-73 -186q0 -116 73.5 -184t187.5 -68q101 0 176 48v155h-211v91h315zM281 837l29 42q40 -50 111 -50
q73 0 109 50l30 -42q-46 -79 -138 -79q-93 0 -141 79z" />
    <glyph glyph-name="gbreve" unicode="&#x11f;" 
d="M57 280q0 106 70 179t180 73q101 0 167 -71v62h104v-467q0 -120 -72.5 -187t-180.5 -67q-17 0 -32.5 1t-30.5 4t-26.5 5t-25 7t-21 7.5t-19.5 8t-16 7.5t-15 8t-12 6l23 90q86 -55 175 -55q64 0 106.5 36t42.5 108v66q-69 -71 -167 -71q-110 0 -180 72.5t-70 177.5z
M163 280q0 -69 47.5 -114t124.5 -45q82 0 139 59v200q-23 25 -60.5 43t-78.5 18q-77 0 -124.5 -45.5t-47.5 -115.5zM204 680l29 42q40 -50 111 -50q73 0 109 50l30 -42q-46 -79 -138 -79q-93 0 -141 79z" />
    <glyph glyph-name="Gdotaccent" unicode="&#x120;" horiz-adv-x="772" 
d="M705 381v-301q-49 -38 -129.5 -64t-156.5 -26q-156 0 -259 94.5t-103 254.5q0 161 103 256t259 95q148 0 260 -94l-50 -80q-88 77 -208 77q-111 0 -184 -68t-73 -186q0 -116 73.5 -184t187.5 -68q101 0 176 48v155h-211v91h315zM353 829q0 56 64 56q62 0 62 -56
q0 -57 -62 -57q-64 0 -64 57z" />
    <glyph glyph-name="gdotaccent" unicode="&#x121;" 
d="M57 280q0 106 70 179t180 73q101 0 167 -71v62h104v-467q0 -120 -72.5 -187t-180.5 -67q-17 0 -32.5 1t-30.5 4t-26.5 5t-25 7t-21 7.5t-19.5 8t-16 7.5t-15 8t-12 6l23 90q86 -55 175 -55q64 0 106.5 36t42.5 108v66q-69 -71 -167 -71q-110 0 -180 72.5t-70 177.5z
M163 280q0 -69 47.5 -114t124.5 -45q82 0 139 59v200q-23 25 -60.5 43t-78.5 18q-77 0 -124.5 -45.5t-47.5 -115.5zM287 672q0 56 64 56q62 0 62 -56q0 -57 -62 -57q-64 0 -64 57z" />
    <glyph glyph-name="Gcommaaccent" unicode="&#x122;" horiz-adv-x="772" 
d="M705 381v-301q-49 -38 -129.5 -64t-156.5 -26q-156 0 -259 94.5t-103 254.5q0 161 103 256t259 95q148 0 260 -94l-50 -80q-88 77 -208 77q-111 0 -184 -68t-73 -186q0 -116 73.5 -184t187.5 -68q101 0 176 48v155h-211v91h315zM369 -244l24 67q-53 8 -53 54
q0 28 17 43.5t44 15.5q33 0 51.5 -17.5t18.5 -49.5q0 -64 -50 -132z" />
    <glyph glyph-name="gcommaaccent" unicode="&#x123;" 
d="M57 280q0 106 70 179t180 73q101 0 167 -71v62h104v-467q0 -120 -72.5 -187t-180.5 -67q-17 0 -32.5 1t-30.5 4t-26.5 5t-25 7t-21 7.5t-19.5 8t-16 7.5t-15 8t-12 6l23 90q86 -55 175 -55q64 0 106.5 36t42.5 108v66q-69 -71 -167 -71q-110 0 -180 72.5t-70 177.5z
M163 280q0 -69 47.5 -114t124.5 -45q82 0 139 59v200q-23 25 -60.5 43t-78.5 18q-77 0 -124.5 -45.5t-47.5 -115.5zM378 773l-24 -67q54 -8 54 -54q0 -28 -17 -43.5t-44 -15.5q-34 0 -52 17.5t-18 49.5q0 67 49 132z" />
    <glyph glyph-name="Hcircumflex" unicode="&#x124;" horiz-adv-x="830" 
d="M626 0v297h-422v-297h-104v680h104v-292h422v292h104v-680h-104zM490 753l-76 92l-76 -92h-82l106 145h103l106 -145h-81z" />
    <glyph glyph-name="hcircumflex" unicode="&#x125;" 
d="M89 710h104v-266q64 88 187 88q102 0 153 -64t51 -167v-301h-104v285q0 70 -33 110.5t-100 40.5q-58 0 -98 -33t-56 -80v-323h-104v710zM413 752l-76 92l-76 -92h-82l106 145h103l106 -145h-81z" />
    <glyph glyph-name="Hbar" unicode="&#x126;" horiz-adv-x="839" 
d="M104 0v505h-46v55h46v120h104v-120h422v120h104v-120h51v-55h-51v-505h-104v297h-422v-297h-104zM208 505v-117h422v117h-422z" />
    <glyph glyph-name="hbar" unicode="&#x127;" 
d="M89 710h104v-67h143v-55h-143v-144q64 88 187 88q102 0 153 -64t51 -167v-301h-104v285q0 70 -33 110.5t-100 40.5q-58 0 -98 -33t-56 -80v-323h-104v588h-76v55h76v67z" />
    <glyph glyph-name="Itilde" unicode="&#x128;" horiz-adv-x="305" 
d="M100 0v680h104v-680h-104zM8 770l-34 43q15 32 43 54t61 22t81 -31.5t67 -31.5q46 0 69 47l34 -42q-38 -78 -103 -78q-31 0 -80 32t-67 32q-43 0 -71 -47z" />
    <glyph glyph-name="itilde" unicode="&#x129;" horiz-adv-x="283" 
d="M-4 613l-34 43q15 32 43 54t61 22t81 -31.5t67 -31.5q46 0 69 47l34 -42q-38 -78 -103 -78q-31 0 -80 32t-67 32q-43 0 -71 -47zM193 0h-104v523h104v-523z" />
    <glyph glyph-name="Imacron" unicode="&#x12a;" horiz-adv-x="305" 
d="M100 0v680h104v-680h-104zM275 780h-247v73h247v-73z" />
    <glyph glyph-name="imacron" unicode="&#x12b;" horiz-adv-x="283" 
d="M264 623h-247v73h247v-73zM193 0h-104v523h104v-523z" />
    <glyph glyph-name="Ibreve" unicode="&#x12c;" horiz-adv-x="305" 
d="M100 0v680h104v-680h-104zM12 837l29 42q40 -50 111 -50q73 0 109 50l30 -42q-46 -79 -138 -79q-93 0 -141 79z" />
    <glyph glyph-name="ibreve" unicode="&#x12d;" horiz-adv-x="283" 
d="M0 680l29 42q40 -50 111 -50q73 0 109 50l30 -42q-46 -79 -138 -79q-93 0 -141 79zM193 0h-104v523h104v-523z" />
    <glyph glyph-name="Iogonek" unicode="&#x12e;" horiz-adv-x="306" 
d="M205 0h-30q-40 -2 -65 -21.5t-25 -51.5q0 -26 15.5 -40.5t41.5 -14.5q27 0 56 18l11 -49q-36 -20 -81 -20q-43 0 -69 25t-26 68q0 32 19.5 55.5t48.5 34.5v676h104v-680z" />
    <glyph glyph-name="iogonek" unicode="&#x12f;" horiz-adv-x="284" 
d="M90 0v523h104v-523h-16q-40 -2 -65 -21.5t-25 -51.5q0 -26 15.5 -40.5t41.5 -14.5q27 0 56 18l11 -49q-36 -20 -81 -20q-43 0 -69 25t-26 68q0 58 58 86h-4zM79 672q0 56 64 56q62 0 62 -56q0 -57 -62 -57q-64 0 -64 57z" />
    <glyph glyph-name="Idotaccent" unicode="&#x130;" horiz-adv-x="305" 
d="M100 0v680h104v-680h-104zM88 829q0 56 64 56q62 0 62 -56q0 -57 -62 -57q-64 0 -64 57z" />
    <glyph glyph-name="dotlessi" unicode="&#x131;" horiz-adv-x="283" 
d="M193 0h-104v523h104v-523z" />
    <glyph glyph-name="IJ" unicode="&#x132;" horiz-adv-x="961" 
d="M100 0v680h104v-680h-104zM765 680h105v-416q0 -125 -69 -200t-198 -75q-127 0 -192 70.5t-73 195.5l103 10q13 -179 163 -179q81 0 121 48.5t40 136.5v409z" />
    <glyph glyph-name="ij" unicode="&#x133;" horiz-adv-x="604" 
d="M78 672q0 56 64 56q62 0 62 -56q0 -57 -62 -57q-64 0 -64 57zM89 0v523h104v-523h-104zM410 523h104v-489q0 -160 -141 -231l-61 69q48 27 73 63t25 96v492zM400 672q0 56 63 56q62 0 62 -56q0 -57 -62 -57q-63 0 -63 57z" />
    <glyph glyph-name="Jcircumflex" unicode="&#x134;" horiz-adv-x="650" 
d="M453 680h105v-416q0 -125 -69 -200t-198 -75q-127 0 -192 70.5t-73 195.5l103 10q13 -179 163 -179q81 0 121 48.5t40 136.5v409zM578 753l-76 92l-76 -92h-82l106 145h103l106 -145h-81z" />
    <glyph glyph-name="jcircumflex" unicode="&#x135;" horiz-adv-x="283" 
d="M52 -197l-61 62q98 56 98 162v496h104v-489q0 -160 -141 -231zM216 596l-76 92l-76 -92h-82l106 145h103l106 -145h-81z" />
    <glyph glyph-name="Kcommaaccent" unicode="&#x136;" horiz-adv-x="691" 
d="M100 0v680h104v-299h85l251 299h108v-16l-270 -329l298 -320v-15h-124l-264 289h-84v-289h-104zM311 -244l24 67q-53 8 -53 54q0 28 17 43.5t44 15.5q33 0 51.5 -17.5t18.5 -49.5q0 -64 -50 -132z" />
    <glyph glyph-name="kcommaaccent" unicode="&#x137;" horiz-adv-x="592" 
d="M548 523v-17l-250 -230l267 -259v-17h-125l-247 249v-249h-104v710h104v-412l238 225h117zM263 -244l24 67q-53 8 -53 54q0 28 17 43.5t44 15.5q33 0 51.5 -17.5t18.5 -49.5q0 -64 -50 -132z" />
    <glyph glyph-name="kgreenlandic" unicode="&#x138;" horiz-adv-x="591" 
d="M548 523v-17l-250 -248l267 -241v-17h-125l-247 231v-231h-104v523h104v-244l238 244h117z" />
    <glyph glyph-name="Lacute" unicode="&#x139;" horiz-adv-x="596" 
d="M576 0h-476v680h104v-589h372v-91zM289 898l-96 -145h-90l81 145h105z" />
    <glyph glyph-name="lacute" unicode="&#x13a;" horiz-adv-x="330" 
d="M91 710h104v-566q0 -65 52 -65q30 0 61 18l8 -83q-50 -24 -107 -24q-118 0 -118 130v590zM272 897l-96 -145h-90l81 145h105z" />
    <glyph glyph-name="Lcommaaccent" unicode="&#x13b;" horiz-adv-x="596" 
d="M576 0h-476v680h104v-589h372v-91zM293 -244l24 67q-53 8 -53 54q0 28 17 43.5t44 15.5q33 0 51.5 -17.5t18.5 -49.5q0 -64 -50 -132z" />
    <glyph glyph-name="lcommaaccent" unicode="&#x13c;" horiz-adv-x="330" 
d="M91 710h104v-566q0 -65 52 -65q30 0 61 18l8 -83q-50 -24 -107 -24q-118 0 -118 130v590zM150 -244l24 67q-53 8 -53 54q0 28 17 43.5t44 15.5q33 0 51.5 -17.5t18.5 -49.5q0 -64 -50 -132z" />
    <glyph glyph-name="Lcaron" unicode="&#x13d;" horiz-adv-x="600" 
d="M576 0h-476v680h104v-589h372v-91zM418 509l24 67q-53 8 -53 54q0 28 17 43.5t44 15.5q33 0 51.5 -17.5t18.5 -49.5q0 -64 -50 -132z" />
    <glyph glyph-name="lcaron" unicode="&#x13e;" horiz-adv-x="359" 
d="M91 710h104v-566q0 -65 52 -65q30 0 61 18l8 -83q-50 -24 -107 -24q-118 0 -118 130v590zM285 509l24 67q-53 8 -53 54q0 28 17 43.5t44 15.5q33 0 51.5 -17.5t18.5 -49.5q0 -64 -50 -132z" />
    <glyph glyph-name="Ldot" unicode="&#x13f;" horiz-adv-x="605" 
d="M576 0h-476v680h104v-589h372v-91zM345 374q0 65 66 65t66 -65t-66 -65t-66 65z" />
    <glyph glyph-name="ldot" unicode="&#x140;" horiz-adv-x="413" 
d="M91 710h104v-566q0 -65 52 -65q30 0 61 18l8 -83q-50 -24 -107 -24q-118 0 -118 130v590zM275 374q0 65 66 65t66 -65t-66 -65t-66 65z" />
    <glyph glyph-name="Lslash" unicode="&#x141;" horiz-adv-x="601" 
d="M581 0h-476v269l-52 -26v84l52 26v327h104v-274l128 65v-84l-128 -65v-231h372v-91z" />
    <glyph glyph-name="lslash" unicode="&#x142;" horiz-adv-x="336" 
d="M313 97l8 -83q-50 -24 -107 -24q-118 0 -118 130v183l-49 -25v85l49 25v322h104v-269l82 42v-84l-82 -43v-212q0 -65 52 -65q28 0 61 18z" />
    <glyph glyph-name="Nacute" unicode="&#x143;" horiz-adv-x="829" 
d="M637 0l-433 514v-514h-104v680h92l432 -516v516h104v-680h-91zM552 898l-96 -145h-90l81 145h105z" />
    <glyph glyph-name="nacute" unicode="&#x144;" 
d="M89 523h104v-81q64 90 187 90q102 0 153 -64t51 -167v-301h-104v285q0 70 -33 110.5t-100 40.5q-58 0 -98 -33t-56 -80v-323h-104v523zM478 741l-96 -145h-90l81 145h105z" />
    <glyph glyph-name="Ncommaaccent" unicode="&#x145;" horiz-adv-x="829" 
d="M637 0l-433 514v-514h-104v680h92l432 -516v516h104v-680h-91zM364 -244l24 67q-53 8 -53 54q0 28 17 43.5t44 15.5q33 0 51.5 -17.5t18.5 -49.5q0 -64 -50 -132z" />
    <glyph glyph-name="ncommaaccent" unicode="&#x146;" 
d="M89 523h104v-81q64 90 187 90q102 0 153 -64t51 -167v-301h-104v285q0 70 -33 110.5t-100 40.5q-58 0 -98 -33t-56 -80v-323h-104v523zM298 -244l24 67q-53 8 -53 54q0 28 17 43.5t44 15.5q33 0 51.5 -17.5t18.5 -49.5q0 -64 -50 -132z" />
    <glyph glyph-name="Ncaron" unicode="&#x147;" horiz-adv-x="829" 
d="M637 0l-433 514v-514h-104v680h92l432 -516v516h104v-680h-91zM346 898l76 -91l76 91h81l-106 -145h-103l-106 145h82z" />
    <glyph glyph-name="ncaron" unicode="&#x148;" 
d="M89 523h104v-81q64 90 187 90q102 0 153 -64t51 -167v-301h-104v285q0 70 -33 110.5t-100 40.5q-58 0 -98 -33t-56 -80v-323h-104v523zM258 741l76 -91l76 91h81l-106 -145h-103l-106 145h82z" />
    <glyph glyph-name="napostrophe" unicode="&#x149;" horiz-adv-x="755" 
d="M177 523h104v-81q64 90 187 90q102 0 153 -64t51 -167v-301h-104v285q0 70 -33 110.5t-100 40.5q-58 0 -98 -33t-56 -80v-323h-104v523zM49 511l24 67q-53 8 -53 54q0 28 17 43.5t44 15.5q33 0 51.5 -17.5t18.5 -49.5q0 -64 -50 -132z" />
    <glyph glyph-name="Eng" unicode="&#x14a;" horiz-adv-x="829" 
d="M624 27l-420 487v-514h-104v680h92l432 -511v511h104v-644q0 -160 -141 -232l-61 62q98 57 98 161z" />
    <glyph glyph-name="eng" unicode="&#x14b;" 
d="M481 28v258q0 70 -33 110.5t-100 40.5q-59 0 -99 -32.5t-55 -79.5v-323h-104v522h104v-80q63 89 186 89q102 0 153.5 -64t51.5 -167v-266q0 -160 -142 -232l-60 62q98 57 98 162z" />
    <glyph glyph-name="Omacron" unicode="&#x14c;" horiz-adv-x="813" 
d="M57 339q0 151 100 251t249 100q151 0 251 -100t100 -251q0 -149 -100 -249t-251 -100q-149 0 -249 100t-100 249zM159 339q0 -108 70 -179.5t177 -71.5q108 0 178 71.5t70 179.5q0 109 -70 180.5t-178 71.5q-107 0 -177 -71.5t-70 -180.5zM529 780h-247v73h247v-73z" />
    <glyph glyph-name="omacron" unicode="&#x14d;" horiz-adv-x="669" 
d="M55 260q0 120 79 198.5t200 78.5q122 0 201 -78.5t79 -198.5q0 -118 -79 -196t-201 -78q-121 0 -200 78t-79 196zM156 260q0 -77 49.5 -127.5t128.5 -50.5t129.5 50.5t50.5 127.5q0 78 -50.5 129.5t-129.5 51.5t-128.5 -51.5t-49.5 -129.5zM457 623h-247v73h247v-73z" />
    <glyph glyph-name="Obreve" unicode="&#x14e;" horiz-adv-x="813" 
d="M57 339q0 151 100 251t249 100q151 0 251 -100t100 -251q0 -149 -100 -249t-251 -100q-149 0 -249 100t-100 249zM159 339q0 -108 70 -179.5t177 -71.5q108 0 178 71.5t70 179.5q0 109 -70 180.5t-178 71.5q-107 0 -177 -71.5t-70 -180.5zM266 837l29 42q40 -50 111 -50
q73 0 109 50l30 -42q-46 -79 -138 -79q-93 0 -141 79z" />
    <glyph glyph-name="obreve" unicode="&#x14f;" horiz-adv-x="669" 
d="M55 260q0 120 79 198.5t200 78.5q122 0 201 -78.5t79 -198.5q0 -118 -79 -196t-201 -78q-121 0 -200 78t-79 196zM156 260q0 -77 49.5 -127.5t128.5 -50.5t129.5 50.5t50.5 127.5q0 78 -50.5 129.5t-129.5 51.5t-128.5 -51.5t-49.5 -129.5zM194 680l29 42q40 -50 111 -50
q73 0 109 50l30 -42q-46 -79 -138 -79q-93 0 -141 79z" />
    <glyph glyph-name="Ohungarumlaut" unicode="&#x150;" horiz-adv-x="813" 
d="M57 339q0 151 100 251t249 100q151 0 251 -100t100 -251q0 -149 -100 -249t-251 -100q-149 0 -249 100t-100 249zM159 339q0 -108 70 -179.5t177 -71.5q108 0 178 71.5t70 179.5q0 109 -70 180.5t-178 71.5q-107 0 -177 -71.5t-70 -180.5zM465 898l-97 -145h-89l82 145
h104zM652 898l-96 -145h-90l82 145h104z" />
    <glyph glyph-name="ohungarumlaut" unicode="&#x151;" horiz-adv-x="669" 
d="M55 260q0 120 79 198.5t200 78.5q122 0 201 -78.5t79 -198.5q0 -118 -79 -196t-201 -78q-121 0 -200 78t-79 196zM156 260q0 -77 49.5 -127.5t128.5 -50.5t129.5 50.5t50.5 127.5q0 78 -50.5 129.5t-129.5 51.5t-128.5 -51.5t-49.5 -129.5zM380 741l-97 -145h-89l82 145
h104zM567 741l-96 -145h-90l82 145h104z" />
    <glyph glyph-name="OE" unicode="&#x152;" horiz-adv-x="1179" 
d="M594 0v51q-88 -62 -191 -62q-149 0 -247.5 99.5t-98.5 249.5q0 151 98.5 251t247.5 100q107 0 191 -62v53h527v-92h-427v-194h354v-85h-354v-218h427v-91h-527zM157 338q0 -108 71.5 -179.5t181.5 -71.5q111 0 184 73v358q-74 74 -186 74q-108 0 -179.5 -72.5
t-71.5 -181.5z" />
    <glyph glyph-name="oe" unicode="&#x153;" horiz-adv-x="1099" 
d="M1033 231h-398q4 -74 51 -117t141 -43q92 0 167 58l41 -72q-87 -71 -217 -71q-188 0 -246 143q-30 -66 -93 -104.5t-145 -38.5q-121 0 -200 78t-79 196q0 120 79 198.5t200 78.5q83 0 146.5 -40.5t93.5 -109.5q28 68 89.5 109t145.5 41q114 0 173.5 -62t59.5 -156
q0 -61 -9 -88zM156 260q0 -77 49.5 -128t128.5 -51t129.5 51t50.5 128q0 78 -50.5 129.5t-129.5 51.5t-128.5 -51.5t-49.5 -129.5zM809 458q-73 0 -119.5 -41.5t-53.5 -112.5h319q2 20 2 29q0 57 -41 91t-107 34z" />
    <glyph glyph-name="Racute" unicode="&#x154;" horiz-adv-x="722" 
d="M100 0v680h296q118 0 186.5 -54.5t68.5 -163.5q0 -85 -55 -142t-139 -68l238 -235v-17h-120l-247 250h-124v-250h-104zM407 589h-203v-256h203q59 0 97.5 34t38.5 93q0 63 -38 96t-98 33zM479 898l-96 -145h-90l81 145h105z" />
    <glyph glyph-name="racute" unicode="&#x155;" horiz-adv-x="470" 
d="M89 0v523h104v-103q53 112 150 112q61 0 111 -38l-41 -86q-39 28 -86 28q-48 0 -83 -33.5t-51 -85.5v-317h-104zM379 741l-96 -145h-90l81 145h105z" />
    <glyph glyph-name="Rcommaaccent" unicode="&#x156;" horiz-adv-x="722" 
d="M100 0v680h296q118 0 186.5 -54.5t68.5 -163.5q0 -85 -55 -142t-139 -68l238 -235v-17h-120l-247 250h-124v-250h-104zM407 589h-203v-256h203q59 0 97.5 34t38.5 93q0 63 -38 96t-98 33zM320 -244l24 67q-53 8 -53 54q0 28 17 43.5t44 15.5q33 0 51.5 -17.5t18.5 -49.5
q0 -64 -50 -132z" />
    <glyph glyph-name="rcommaaccent" unicode="&#x157;" horiz-adv-x="470" 
d="M89 0v523h104v-103q53 112 150 112q61 0 111 -38l-41 -86q-39 28 -86 28q-48 0 -83 -33.5t-51 -85.5v-317h-104zM103 -244l24 67q-53 8 -53 54q0 28 17 43.5t44 15.5q33 0 51.5 -17.5t18.5 -49.5q0 -64 -50 -132z" />
    <glyph glyph-name="Rcaron" unicode="&#x158;" horiz-adv-x="722" 
d="M100 0v680h296q118 0 186.5 -54.5t68.5 -163.5q0 -85 -55 -142t-139 -68l238 -235v-17h-120l-247 250h-124v-250h-104zM407 589h-203v-256h203q59 0 97.5 34t38.5 93q0 63 -38 96t-98 33zM261 898l76 -91l76 91h81l-106 -145h-103l-106 145h82z" />
    <glyph glyph-name="rcaron" unicode="&#x159;" horiz-adv-x="470" 
d="M89 0v523h104v-103q53 112 150 112q61 0 111 -38l-41 -86q-39 28 -86 28q-48 0 -83 -33.5t-51 -85.5v-317h-104zM177 741l76 -91l76 91h81l-106 -145h-103l-106 145h82z" />
    <glyph glyph-name="Sacute" unicode="&#x15a;" horiz-adv-x="629" 
d="M61 49l25 100q100 -63 216 -63q76 0 121.5 28t45.5 77q0 36 -27.5 58t-90.5 37l-122 30q-170 40 -170 177q0 85 67 140.5t196 55.5q136 0 238 -54l-30 -96q-37 23 -97 38.5t-115 15.5q-76 0 -113.5 -25t-37.5 -66q0 -34 22.5 -54t71.5 -33l132 -34q93 -25 138.5 -68.5
t45.5 -113.5q0 -94 -77.5 -151.5t-199.5 -57.5q-67 0 -134 18.5t-105 40.5zM458 898l-96 -145h-90l81 145h105z" />
    <glyph glyph-name="sacute" unicode="&#x15b;" horiz-adv-x="532" 
d="M461 494l-28 -90q-80 40 -164 40q-102 0 -102 -68q0 -25 15.5 -36t60.5 -22l86 -21q78 -18 114 -54t36 -92q0 -73 -59 -117t-158 -44q-110 0 -198 45l20 90q90 -48 174 -48q53 0 84.5 17.5t31.5 49.5q0 42 -84 63l-82 20q-76 18 -110 50.5t-34 90.5q0 75 55.5 119.5
t157.5 44.5q48 0 100 -11.5t84 -26.5zM394 741l-96 -145h-90l81 145h105z" />
    <glyph glyph-name="Scircumflex" unicode="&#x15c;" horiz-adv-x="629" 
d="M61 49l25 100q100 -63 216 -63q76 0 121.5 28t45.5 77q0 36 -27.5 58t-90.5 37l-122 30q-170 40 -170 177q0 85 67 140.5t196 55.5q136 0 238 -54l-30 -96q-37 23 -97 38.5t-115 15.5q-76 0 -113.5 -25t-37.5 -66q0 -34 22.5 -54t71.5 -33l132 -34q93 -25 138.5 -68.5
t45.5 -113.5q0 -94 -77.5 -151.5t-199.5 -57.5q-67 0 -134 18.5t-105 40.5zM391 753l-76 92l-76 -92h-82l106 145h103l106 -145h-81z" />
    <glyph glyph-name="scircumflex" unicode="&#x15d;" horiz-adv-x="532" 
d="M461 494l-28 -90q-80 40 -164 40q-102 0 -102 -68q0 -25 15.5 -36t60.5 -22l86 -21q78 -18 114 -54t36 -92q0 -73 -59 -117t-158 -44q-110 0 -198 45l20 90q90 -48 174 -48q53 0 84.5 17.5t31.5 49.5q0 42 -84 63l-82 20q-76 18 -110 50.5t-34 90.5q0 75 55.5 119.5
t157.5 44.5q48 0 100 -11.5t84 -26.5zM344 596l-76 92l-76 -92h-82l106 145h103l106 -145h-81z" />
    <glyph glyph-name="Scedilla" unicode="&#x15e;" horiz-adv-x="629" 
d="M238 -96l24 88q-59 5 -114.5 22t-86.5 35l25 100q100 -63 216 -63q76 0 121.5 28t45.5 77q0 36 -27.5 58t-90.5 37l-122 30q-170 40 -170 177q0 85 67 140.5t196 55.5q136 0 238 -54l-30 -96q-37 23 -97 38.5t-115 15.5q-76 0 -113.5 -25t-37.5 -66q0 -34 22.5 -54
t71.5 -33l132 -34q93 -25 138.5 -68.5t45.5 -113.5q0 -92 -75 -149.5t-194 -59.5l-14 -52q12 3 29 3q40 0 62.5 -17.5t22.5 -46.5q0 -36 -30 -55.5t-77 -19.5q-41 0 -76 12l11 37q35 -11 62 -11q60 0 60 35q0 31 -55 31q-36 0 -62 -7z" />
    <glyph glyph-name="scedilla" unicode="&#x15f;" horiz-adv-x="533" 
d="M194 -96l24 88q-89 9 -153 43l20 90q90 -48 174 -48q53 0 84.5 17.5t31.5 49.5q0 42 -84 63l-82 20q-76 18 -110 50.5t-34 90.5q0 75 55.5 119.5t157.5 44.5q48 0 100 -11.5t84 -26.5l-28 -90q-80 40 -164 40q-102 0 -102 -68q0 -25 15.5 -36t60.5 -22l86 -21
q78 -18 114 -54t36 -92q0 -73 -59 -116.5t-157 -44.5l-14 -52q12 3 29 3q40 0 62.5 -17.5t22.5 -46.5q0 -36 -30 -55.5t-77 -19.5q-41 0 -76 12l11 37q35 -11 62 -11q60 0 60 35q0 31 -55 31q-36 0 -62 -7z" />
    <glyph glyph-name="Scaron" unicode="&#x160;" horiz-adv-x="629" 
d="M61 49l25 100q100 -63 216 -63q76 0 121.5 28t45.5 77q0 36 -27.5 58t-90.5 37l-122 30q-170 40 -170 177q0 85 67 140.5t196 55.5q136 0 238 -54l-30 -96q-37 23 -97 38.5t-115 15.5q-76 0 -113.5 -25t-37.5 -66q0 -34 22.5 -54t71.5 -33l132 -34q93 -25 138.5 -68.5
t45.5 -113.5q0 -94 -77.5 -151.5t-199.5 -57.5q-67 0 -134 18.5t-105 40.5zM233 898l76 -91l76 91h81l-106 -145h-103l-106 145h82z" />
    <glyph glyph-name="scaron" unicode="&#x161;" horiz-adv-x="532" 
d="M461 494l-28 -90q-80 40 -164 40q-102 0 -102 -68q0 -25 15.5 -36t60.5 -22l86 -21q78 -18 114 -54t36 -92q0 -73 -59 -117t-158 -44q-110 0 -198 45l20 90q90 -48 174 -48q53 0 84.5 17.5t31.5 49.5q0 42 -84 63l-82 20q-76 18 -110 50.5t-34 90.5q0 75 55.5 119.5
t157.5 44.5q48 0 100 -11.5t84 -26.5zM191 741l76 -91l76 91h81l-106 -145h-103l-106 145h82z" />
    <glyph glyph-name="Tcommaaccent" unicode="&#x162;" horiz-adv-x="627" 
d="M603 588h-232v-588h-34l-18 -62q12 3 29 3q40 0 62.5 -17.5t22.5 -46.5q0 -36 -30 -55.5t-77 -19.5q-41 0 -76 12l11 37q35 -11 62 -11q60 0 60 35q0 31 -55 31q-36 0 -62 -7l-3 5l28 96h-24v588h-244v92h580v-92z" />
    <glyph glyph-name="tcommaaccent" unicode="&#x163;" horiz-adv-x="498" 
d="M221 -96l25 92q-109 25 -109 165v280h-98v82h98l12 133h92v-133h204v-82h-204v-260q0 -100 84 -100q61 0 116 40l34 -81q-81 -50 -181 -50h-3l-14 -52q12 3 29 3q40 0 62.5 -17.5t22.5 -46.5q0 -36 -30 -55.5t-77 -19.5q-41 0 -76 12l11 37q35 -11 62 -11q60 0 60 35
q0 31 -55 31q-36 0 -62 -7z" />
    <glyph glyph-name="Tcaron" unicode="&#x164;" horiz-adv-x="627" 
d="M603 588h-232v-588h-104v588h-244v92h580v-92zM243 898l76 -91l76 91h81l-106 -145h-103l-106 145h82z" />
    <glyph glyph-name="tcaron" unicode="&#x165;" horiz-adv-x="522" 
d="M148 656h92v-133h204v-82h-204v-260q0 -100 84 -100q61 0 116 40l34 -81q-81 -50 -181 -50q-74 0 -115.5 44t-41.5 127v280h-98v82h98zM470 509l24 67q-53 8 -53 54q0 28 17 43.5t44 15.5q33 0 51.5 -17.5t18.5 -49.5q0 -64 -50 -132z" />
    <glyph glyph-name="Tbar" unicode="&#x166;" horiz-adv-x="627" 
d="M603 588h-232v-239h111v-55h-111v-294h-104v294h-107v55h107v239h-244v92h580v-92z" />
    <glyph glyph-name="tbar" unicode="&#x167;" horiz-adv-x="500" 
d="M243 441v-140h137v-55h-137v-65q0 -100 85 -100q60 0 115 40l34 -81q-81 -50 -181 -50q-74 0 -115.5 44t-41.5 127v85h-82v55h82v140h-98v82h106l10 133h86v-133h205v-82h-205z" />
    <glyph glyph-name="Utilde" unicode="&#x168;" horiz-adv-x="783" 
d="M195 680v-392q0 -94 49 -148t146 -54q98 0 148 55.5t50 147.5v391h104v-399q0 -124 -79.5 -208t-222.5 -84q-144 0 -221.5 80t-77.5 212v399h104zM247 770l-34 43q15 32 43 54t61 22t81 -31.5t67 -31.5q45 0 69 47l34 -42q-38 -78 -103 -78q-31 0 -80 32t-67 32
q-43 0 -71 -47z" />
    <glyph glyph-name="utilde" unicode="&#x169;" 
d="M578 0h-104v81q-64 -90 -186 -90q-102 0 -153.5 64t-51.5 167v301h104v-285q0 -70 33.5 -110.5t101.5 -40.5q57 0 97 33t55 80v323h104v-523zM192 613l-34 43q15 32 43 54t61 22t81 -31.5t67 -31.5q46 0 69 47l34 -42q-38 -78 -103 -78q-31 0 -80 32t-67 32
q-43 0 -71 -47z" />
    <glyph glyph-name="Umacron" unicode="&#x16a;" horiz-adv-x="783" 
d="M195 680v-392q0 -94 49 -148t146 -54q98 0 148 55.5t50 147.5v391h104v-399q0 -124 -79.5 -208t-222.5 -84q-144 0 -221.5 80t-77.5 212v399h104zM514 780h-247v73h247v-73z" />
    <glyph glyph-name="umacron" unicode="&#x16b;" 
d="M578 0h-104v81q-64 -90 -186 -90q-102 0 -153.5 64t-51.5 167v301h104v-285q0 -70 33.5 -110.5t101.5 -40.5q57 0 97 33t55 80v323h104v-523zM455 623h-247v73h247v-73z" />
    <glyph glyph-name="Ubreve" unicode="&#x16c;" horiz-adv-x="783" 
d="M195 680v-392q0 -94 49 -148t146 -54q98 0 148 55.5t50 147.5v391h104v-399q0 -124 -79.5 -208t-222.5 -84q-144 0 -221.5 80t-77.5 212v399h104zM251 837l29 42q40 -50 111 -50q73 0 109 50l30 -42q-46 -79 -138 -79q-93 0 -141 79z" />
    <glyph glyph-name="ubreve" unicode="&#x16d;" 
d="M578 0h-104v81q-64 -90 -186 -90q-102 0 -153.5 64t-51.5 167v301h104v-285q0 -70 33.5 -110.5t101.5 -40.5q57 0 97 33t55 80v323h104v-523zM195 680l29 42q40 -50 111 -50q73 0 109 50l30 -42q-46 -79 -138 -79q-93 0 -141 79z" />
    <glyph glyph-name="Uring" unicode="&#x16e;" horiz-adv-x="783" 
d="M195 680v-392q0 -94 49 -148t146 -54q98 0 148 55.5t50 147.5v391h104v-399q0 -124 -79.5 -208t-222.5 -84q-144 0 -221.5 80t-77.5 212v399h104zM293 787q0 41 28.5 69.5t69.5 28.5t69.5 -28.5t28.5 -69.5t-28.5 -69.5t-69.5 -28.5t-69.5 28.5t-28.5 69.5zM339 787
q0 -22 15 -37t37 -15q21 0 36 15t15 37q0 21 -15 36t-36 15q-22 0 -37 -15t-15 -36z" />
    <glyph glyph-name="uring" unicode="&#x16f;" 
d="M578 0h-104v81q-64 -90 -186 -90q-102 0 -153.5 64t-51.5 167v301h104v-285q0 -70 33.5 -110.5t101.5 -40.5q57 0 97 33t55 80v323h104v-523zM230 670q0 40 29 69t69 29t69 -29t29 -69t-29 -69t-69 -29t-69 29t-29 69zM276 670q0 -22 15 -37t37 -15q21 0 36 15t15 37
q0 21 -15 36t-36 15q-22 0 -37 -15t-15 -36z" />
    <glyph glyph-name="Uhungarumlaut" unicode="&#x170;" horiz-adv-x="783" 
d="M195 680v-392q0 -94 49 -148t146 -54q98 0 148 55.5t50 147.5v391h104v-399q0 -124 -79.5 -208t-222.5 -84q-144 0 -221.5 80t-77.5 212v399h104zM434 898l-97 -145h-89l82 145h104zM621 898l-96 -145h-90l82 145h104z" />
    <glyph glyph-name="uhungarumlaut" unicode="&#x171;" 
d="M578 0h-104v81q-64 -90 -186 -90q-102 0 -153.5 64t-51.5 167v301h104v-285q0 -70 33.5 -110.5t101.5 -40.5q57 0 97 33t55 80v323h104v-523zM373 741l-97 -145h-89l82 145h104zM560 741l-96 -145h-90l82 145h104z" />
    <glyph glyph-name="Uogonek" unicode="&#x172;" horiz-adv-x="783" 
d="M195 680v-392q0 -95 49 -149.5t146 -54.5t147.5 56.5t50.5 148.5v391h104v-399q0 -109 -62 -188t-175 -98q-61 -21 -61 -68q0 -26 15.5 -40.5t41.5 -14.5q25 0 56 18l10 -49q-35 -20 -80 -20q-43 0 -69.5 25t-26.5 68q0 46 43 75q-141 2 -217 82t-76 210v399h104z" />
    <glyph glyph-name="uogonek" unicode="&#x173;" 
d="M578 0h-15q-41 -2 -67.5 -21t-26.5 -52q0 -26 15.5 -40.5t41.5 -14.5q27 0 56 18l11 -49q-36 -20 -81 -20q-43 0 -69 25t-26 68q0 58 58 86h-1v81q-64 -90 -186 -90q-102 0 -153.5 64t-51.5 167v301h104v-285q0 -70 33.5 -110.5t101.5 -40.5q57 0 97 33t55 80v323h104
v-523z" />
    <glyph glyph-name="Wcircumflex" unicode="&#x174;" horiz-adv-x="1092" 
d="M681 0l-133 329l-143 -329h-112l-270 680h112l223 -563l144 335l-89 228h113l210 -547l226 547h113l-282 -680h-112zM623 753l-76 92l-76 -92h-82l106 145h103l106 -145h-81z" />
    <glyph glyph-name="wcircumflex" unicode="&#x175;" horiz-adv-x="1003" 
d="M862 523h112l-198 -523h-128l-146 418l-151 -418h-128l-191 523h112l146 -427l151 427h124l144 -427zM579 596l-76 92l-76 -92h-82l106 145h103l106 -145h-81z" />
    <glyph glyph-name="Ycircumflex" unicode="&#x176;" horiz-adv-x="690" 
d="M293 0v278l-275 394v8h116l211 -306l211 306h116v-8l-275 -393v-279h-104zM420 753l-76 92l-76 -92h-82l106 145h103l106 -145h-81z" />
    <glyph glyph-name="ycircumflex" unicode="&#x177;" horiz-adv-x="616" 
d="M475 523h105l-228 -544q-38 -93 -83 -135t-122 -42q-65 0 -120 36l17 85q52 -32 103 -32q39 0 62 20t42 64l14 34l-245 514h115l176 -409zM384 596l-76 92l-76 -92h-82l106 145h103l106 -145h-81z" />
    <glyph glyph-name="Ydieresis" unicode="&#x178;" horiz-adv-x="690" 
d="M293 0v278l-275 394v8h116l211 -306l211 306h116v-8l-275 -393v-279h-104zM158 827q0 54 60 54t60 -54t-60 -54t-60 54zM410 827q0 54 61 54q59 0 59 -54t-59 -54q-61 0 -61 54z" />
    <glyph glyph-name="Zacute" unicode="&#x179;" horiz-adv-x="623" 
d="M54 75l382 514h-382v91h515v-75l-380 -514h380v-91h-515v75zM448 898l-96 -145h-90l81 145h105z" />
    <glyph glyph-name="zacute" unicode="&#x17a;" horiz-adv-x="535" 
d="M56 75l292 365h-292v83h423v-75l-291 -365h291v-83h-423v75zM402 741l-96 -145h-90l81 145h105z" />
    <glyph glyph-name="Zdotaccent" unicode="&#x17b;" horiz-adv-x="623" 
d="M54 75l382 514h-382v91h515v-75l-380 -514h380v-91h-515v75zM255 829q0 56 64 56q62 0 62 -56q0 -57 -62 -57q-64 0 -64 57z" />
    <glyph glyph-name="zdotaccent" unicode="&#x17c;" horiz-adv-x="535" 
d="M56 75l292 365h-292v83h423v-75l-291 -365h291v-83h-423v75zM214 672q0 56 64 56q62 0 62 -56q0 -57 -62 -57q-64 0 -64 57z" />
    <glyph glyph-name="Zcaron" unicode="&#x17d;" horiz-adv-x="623" 
d="M54 75l382 514h-382v91h515v-75l-380 -514h380v-91h-515v75zM240 898l76 -91l76 91h81l-106 -145h-103l-106 145h82z" />
    <glyph glyph-name="zcaron" unicode="&#x17e;" horiz-adv-x="535" 
d="M56 75l292 365h-292v83h423v-75l-291 -365h291v-83h-423v75zM195 741l76 -91l76 91h81l-106 -145h-103l-106 145h82z" />
    <glyph glyph-name="florin" unicode="&#x192;" horiz-adv-x="520" 
d="M459 314h-146v-345q0 -74 -39 -120.5t-114 -46.5q-34 0 -69 11.5t-54 26.5l19 87q40 -33 80 -33q73 0 73 77v343h-146v66h146v174q0 74 38.5 120t113.5 46q72 0 123 -38l-18 -90q-43 36 -81 36q-72 0 -72 -79v-169h146v-66z" />
    <glyph glyph-name="Aringacute" unicode="&#x1fa;" horiz-adv-x="713" 
d="M17 0l275 664q-30 21 -30 63q0 39 27.5 60.5t69.5 21.5t70 -21.5t28 -60.5q0 -42 -31 -63l264 -664h-106l-60 150h-339l-62 -150h-106zM359 576l-146 -347h284zM307 727q0 -39 52 -39t52 39q0 38 -52 38t-52 -38zM449 907l-58 -78h-68l48 78h78z" />
    <glyph glyph-name="aringacute" unicode="&#x1fb;" horiz-adv-x="581" 
d="M114 406l-19 90q86 36 191 36q106 0 158.5 -54.5t52.5 -144.5v-333h-104v57q-71 -67 -167 -67q-83 0 -130.5 42t-47.5 115q0 91 66.5 138t179.5 47q51 0 99 -10v6q0 115 -115 115q-88 0 -164 -37zM152 158q0 -42 28.5 -63.5t77.5 -21.5q75 0 135 53v121q-36 9 -78 9
q-73 0 -118 -24.5t-45 -73.5zM200 655q0 39 28 61t70 22t70 -22t28 -61t-28 -60.5t-70 -21.5t-70 21.5t-28 60.5zM247 655q0 -39 51 -39q52 0 52 39t-52 39q-51 0 -51 -39zM389 835l-60 -78h-67l49 78h78z" />
    <glyph glyph-name="AEacute" unicode="&#x1fc;" horiz-adv-x="1057" 
d="M472 0v150h-268l-92 -150h-112l412 680h587v-92h-427v-194h354v-85h-354v-218h427v-91h-527zM246 229h226v376zM818 898l-96 -145h-90l81 145h105z" />
    <glyph glyph-name="aeacute" unicode="&#x1fd;" horiz-adv-x="929" 
d="M862 231h-363q2 -77 40 -119t124 -42q84 0 161 58l41 -71q-87 -71 -211 -71q-152 0 -203 106q-100 -102 -216 -102q-87 0 -137.5 42.5t-50.5 114.5q0 87 70 135t188 48q49 0 88 -7q0 67 -23.5 93.5t-91.5 26.5q-86 0 -164 -37l-19 90q89 36 190 36q90 0 127 -28.5
t51 -81.5q26 46 72.5 80.5t112.5 34.5q107 0 165 -62.5t58 -155.5q0 -57 -9 -88zM649 460q-68 0 -106 -45.5t-40 -110.5h279q2 8 2 24q0 59 -34.5 95.5t-100.5 36.5zM152 158q0 -42 29 -63.5t77 -21.5q42 0 78 20t57 47v116q-42 7 -81 7q-160 -3 -160 -105zM607 741
l-96 -145h-90l81 145h105z" />
    <glyph glyph-name="Oslashacute" unicode="&#x1fe;" horiz-adv-x="812" 
d="M543 898l-96 -145h-90l81 145h105zM57 339q0 151 100 251t249 100q113 0 200 -59l40 49h76v-8l-66 -81q101 -101 101 -252q0 -149 -100 -249t-251 -100q-107 0 -193 55l-36 -45h-77v9l62 76q-105 99 -105 254zM157 339q0 -106 68 -177l318 391q-61 39 -137 39
q-107 0 -178 -72t-71 -181zM655 339q0 100 -63 173l-316 -390q59 -35 130 -35q108 0 178.5 72t70.5 180z" />
    <glyph glyph-name="oslashacute" unicode="&#x1ff;" horiz-adv-x="669" 
d="M471 741l-96 -145h-90l81 145h105zM55 260q0 120 79 198.5t200 78.5q96 0 166 -50l30 36h55v-9l-48 -58q77 -77 77 -196q0 -118 -79 -196t-201 -78q-85 0 -151 39l-21 -25h-56v9l38 46q-89 78 -89 205zM156 260q0 -80 51 -129l231 280q-46 30 -104 30q-79 0 -128.5 -51.5
t-49.5 -129.5zM514 260q0 69 -41 118l-227 -276q38 -21 88 -21q79 0 129.5 51t50.5 128z" />
    <glyph glyph-name="Scommaaccent" unicode="&#x218;" horiz-adv-x="629" 
d="M61 49l25 100q100 -63 216 -63q76 0 121.5 28t45.5 77q0 36 -27.5 58t-90.5 37l-122 30q-170 40 -170 177q0 85 67 140.5t196 55.5q136 0 238 -54l-30 -96q-37 23 -97 38.5t-115 15.5q-76 0 -113.5 -25t-37.5 -66q0 -34 22.5 -54t71.5 -33l132 -34q93 -25 138.5 -68.5
t45.5 -113.5q0 -94 -77.5 -151.5t-199.5 -57.5q-67 0 -134 18.5t-105 40.5zM265 -244l24 67q-53 8 -53 54q0 28 17 43.5t44 15.5q33 0 51.5 -17.5t18.5 -49.5q0 -64 -50 -132z" />
    <glyph glyph-name="scommaaccent" unicode="&#x219;" horiz-adv-x="532" 
d="M461 494l-28 -90q-80 40 -164 40q-102 0 -102 -68q0 -25 15.5 -36t60.5 -22l86 -21q78 -18 114 -54t36 -92q0 -73 -59 -117t-158 -44q-110 0 -198 45l20 90q90 -48 174 -48q53 0 84.5 17.5t31.5 49.5q0 42 -84 63l-82 20q-76 18 -110 50.5t-34 90.5q0 75 55.5 119.5
t157.5 44.5q48 0 100 -11.5t84 -26.5zM224 -244l24 67q-53 8 -53 54q0 28 17 43.5t44 15.5q33 0 51.5 -17.5t18.5 -49.5q0 -64 -50 -132z" />
    <glyph glyph-name="uni021A" unicode="&#x21a;" horiz-adv-x="627" 
d="M603 588h-232v-588h-104v588h-244v92h580v-92zM274 -244l24 67q-53 8 -53 54q0 28 17 43.5t44 15.5q33 0 51.5 -17.5t18.5 -49.5q0 -64 -50 -132z" />
    <glyph glyph-name="uni021B" unicode="&#x21b;" horiz-adv-x="497" 
d="M148 656h92v-133h204v-82h-204v-260q0 -100 84 -100q61 0 116 40l34 -81q-81 -50 -181 -50q-74 0 -115.5 44t-41.5 127v280h-98v82h98zM238 -244l24 67q-53 8 -53 54q0 28 17 43.5t44 15.5q33 0 51.5 -17.5t18.5 -49.5q0 -64 -50 -132z" />
    <glyph glyph-name="dotlessj" unicode="&#x237;" horiz-adv-x="283" 
d="M52 -197l-61 62q98 56 98 162v496h104v-489q0 -160 -141 -231z" />
    <glyph glyph-name="circumflex" unicode="&#x2c6;" horiz-adv-x="600" 
d="M383 596l-76 92l-76 -92h-82l106 145h103l106 -145h-81z" />
    <glyph glyph-name="caron" unicode="&#x2c7;" horiz-adv-x="600" 
d="M231 741l76 -91l76 91h81l-106 -145h-103l-106 145h82z" />
    <glyph glyph-name="breve" unicode="&#x2d8;" horiz-adv-x="600" 
d="M167 680l29 42q40 -50 111 -50q73 0 109 50l30 -42q-46 -79 -138 -79q-93 0 -141 79z" />
    <glyph glyph-name="dotaccent" unicode="&#x2d9;" horiz-adv-x="600" 
d="M244 672q0 56 64 56q62 0 62 -56q0 -57 -62 -57q-64 0 -64 57z" />
    <glyph glyph-name="ring" unicode="&#x2da;" horiz-adv-x="600" 
d="M209 630q0 40 28.5 69t69.5 29t69.5 -29t28.5 -69t-28.5 -69t-69.5 -29t-69.5 29t-28.5 69zM255 630q0 -22 15 -37t37 -15q21 0 36 15t15 37q0 21 -15 36t-36 15q-22 0 -37 -15t-15 -36z" />
    <glyph glyph-name="ogonek" unicode="&#x2db;" horiz-adv-x="600" 
d="M304 10l54 -10q-41 -2 -67.5 -21t-26.5 -52q0 -26 15.5 -40.5t41.5 -14.5q27 0 56 18l11 -49q-36 -20 -81 -20q-43 0 -69 25t-26 68q0 39 29 65.5t63 30.5z" />
    <glyph glyph-name="tilde" unicode="&#x2dc;" horiz-adv-x="600" 
d="M163 613l-34 43q15 32 43 54t61 22t81 -31.5t67 -31.5q45 0 69 47l34 -42q-38 -78 -103 -78q-31 0 -80 32t-67 32q-43 0 -71 -47z" />
    <glyph glyph-name="hungarumlaut" unicode="&#x2dd;" horiz-adv-x="600" 
d="M306 741l-97 -145h-89l82 145h104zM493 741l-96 -145h-90l82 145h104z" />
    <glyph glyph-name="uni0394" unicode="&#x394;" horiz-adv-x="713" 
d="M20 0l281 680h121l269 -680h-671zM361 576l-208 -497h407z" />
    <glyph glyph-name="uni03A9" unicode="&#x3a9;" horiz-adv-x="823" 
d="M465 0v84q87 28 141 96t54 159q0 110 -69 181.5t-180 71.5q-109 0 -178.5 -71.5t-69.5 -181.5q0 -93 52.5 -160t140.5 -95v-84h-275v82h140q-72 36 -115.5 109.5t-43.5 165.5q0 139 99 236t250 97q152 0 251.5 -97t99.5 -236q0 -91 -44 -164.5t-116 -110.5h140v-82h-277z
" />
    <glyph glyph-name="uni03BC" unicode="&#x3bc;" horiz-adv-x="659" 
d="M194 523v-278q0 -82 29.5 -120.5t99.5 -38.5q52 0 89 27t54 66v344h104v-523h-104v63q-61 -73 -179 -73q-52 0 -93 19v-197h-104v711h104z" />
    <glyph glyph-name="pi" unicode="&#x3c0;" horiz-adv-x="739" 
d="M33 523h661v-82h-127v-303q0 -59 42 -59q29 0 54 18l8 -83q-10 -8 -40 -16t-62 -8q-106 0 -106 125v326h-204v-441h-104v441h-122v82z" />
    <glyph glyph-name="Wgrave" unicode="&#x1e80;" horiz-adv-x="1092" 
d="M681 0l-133 329l-143 -329h-112l-270 680h112l223 -563l144 335l-89 228h113l210 -547l226 547h113l-282 -680h-112zM510 753l-96 145h105l81 -145h-90z" />
    <glyph glyph-name="wgrave" unicode="&#x1e81;" horiz-adv-x="1003" 
d="M862 523h112l-198 -523h-128l-146 418l-151 -418h-128l-191 523h112l146 -427l151 427h124l144 -427zM464 596l-96 145h105l81 -145h-90z" />
    <glyph glyph-name="Wacute" unicode="&#x1e82;" horiz-adv-x="1092" 
d="M681 0l-133 329l-143 -329h-112l-270 680h112l223 -563l144 335l-89 228h113l210 -547l226 547h113l-282 -680h-112zM678 898l-96 -145h-90l81 145h105z" />
    <glyph glyph-name="wacute" unicode="&#x1e83;" horiz-adv-x="1003" 
d="M862 523h112l-198 -523h-128l-146 418l-151 -418h-128l-191 523h112l146 -427l151 427h124l144 -427zM638 741l-96 -145h-90l81 145h105z" />
    <glyph glyph-name="Wdieresis" unicode="&#x1e84;" horiz-adv-x="1092" 
d="M681 0l-133 329l-143 -329h-112l-270 680h112l223 -563l144 335l-89 228h113l210 -547l226 547h113l-282 -680h-112zM361 827q0 54 60 54t60 -54t-60 -54t-60 54zM613 827q0 54 61 54q59 0 59 -54t-59 -54q-61 0 -61 54z" />
    <glyph glyph-name="wdieresis" unicode="&#x1e85;" horiz-adv-x="1003" 
d="M862 523h112l-198 -523h-128l-146 418l-151 -418h-128l-191 523h112l146 -427l151 427h124l144 -427zM316 670q0 54 60 54t60 -54t-60 -54t-60 54zM568 670q0 54 61 54q59 0 59 -54t-59 -54q-61 0 -61 54z" />
    <glyph glyph-name="Ygrave" unicode="&#x1ef2;" horiz-adv-x="690" 
d="M293 0v278l-275 394v8h116l211 -306l211 306h116v-8l-275 -393v-279h-104zM303 753l-96 145h105l81 -145h-90z" />
    <glyph glyph-name="ygrave" unicode="&#x1ef3;" horiz-adv-x="616" 
d="M475 523h105l-228 -544q-38 -93 -83 -135t-122 -42q-65 0 -120 36l17 85q52 -32 103 -32q39 0 62 20t42 64l14 34l-245 514h115l176 -409zM272 596l-96 145h105l81 -145h-90z" />
    <glyph glyph-name="endash" unicode="&#x2013;" horiz-adv-x="633" 
d="M77 344h480v-83h-480v83z" />
    <glyph glyph-name="emdash" unicode="&#x2014;" horiz-adv-x="873" 
d="M77 344h719v-83h-719v83z" />
    <glyph glyph-name="quoteleft" unicode="&#x2018;" horiz-adv-x="269" 
d="M194 665l-45 -134q55 -11 55 -66q0 -35 -18.5 -54t-52.5 -19q-33 0 -52 20t-19 53q0 46 24 115.5t48 109.5z" />
    <glyph glyph-name="quoteright" unicode="&#x2019;" horiz-adv-x="266" 
d="M75 414l46 135q-54 11 -54 66q0 35 18.5 54t51.5 19q34 0 53 -20t19 -53q0 -46 -25 -115t-49 -110z" />
    <glyph glyph-name="quotesinglbase" unicode="&#x201a;" horiz-adv-x="279" 
d="M76 -147l46 135q-54 11 -54 66q0 35 18.5 54t51.5 19q34 0 53 -20t19 -53q0 -46 -25 -115t-49 -110z" />
    <glyph glyph-name="quotedblleft" unicode="&#x201c;" horiz-adv-x="455" 
d="M381 669l-42 -129q50 -9 50 -59q0 -32 -16.5 -49.5t-46.5 -17.5t-47 18.5t-17 48.5q0 42 22.5 107t44.5 102zM182 669l-43 -129q51 -9 51 -59q0 -32 -16.5 -49.5t-47.5 -17.5q-30 0 -47 18.5t-17 48.5q0 42 22.5 107t44.5 102z" />
    <glyph glyph-name="quotedblright" unicode="&#x201d;" horiz-adv-x="453" 
d="M75 435l42 128q-50 9 -50 60q0 32 16.5 49t47.5 17q30 0 47 -18.5t17 -47.5q0 -43 -22.5 -108.5t-44.5 -101.5zM275 435l42 128q-50 9 -50 60q0 31 16.5 48.5t46.5 17.5q31 0 48 -18.5t17 -47.5q0 -42 -22.5 -107.5t-44.5 -102.5z" />
    <glyph glyph-name="quotedblbase" unicode="&#x201e;" horiz-adv-x="466" 
d="M77 -150l42 129q-50 8 -50 59q0 32 16.5 49.5t46.5 17.5q31 0 48 -18.5t17 -48.5q0 -42 -23 -107.5t-45 -101.5zM277 -150l42 129q-50 7 -50 59q0 32 16.5 49.5t46.5 17.5t47 -18.5t17 -48.5q0 -42 -22.5 -107t-44.5 -102z" />
    <glyph glyph-name="dagger" unicode="&#x2020;" horiz-adv-x="603" 
d="M570 362h-227v-550h-83v550h-228v83h228v265h83v-265h227v-83z" />
    <glyph glyph-name="daggerdbl" unicode="&#x2021;" horiz-adv-x="647" 
d="M592 62h-227v-250h-83v250h-228v83h228v217h-228v83h228v265h83v-265h227v-83h-227v-217h227v-83z" />
    <glyph glyph-name="bullet" unicode="&#x2022;" horiz-adv-x="395" 
d="M95 302q0 51 26.5 78.5t75.5 27.5t76 -27.5t27 -78.5t-27 -78.5t-76 -27.5t-75.5 27.5t-26.5 78.5z" />
    <glyph glyph-name="ellipsis" unicode="&#x2026;" horiz-adv-x="756" 
d="M70 51q0 32 17 49.5t49 17.5t49.5 -17.5t17.5 -49.5t-17.5 -49t-49.5 -17q-66 0 -66 66zM312 51q0 32 17 49.5t49 17.5t49.5 -17.5t17.5 -49.5t-17.5 -49t-49.5 -17q-66 0 -66 66zM554 51q0 32 17 49.5t49 17.5t49.5 -17.5t17.5 -49.5t-17.5 -49t-49.5 -17q-66 0 -66 66z
" />
    <glyph glyph-name="perthousand" unicode="&#x2030;" horiz-adv-x="1268" 
d="M871 166q0 76 51 127t129 51t129 -51t51 -127t-51 -126t-129 -50t-129 50t-51 126zM952 166q0 -42 28 -70.5t71 -28.5q44 0 71 28t27 71t-27 71.5t-71 28.5q-43 0 -71 -28.5t-28 -71.5zM472 166q0 76 50.5 127t128.5 51t129 -51t51 -127t-51 -126t-129 -50t-128.5 50
t-50.5 126zM552 166q0 -42 28 -70.5t71 -28.5t71 28.5t28 70.5q0 43 -28 71.5t-71 28.5t-71 -28.5t-28 -71.5zM208 9l355 671h91v-8l-354 -672h-92v9zM39 512q0 76 50.5 127t128.5 51t129 -51t51 -127t-51 -126t-129 -50t-128.5 50t-50.5 126zM119 512q0 -42 28 -70.5
t71 -28.5t71 28.5t28 70.5t-28 71t-71 29t-71 -29t-28 -71z" />
    <glyph glyph-name="guilsinglleft" unicode="&#x2039;" horiz-adv-x="321" 
d="M53 291v22l161 201h8l38 -23l-118 -189l118 -188l-38 -24h-8z" />
    <glyph glyph-name="guilsinglright" unicode="&#x203a;" horiz-adv-x="320" 
d="M267 313v-22l-160 -201h-9l-37 23l117 189l-118 188l38 24h9z" />
    <glyph glyph-name="fraction" unicode="&#x2044;" horiz-adv-x="123" 
d="M-154 9l369 671h62v-8l-368 -672h-63v9z" />
    <glyph glyph-name="zerosuperior" unicode="&#x2070;" horiz-adv-x="369" 
d="M41 620q0 79 36.5 124.5t106.5 45.5q71 0 107.5 -45.5t36.5 -124.5q0 -78 -36.5 -123.5t-107.5 -45.5q-70 0 -106.5 45.5t-36.5 123.5zM100 620q0 -113 84 -113q85 0 85 113q0 115 -85 115q-84 0 -84 -115z" />
    <glyph glyph-name="foursuperior" unicode="&#x2074;" horiz-adv-x="361" 
d="M333 520h-62v-64h-60v64h-186v41l166 223h80v-218h62v-46zM87 566h124v168z" />
    <glyph glyph-name="fivesuperior" unicode="&#x2075;" horiz-adv-x="328" 
d="M55 610l-3 3l15 171h211v-52h-160l-6 -76h41q136 0 136 -93q0 -56 -39 -84t-102 -28q-61 0 -114 22l16 50q42 -21 94 -21q37 0 60.5 14.5t23.5 44.5q0 49 -79 49h-94z" />
    <glyph glyph-name="sixsuperior" unicode="&#x2076;" horiz-adv-x="357" 
d="M199 738q-48 0 -72 -29.5t-26 -79.5q39 44 98 44q58 0 89.5 -27.5t31.5 -77.5q0 -53 -36 -85t-93 -32q-71 0 -110.5 46t-39.5 124q0 77 40 123t111 46q65 0 114 -27l-17 -50q-41 25 -90 25zM190 627q-46 0 -86 -40q15 -81 87 -81q31 0 50.5 18t19.5 44q0 29 -19.5 44
t-51.5 15z" />
    <glyph glyph-name="sevensuperior" unicode="&#x2077;" horiz-adv-x="290" 
d="M66 461l136 271h-176v52h243v-43l-137 -285h-66v5z" />
    <glyph glyph-name="eightsuperior" unicode="&#x2078;" horiz-adv-x="360" 
d="M180 451q-66 0 -102.5 25.5t-36.5 69.5q0 68 77 82q-29 5 -47 25.5t-18 45.5q0 44 33 67.5t94 23.5t94 -23.5t33 -67.5q0 -25 -18 -45.5t-48 -25.5q77 -14 77 -82q0 -44 -36.5 -69.5t-101.5 -25.5zM180 605q-39 0 -58.5 -14t-19.5 -36q0 -25 21.5 -40t56.5 -15
q34 0 55.5 15t21.5 40q0 22 -19 36t-58 14zM180 741q-31 0 -49.5 -12.5t-18.5 -34.5q0 -20 17 -33.5t51 -13.5t50.5 13.5t16.5 33.5q0 22 -18 34.5t-49 12.5z" />
    <glyph glyph-name="ninesuperior" unicode="&#x2079;" horiz-adv-x="358" 
d="M159 503q92 0 97 107q-40 -42 -98 -42t-89.5 27t-31.5 77q0 53 36.5 85.5t93.5 32.5q70 0 109.5 -46t39.5 -124q0 -77 -39.5 -123t-110.5 -46q-70 0 -114 27l18 50q36 -25 89 -25zM166 614q49 0 87 38q-14 83 -86 83q-31 0 -50 -18t-19 -45q0 -28 18.5 -43t49.5 -15z" />
    <glyph glyph-name="zeroinferior" unicode="&#x2080;" horiz-adv-x="368" 
d="M41 64q0 79 36.5 124.5t106.5 45.5q71 0 107 -45.5t36 -124.5q0 -78 -36 -123.5t-107 -45.5q-70 0 -106.5 45.5t-36.5 123.5zM99 64q0 -113 85 -113q84 0 84 113q0 115 -84 115q-85 0 -85 -115z" />
    <glyph glyph-name="oneinferior" unicode="&#x2081;" horiz-adv-x="265" 
d="M17 154l142 74h46v-328h-61v260l-103 -51z" />
    <glyph glyph-name="twoinferior" unicode="&#x2082;" horiz-adv-x="337" 
d="M46 -100v46l130 98q50 37 50 78q0 25 -16 41t-45 16q-35 0 -53.5 -19.5t-18.5 -52.5l-55 10q1 54 34.5 85.5t93.5 31.5t91 -30t31 -81q0 -65 -70 -115l-76 -55h156v-53h-252z" />
    <glyph glyph-name="threeinferior" unicode="&#x2083;" horiz-adv-x="331" 
d="M78 94h80q28 0 44 12.5t16 31.5q0 43 -69 43q-51 0 -96 -20l-14 52q53 21 110 21q62 0 96 -23.5t34 -66.5q0 -26 -16 -46.5t-44 -25.5q71 -16 71 -82q0 -44 -37 -69.5t-104 -25.5q-48 0 -111 21l16 50q43 -19 95 -19q35 0 57 14t22 38q0 44 -70 44h-80v51z" />
    <glyph glyph-name="fourinferior" unicode="&#x2084;" horiz-adv-x="361" 
d="M333 -36h-62v-64h-60v64h-186v41l166 223h80v-218h62v-46zM87 10h124v168z" />
    <glyph glyph-name="fiveinferior" unicode="&#x2085;" horiz-adv-x="328" 
d="M55 55l-4 2l15 171h212v-52h-161l-6 -76h41q136 0 136 -93q0 -55 -38.5 -83.5t-101.5 -28.5q-62 0 -115 22l16 50q49 -20 95 -20q36 0 59.5 14.5t23.5 43.5q0 50 -78 50h-94z" />
    <glyph glyph-name="sixinferior" unicode="&#x2086;" horiz-adv-x="356" 
d="M198 182q-48 0 -72 -29t-26 -80q39 44 98 44q58 0 89.5 -27.5t31.5 -77.5q0 -53 -36 -85t-93 -32q-71 0 -110.5 46t-39.5 124q0 77 39.5 123t111.5 46q65 0 114 -27l-17 -50q-41 25 -90 25zM189 71q-46 0 -86 -40q15 -81 87 -81q31 0 50.5 18t19.5 44q0 29 -19.5 44
t-51.5 15z" />
    <glyph glyph-name="seveninferior" unicode="&#x2087;" horiz-adv-x="291" 
d="M67 -95l136 271h-176v52h243v-42l-138 -286h-65v5z" />
    <glyph glyph-name="eightinferior" unicode="&#x2088;" horiz-adv-x="358" 
d="M179 -105q-66 0 -102.5 25.5t-36.5 69.5q0 68 78 82q-30 5 -48 25.5t-18 46.5q0 43 33 66.5t94 23.5t94 -23.5t33 -66.5q0 -26 -18 -46.5t-48 -25.5q78 -14 78 -82q0 -44 -37 -69.5t-102 -25.5zM179 49q-39 0 -58.5 -14t-19.5 -36q0 -24 22 -39.5t56 -15.5t56 15.5
t22 39.5q0 22 -19.5 36t-58.5 14zM179 185q-31 0 -49.5 -12.5t-18.5 -34.5q0 -20 17 -33.5t51 -13.5t50.5 13.5t16.5 33.5q0 22 -18 34.5t-49 12.5z" />
    <glyph glyph-name="nineinferior" unicode="&#x2089;" horiz-adv-x="357" 
d="M159 -53q92 0 97 108q-41 -43 -98 -43q-58 0 -89.5 27.5t-31.5 77.5q0 52 36.5 84.5t92.5 32.5q71 0 110.5 -46t39.5 -124q0 -77 -39.5 -123t-111.5 -46q-64 0 -113 27l17 50q39 -25 90 -25zM166 58q49 0 87 38q-14 83 -87 83q-30 0 -49.5 -18t-19.5 -44q0 -29 19 -44
t50 -15z" />
    <glyph glyph-name="Euro" unicode="&#x20ac;" horiz-adv-x="631" 
d="M573 609l-37 -78q-66 63 -148 63q-66 0 -110 -41t-59 -124h270l-30 -65h-247v-25q0 -25 1 -36h220l-26 -65h-186q32 -152 164 -152q82 0 155 55l39 -86q-87 -65 -201 -65q-105 0 -174.5 64t-90.5 184h-56v65h49q-1 11 -1 36v25h-48v65h54q19 126 89.5 193.5t179.5 67.5
q107 0 193 -81z" />
    <glyph glyph-name="afii61289" unicode="&#x2113;" horiz-adv-x="421" 
d="M71 125l-30 51l72 50v265q0 97 39.5 147.5t109.5 50.5q117 0 117 -137q0 -104 -49.5 -196.5t-118.5 -151.5v-50q0 -43 16.5 -61t49.5 -18q32 0 66 21l-4 -90q-34 -16 -96 -16q-130 0 -130 131v33zM211 504v-223q105 101 105 276q0 68 -45 68q-27 0 -43.5 -30.5
t-16.5 -90.5z" />
    <glyph glyph-name="uni2117" unicode="&#x2117;" horiz-adv-x="816" 
d="M58 339q0 151 100 251t249 100q151 0 251 -100t100 -251q0 -149 -100 -249t-251 -100q-149 0 -249 100t-100 249zM119 339q0 -125 82 -208t206 -83q125 0 207.5 83t82.5 208t-82.5 208.5t-207.5 83.5q-124 0 -206 -83.5t-82 -208.5zM299 169v340h161q52 0 87 -31.5
t35 -91.5q0 -56 -35.5 -89t-86.5 -33h-83v-95h-78zM449 444h-72v-115h72q24 0 40 15.5t16 41.5q0 27 -16 42.5t-40 15.5z" />
    <glyph glyph-name="trademark" unicode="&#x2122;" horiz-adv-x="838" 
d="M690 357v214l-106 -130h-12l-106 130v-214h-59v306h51l120 -144l120 144h51v-306h-59zM330 604h-100v-247h-59v247h-102v59h261v-59z" />
    <glyph glyph-name="Omega" unicode="&#x2126;" horiz-adv-x="825" 
d="M466 0v84q87 28 141 96t54 159q0 110 -69.5 181.5t-180.5 71.5q-109 0 -178 -71.5t-69 -181.5q0 -93 52 -160t141 -95v-84h-275v82h140q-72 36 -116 109.5t-44 165.5q0 139 99.5 236t249.5 97q152 0 251.5 -97t99.5 -236q0 -91 -44 -164.5t-115 -110.5h139v-82h-276z" />
    <glyph glyph-name="estimated" unicode="&#x212e;" horiz-adv-x="674" 
d="M342 601q71 0 126 -25.5t87.5 -69.5t49 -98t16.5 -114v-26h-431v-169q58 -58 152 -58q130 0 184 104h66q-30 -73 -93 -115t-157 -42q-93 0 -157.5 45t-92.5 112.5t-28 148.5q0 82 28 149.5t92.5 112.5t157.5 45zM342 548q-96 0 -152 -58v-170h305v170q-56 58 -153 58z
" />
    <glyph glyph-name="onethird" unicode="&#x2153;" horiz-adv-x="782" 
d="M137 9l369 671h62v-8l-368 -672h-63v9zM31 606l141 74h46v-328h-60v260l-103 -52zM523 192h80q28 0 44 12.5t16 31.5q0 43 -69 43q-51 0 -96 -20l-14 52q52 21 110 21q62 0 96 -23.5t34 -66.5q0 -26 -16 -46.5t-44 -25.5q71 -16 71 -82q0 -44 -37 -69.5t-104 -25.5
q-48 0 -111 21l16 50q43 -19 95 -19q35 0 57 14t22 38q0 44 -70 44h-80v51z" />
    <glyph glyph-name="twothirds" unicode="&#x2154;" horiz-adv-x="842" 
d="M204 9l369 671h62v-8l-368 -672h-63v9zM589 192h80q28 0 44 12.5t16 31.5q0 43 -69 43q-51 0 -96 -20l-14 52q52 21 110 21q62 0 96 -23.5t34 -66.5q0 -26 -16 -46.5t-44 -25.5q71 -16 71 -82q0 -44 -37 -69.5t-104 -25.5q-48 0 -111 21l16 50q43 -19 95 -19q35 0 57 14
t22 38q0 44 -70 44h-80v51zM55 356v46l130 98q50 37 50 78q0 25 -16 41t-45 16q-36 0 -54 -19.5t-18 -52.5l-56 10q2 53 35.5 85t92.5 32q60 0 91.5 -30.5t31.5 -80.5q0 -64 -70 -115l-77 -55h156v-53h-251z" />
    <glyph glyph-name="oneeighth" unicode="&#x215b;" horiz-adv-x="781" 
d="M137 9l369 671h62v-8l-368 -672h-63v9zM596 -5q-66 0 -102.5 25.5t-36.5 69.5q0 68 78 82q-30 5 -48 25.5t-18 46.5q0 43 33 66.5t94 23.5t94 -23.5t33 -66.5q0 -26 -18 -46.5t-48 -25.5q78 -14 78 -82q0 -44 -37 -69.5t-102 -25.5zM596 149q-39 0 -58.5 -14t-19.5 -36
q0 -24 22 -39.5t56 -15.5t56 15.5t22 39.5q0 22 -19.5 36t-58.5 14zM596 285q-31 0 -49.5 -12.5t-18.5 -34.5q0 -20 17 -33.5t51 -13.5t50.5 13.5t16.5 33.5q0 22 -18 34.5t-49 12.5zM31 610l141 74h46v-328h-60v260l-103 -52z" />
    <glyph glyph-name="threeeighths" unicode="&#x215c;" horiz-adv-x="830" 
d="M191 9l369 671h62v-8l-368 -672h-63v9zM650 -5q-66 0 -102.5 25.5t-36.5 69.5q0 68 78 82q-30 5 -48 25.5t-18 46.5q0 43 33 66.5t94 23.5t94 -23.5t33 -66.5q0 -26 -18 -46.5t-48 -25.5q78 -14 78 -82q0 -44 -37 -69.5t-102 -25.5zM650 149q-39 0 -58.5 -14t-19.5 -36
q0 -24 22 -39.5t56 -15.5t56 15.5t22 39.5q0 22 -19.5 36t-58.5 14zM650 285q-31 0 -49.5 -12.5t-18.5 -34.5q0 -20 17 -33.5t51 -13.5t50.5 13.5t16.5 33.5q0 22 -18 34.5t-49 12.5zM86 550h80q28 0 44 12.5t16 31.5q0 43 -69 43q-52 0 -97 -20l-13 52q53 21 110 21
q62 0 96 -23.5t34 -67.5q0 -26 -16.5 -46t-44.5 -26q72 -14 72 -81q0 -44 -37 -69.5t-104 -25.5q-54 0 -111 20l16 51q43 -19 95 -19q35 0 57 14t22 38q0 44 -70 44h-80v51z" />
    <glyph glyph-name="fiveeighths" unicode="&#x215d;" horiz-adv-x="828" 
d="M189 9l369 671h62v-8l-368 -672h-63v9zM648 -5q-66 0 -102.5 25.5t-36.5 69.5q0 68 78 82q-30 5 -48 25.5t-18 46.5q0 43 33 66.5t94 23.5t94 -23.5t33 -66.5q0 -26 -18 -46.5t-48 -25.5q78 -14 78 -82q0 -44 -37 -69.5t-102 -25.5zM648 149q-39 0 -58.5 -14t-19.5 -36
q0 -24 22 -39.5t56 -15.5t56 15.5t22 39.5q0 22 -19.5 36t-58.5 14zM648 285q-31 0 -49.5 -12.5t-18.5 -34.5q0 -20 17 -33.5t51 -13.5t50.5 13.5t16.5 33.5q0 22 -18 34.5t-49 12.5zM63 510l-3 3l15 171h211v-52h-160l-6 -76h41q136 0 136 -93q0 -56 -39 -84t-102 -28
q-61 0 -114 22l16 50q42 -21 94 -21q37 0 60.5 14.5t23.5 44.5q0 49 -79 49h-94z" />
    <glyph glyph-name="seveneighths" unicode="&#x215e;" horiz-adv-x="778" 
d="M139 9l369 671h62v-8l-368 -672h-63v9zM598 -5q-66 0 -102.5 25.5t-36.5 69.5q0 68 78 82q-30 5 -48 25.5t-18 46.5q0 43 33 66.5t94 23.5t94 -23.5t33 -66.5q0 -26 -18 -46.5t-48 -25.5q78 -14 78 -82q0 -44 -37 -69.5t-102 -25.5zM598 149q-39 0 -58.5 -14t-19.5 -36
q0 -24 22 -39.5t56 -15.5t56 15.5t22 39.5q0 22 -19.5 36t-58.5 14zM598 285q-31 0 -49.5 -12.5t-18.5 -34.5q0 -20 17 -33.5t51 -13.5t50.5 13.5t16.5 33.5q0 22 -18 34.5t-49 12.5zM76 361l136 271h-176v52h243v-43l-137 -285h-66v5z" />
    <glyph glyph-name="arrowleft" unicode="&#x2190;" horiz-adv-x="720" 
d="M207 337h443v-77h-442l165 -160l-51 -53l-252 253l251 249l52 -55z" />
    <glyph glyph-name="arrowup" unicode="&#x2191;" horiz-adv-x="720" 
d="M399 450v-442h-78v441l-159 -165l-53 51l252 252l249 -251l-55 -52z" />
    <glyph glyph-name="arrowright" unicode="&#x2192;" horiz-adv-x="720" 
d="M513 259h-443v77h442l-166 160l52 53l252 -253l-251 -249l-53 55z" />
    <glyph glyph-name="arrowdown" unicode="&#x2193;" horiz-adv-x="720" 
d="M320 144v443h78v-441l159 165l53 -51l-253 -252l-248 251l55 52z" />
    <glyph glyph-name="uni2196" unicode="&#x2196;" horiz-adv-x="720" 
d="M280 434l312 -313l-54 -55l-313 312l5 -229l-74 -2v357l353 -1l-1 -76z" />
    <glyph glyph-name="uni2197" unicode="&#x2197;" horiz-adv-x="720" 
d="M496 378l-313 -313l-56 54l313 313l-230 -4q0 12 -0.5 36.5t-0.5 37.5h357l-2 -354l-75 2z" />
    <glyph glyph-name="uni2198" unicode="&#x2198;" horiz-adv-x="720" 
d="M441 162l-313 313l54 55l312 -312l-4 229l74 2v-357l-354 1l2 76z" />
    <glyph glyph-name="uni2199" unicode="&#x2199;" horiz-adv-x="720" 
d="M223 217l314 312l55 -53l-313 -313l229 4l2 -74h-357l1 354l77 -2z" />
    <glyph glyph-name="partialdiff" unicode="&#x2202;" horiz-adv-x="610" 
d="M254 453q111 0 191 -94q-6 112 -71 188.5t-150 105.5l41 67q116 -27 200.5 -130t84.5 -249q0 -161 -72 -256t-203 -95q-102 0 -168.5 66.5t-66.5 174.5q0 100 57.5 161t156.5 61zM279 86q69 0 109.5 49t52.5 136q-70 96 -163 96q-62 0 -98.5 -35.5t-36.5 -101.5
q0 -61 38 -102.5t98 -41.5z" />
    <glyph glyph-name="Delta" unicode="&#x2206;" horiz-adv-x="732" 
d="M30 0l281 680h121l269 -680h-671zM371 576l-209 -497h408z" />
    <glyph glyph-name="product" unicode="&#x220f;" horiz-adv-x="712" 
d="M196 -188h-99v868h518v-868h-99v776h-320v-776z" />
    <glyph glyph-name="summation" unicode="&#x2211;" horiz-adv-x="538" 
d="M57 0v58l197 283l-199 283v56h426v-83h-301l178 -257l-175 -257h298v-83h-424z" />
    <glyph glyph-name="minus" unicode="&#x2212;" horiz-adv-x="630" 
d="M81 344h467v-83h-467v83z" />
    <glyph glyph-name="uni2215" unicode="&#x2215;" horiz-adv-x="443" 
d="M6 9l369 671h62v-8l-368 -672h-63v9z" />
    <glyph glyph-name="uni2219" unicode="&#x2219;" horiz-adv-x="286" 
d="M72 297q0 70 70 70q34 0 52.5 -18t18.5 -52q0 -70 -71 -70q-70 0 -70 70z" />
    <glyph glyph-name="radical" unicode="&#x221a;" horiz-adv-x="633" 
d="M191 457l171 -341l186 587l58 -20l-219 -683h-69l-173 342l-93 -48l-36 70z" />
    <glyph glyph-name="infinity" unicode="&#x221e;" horiz-adv-x="819" 
d="M142 299q0 -44 25 -68t64 -24q40 0 85 47l43 45l-43 45q-43 48 -85 48q-39 0 -64 -24.5t-25 -68.5zM410 250l-45 -46q-72 -72 -145 -72q-67 0 -111.5 45.5t-44.5 121.5q0 77 44.5 122.5t111.5 45.5q76 0 145 -72l44 -45l45 45q36 36 69 54t76 18q67 0 111.5 -45.5
t44.5 -122.5q0 -76 -44.5 -121.5t-111.5 -45.5q-43 0 -75 17.5t-70 54.5zM676 299q0 44 -24.5 68.5t-64.5 24.5t-85 -48l-42 -45l42 -45q45 -47 85 -47t64.5 24t24.5 68z" />
    <glyph glyph-name="integral" unicode="&#x222b;" horiz-adv-x="463" 
d="M179 -30v584q0 74 39 120t114 46q66 0 123 -38l-19 -90q-41 36 -80 36q-73 0 -73 -80v-579q0 -74 -39 -120.5t-114 -46.5q-72 0 -123 37l20 87q39 -32 80 -32q72 0 72 76z" />
    <glyph glyph-name="approxequal" unicode="&#x2248;" horiz-adv-x="639" 
d="M532 486l27 -63q-44 -62 -120 -62q-40 0 -121.5 29.5t-114.5 29.5q-64 0 -96 -42l-26 66q41 60 117 60q44 0 127.5 -29.5t110.5 -29.5q60 0 96 41zM531 215l27 -63q-43 -63 -119 -63q-41 0 -122.5 29.5t-115.5 29.5q-63 0 -95 -42l-26 66q41 60 118 60q43 0 126.5 -29.5
t110.5 -29.5q61 0 96 42z" />
    <glyph glyph-name="notequal" unicode="&#x2260;" horiz-adv-x="619" 
d="M172 40l29 81h-126v83h156l72 197h-228v83h258l40 111l63 -21l-33 -90h139v-83h-169l-71 -197h240v-83h-270l-37 -102z" />
    <glyph glyph-name="lessequal" unicode="&#x2264;" horiz-adv-x="639" 
d="M81 150h467v-83h-467v83zM81 373v82l460 170h8v-78l-372 -132l372 -131v-78h-8z" />
    <glyph glyph-name="greaterequal" unicode="&#x2265;" horiz-adv-x="638" 
d="M90 150h467v-83h-467v83zM557 455v-82l-459 -167h-8v78l371 131l-371 132v78h8z" />
    <glyph glyph-name="lozenge" unicode="&#x25ca;" horiz-adv-x="575" 
d="M533 331l-212 -331h-68l-211 331l211 349h68zM444 330l-157 258l-156 -258l156 -242z" />
    <glyph glyph-name="commaaccent" unicode="&#xf6c3;" horiz-adv-x="600" 
d="M266 -244l24 67q-53 8 -53 54q0 28 17 43.5t44 15.5q33 0 51.5 -17.5t18.5 -49.5q0 -64 -50 -132z" />
    <glyph glyph-name="uniF8FF" unicode="&#xf8ff;" horiz-adv-x="698" 
d="M93 720h512v-720h-512v720zM309 283h48q0 32 21.5 57.5t46.5 40.5t46.5 41t21.5 58q0 51 -36.5 85t-101.5 34q-39 0 -67 -14.5t-41.5 -37t-19 -43.5t-5.5 -41h47q0 40 21 66.5t65 26.5q41 0 64 -21.5t23 -54.5q0 -23 -21 -45t-45.5 -38t-45.5 -46t-21 -68zM298 194v-71
h68v71h-68z" />
    <glyph glyph-name="fi" unicode="&#xfb01;" horiz-adv-x="749" 
d="M426 412h-177v-412h-104v412h-103v83h103v43q0 81 43 131.5t129 50.5q75 0 134 -41l-26 -88q-46 37 -97 37q-79 0 -79 -90v-43h177v-83zM545 672q0 56 64 56q62 0 62 -56q0 -57 -62 -57q-64 0 -64 57zM556 0v523h104v-523h-104z" />
    <glyph glyph-name="fl" unicode="&#xfb02;" horiz-adv-x="789" 
d="M426 412h-177v-412h-104v412h-103v83h103v43q0 81 43 131.5t129 50.5q75 0 134 -41l-26 -88q-46 37 -97 37q-79 0 -79 -90v-43h177v-83zM550 710h104v-566q0 -65 52 -65q30 0 61 18l8 -83q-50 -24 -107 -24q-118 0 -118 130v590z" />
    <glyph glyph-name="commaaccent.alt" horiz-adv-x="600" 
d="M332 760l-24 -67q26 -4 40 -18.5t14 -35.5q0 -28 -17 -43.5t-44 -15.5q-34 0 -52 17.5t-18 49.5q0 67 49 132z" />
    <glyph glyph-name="zero.tf" horiz-adv-x="600" 
d="M38 339q0 162 66 256.5t194 94.5q131 0 197 -94t66 -257q0 -161 -66 -255t-197 -94q-128 0 -194 94t-66 255zM139 339q0 -252 159 -252q161 0 161 252q0 255 -161 255q-159 0 -159 -255z" />
    <glyph glyph-name="one.tf" horiz-adv-x="600" 
d="M566 0h-493v91h220v475l-191 -89l-35 84l251 119h79v-589h169v-91z" />
    <glyph glyph-name="two.tf" horiz-adv-x="600" 
d="M62 0v79l260 209q53 44 77 85t24 90q0 57 -33 94t-97 37q-73 0 -111 -43t-40 -115l-94 17q2 108 67 172.5t179 64.5q117 0 176.5 -60.5t59.5 -158.5q0 -69 -28.5 -126t-97.5 -110l-185 -144h330v-91h-487z" />
    <glyph glyph-name="three.tf" horiz-adv-x="600" 
d="M131 395h161q64 0 97.5 29t33.5 73q0 50 -41.5 76.5t-111.5 26.5q-109 0 -199 -45l-26 89q104 46 223 46q125 0 193 -47.5t68 -135.5q0 -55 -35.5 -98t-95.5 -54q73 -14 114 -57.5t41 -112.5q0 -91 -75 -143t-210 -52q-106 0 -224 44l27 89q93 -44 197 -44
q79 0 128.5 32.5t49.5 88.5q0 105 -154 105h-161v90z" />
    <glyph glyph-name="four.tf" horiz-adv-x="600" 
d="M559 139h-82v-139h-104v139h-351v70l318 471h137v-462h82v-79zM122 218h251v356z" />
    <glyph glyph-name="five.tf" horiz-adv-x="600" 
d="M87 332l-5 5l28 343h414v-91h-327l-13 -179h94q126 0 196.5 -46.5t70.5 -144.5q0 -114 -76.5 -171.5t-198.5 -57.5q-118 0 -225 47l28 88q87 -46 192 -46q75 0 124.5 34t49.5 104q0 115 -167 115h-185z" />
    <glyph glyph-name="six.tf" horiz-adv-x="600" 
d="M335 601q-89 0 -134 -62.5t-50 -172.5q76 87 185 87q105 0 163 -58.5t58 -163.5q0 -108 -66.5 -174.5t-168.5 -66.5q-131 0 -203 95t-72 256q0 159 72.5 254t204.5 95q64 0 120.5 -18.5t86.5 -40.5l-31 -85q-71 55 -165 55zM318 367q-90 0 -163 -96q12 -86 53 -135.5
t109 -49.5q61 0 99 41.5t38 103.5q0 66 -36.5 101t-99.5 35z" />
    <glyph glyph-name="seven.tf" horiz-adv-x="600" 
d="M148 10l283 579h-372v91h488v-75l-284 -605h-115v10z" />
    <glyph glyph-name="eight.tf" horiz-adv-x="600" 
d="M300 -10q-122 0 -190.5 52.5t-68.5 142.5q0 143 141 170q-56 9 -88 52.5t-32 99.5q0 88 62.5 135.5t175.5 47.5t175 -47.5t62 -135.5q0 -56 -31.5 -99.5t-86.5 -52.5q140 -27 140 -170q0 -90 -68.5 -142.5t-190.5 -52.5zM301 304q-77 0 -115.5 -29t-38.5 -79
q0 -54 42.5 -85.5t110.5 -31.5t110.5 31.5t42.5 85.5q0 50 -37.5 79t-114.5 29zM300 603q-62 0 -98 -25.5t-36 -75.5q0 -44 33 -72.5t102 -28.5q68 0 100.5 28.5t32.5 72.5q0 50 -36 75.5t-98 25.5z" />
    <glyph glyph-name="nine.tf" horiz-adv-x="600" 
d="M264 79q88 0 133.5 63t49.5 172q-73 -87 -184 -87q-105 0 -163 58.5t-58 163.5q0 108 66 174.5t169 66.5q131 0 203 -95t72 -256q0 -159 -72.5 -254t-203.5 -95q-65 0 -121.5 18.5t-86.5 40.5l30 85q73 -55 166 -55zM282 312q92 0 161 97q-12 85 -53.5 135t-107.5 50
q-59 0 -98 -41.5t-39 -103.5q0 -66 37.5 -101.5t99.5 -35.5z" />
    <glyph glyph-name="Euro.tf" horiz-adv-x="600" 
d="M557 609l-37 -78q-66 63 -148 63q-66 0 -110 -41t-59 -124h270l-30 -65h-247v-25q0 -25 1 -36h220l-26 -65h-186q32 -152 164 -152q82 0 155 55l39 -86q-87 -65 -201 -65q-105 0 -174.5 64t-90.5 184h-56v65h49q-1 11 -1 36v25h-48v65h54q19 126 89.5 193.5t179.5 67.5
q107 0 193 -81z" />
    <glyph glyph-name="cent.tf" horiz-adv-x="600" 
d="M52 262q0 119 78.5 197t201.5 78q12 0 38 -2l30 108l63 -17l-29 -106q53 -18 95 -55l-52 -77q-30 29 -69 41l-96 -346q8 -1 24 -1q84 0 141 53l52 -77q-80 -72 -197 -72q-24 0 -46 3l-34 -125l-63 17l34 124q-79 29 -125 98t-46 159zM158 262q0 -54 24.5 -96.5
t67.5 -64.5l94 340h-8q-79 0 -128.5 -50.5t-49.5 -128.5z" />
    <glyph glyph-name="sterling.tf" horiz-adv-x="600" 
d="M459 314h-202q19 -108 14 -162q9 -6 37 -27t51.5 -33.5t42.5 -12.5q44 0 61 34.5t15 105.5h83q6 -106 -28 -167.5t-112 -61.5q-29 0 -57.5 14t-67 44.5t-46.5 35.5q-19 -45 -46.5 -69.5t-75.5 -24.5q-46 0 -71 28t-25 73q0 44 28 71.5t73 27.5q29 0 51 -11q1 42 -23 135
h-99v66h84q-13 58 -13 114q0 87 52 141.5t153 54.5q63 0 117 -27t84 -56l-34 -88q-23 23 -35 34t-45 26t-68 15q-59 0 -89.5 -34t-30.5 -90q0 -40 8 -90h214v-66zM143 130q-21 0 -34 -11.5t-13 -29.5q0 -38 34 -38q39 0 49 68q-15 11 -36 11z" />
    <glyph glyph-name="florin.tf" horiz-adv-x="600" 
d="M499 314h-146v-345q0 -74 -39 -120.5t-114 -46.5q-34 0 -69 11.5t-54 26.5l19 87q40 -33 80 -33q73 0 73 77v343h-146v66h146v174q0 74 38.5 120t113.5 46q72 0 123 -38l-18 -90q-43 36 -81 36q-72 0 -72 -79v-169h146v-66z" />
    <glyph glyph-name="yen.tf" horiz-adv-x="600" 
d="M512 135h-162v-135h-104v135h-162v65h162v63h-162v65h135l-184 344v8h108l155 -317l159 317h108v-8l-188 -344h135v-65h-162v-63h162v-65z" />
    <glyph glyph-name="dollar.tf" horiz-adv-x="600" 
d="M269 -129v119q-128 6 -217 59l25 99q86 -55 192 -62v213l-74 19q-154 39 -154 173q0 78 58 132.5t170 63.5v82h65v-81q124 -6 213 -53l-31 -98q-73 45 -182 55v-203l41 -11q93 -26 138.5 -68t45.5 -112q0 -85 -61.5 -139.5t-163.5 -65.5v-122h-65zM148 499q0 -62 92 -85
l29 -8v185q-60 -6 -90.5 -31t-30.5 -61zM451 190q0 34 -29.5 55.5t-87.5 36.5v-193q54 8 85.5 34.5t31.5 66.5z" />
    <glyph glyph-name="zero.denom" horiz-adv-x="368" 
d="M41 164q0 79 36.5 124.5t106.5 45.5q71 0 107 -45.5t36 -124.5q0 -78 -36 -123.5t-107 -45.5q-70 0 -106.5 45.5t-36.5 123.5zM99 164q0 -113 85 -113q84 0 84 113q0 115 -84 115q-85 0 -85 -115z" />
    <glyph glyph-name="one.denom" horiz-adv-x="265" 
d="M17 254l142 74h46v-328h-61v260l-103 -51z" />
    <glyph glyph-name="two.denom" horiz-adv-x="337" 
d="M46 0v46l130 98q50 37 50 78q0 25 -16 41t-45 16q-35 0 -53.5 -19.5t-18.5 -52.5l-55 10q1 54 34.5 85.5t93.5 31.5t91 -30t31 -81q0 -65 -70 -115l-76 -55h156v-53h-252z" />
    <glyph glyph-name="three.denom" horiz-adv-x="331" 
d="M78 194h80q28 0 44 12.5t16 31.5q0 43 -69 43q-51 0 -96 -20l-14 52q53 21 110 21q62 0 96 -23.5t34 -66.5q0 -26 -16 -46.5t-44 -25.5q71 -16 71 -82q0 -44 -37 -69.5t-104 -25.5q-48 0 -111 21l16 50q43 -19 95 -19q35 0 57 14t22 38q0 44 -70 44h-80v51z" />
    <glyph glyph-name="four.denom" horiz-adv-x="361" 
d="M333 64h-62v-64h-60v64h-186v41l166 223h80v-218h62v-46zM87 110h124v168z" />
    <glyph glyph-name="five.denom" horiz-adv-x="328" 
d="M55 155l-4 2l15 171h212v-52h-161l-6 -76h41q136 0 136 -93q0 -55 -38.5 -83.5t-101.5 -28.5q-62 0 -115 22l16 50q49 -20 95 -20q36 0 59.5 14.5t23.5 43.5q0 50 -78 50h-94z" />
    <glyph glyph-name="six.denom" horiz-adv-x="356" 
d="M198 282q-48 0 -72 -29t-26 -80q39 44 98 44q58 0 89.5 -27.5t31.5 -77.5q0 -53 -36 -85t-93 -32q-71 0 -110.5 46t-39.5 124q0 77 39.5 123t111.5 46q65 0 114 -27l-17 -50q-41 25 -90 25zM189 171q-46 0 -86 -40q15 -81 87 -81q31 0 50.5 18t19.5 44q0 29 -19.5 44
t-51.5 15z" />
    <glyph glyph-name="seven.denom" horiz-adv-x="291" 
d="M67 5l136 271h-176v52h243v-42l-138 -286h-65v5z" />
    <glyph glyph-name="eight.denom" horiz-adv-x="358" 
d="M179 -5q-66 0 -102.5 25.5t-36.5 69.5q0 68 78 82q-30 5 -48 25.5t-18 46.5q0 43 33 66.5t94 23.5t94 -23.5t33 -66.5q0 -26 -18 -46.5t-48 -25.5q78 -14 78 -82q0 -44 -37 -69.5t-102 -25.5zM179 149q-39 0 -58.5 -14t-19.5 -36q0 -24 22 -39.5t56 -15.5t56 15.5
t22 39.5q0 22 -19.5 36t-58.5 14zM179 285q-31 0 -49.5 -12.5t-18.5 -34.5q0 -20 17 -33.5t51 -13.5t50.5 13.5t16.5 33.5q0 22 -18 34.5t-49 12.5z" />
    <glyph glyph-name="nine.denom" horiz-adv-x="357" 
d="M159 47q92 0 97 108q-41 -43 -98 -43q-58 0 -89.5 27.5t-31.5 77.5q0 52 36.5 84.5t92.5 32.5q71 0 110.5 -46t39.5 -124q0 -77 -39.5 -123t-111.5 -46q-64 0 -113 27l17 50q39 -25 90 -25zM166 158q49 0 87 38q-14 83 -87 83q-30 0 -49.5 -18t-19.5 -44q0 -29 19 -44
t50 -15z" />
    <glyph glyph-name="zero.num" horiz-adv-x="368" 
d="M41 515q0 79 36.5 124.5t106.5 45.5q71 0 107.5 -45.5t36.5 -124.5q0 -78 -36.5 -123.5t-107.5 -45.5q-70 0 -106.5 45.5t-36.5 123.5zM100 515q0 -113 84 -113q85 0 85 113q0 115 -85 115q-84 0 -84 -115z" />
    <glyph glyph-name="one.num" horiz-adv-x="265" 
d="M17 606l141 74h46v-328h-60v260l-103 -52z" />
    <glyph glyph-name="two.num" horiz-adv-x="337" 
d="M47 351v46l130 98q50 37 50 78q0 25 -16 41t-45 16q-36 0 -54 -19.5t-18 -52.5l-56 10q2 53 35.5 85t92.5 32q60 0 91.5 -30.5t31.5 -80.5q0 -64 -70 -115l-77 -55h156v-53h-251z" />
    <glyph glyph-name="three.num" horiz-adv-x="331" 
d="M78 545h80q28 0 44 12.5t16 31.5q0 43 -69 43q-52 0 -97 -20l-13 52q53 21 110 21q62 0 96 -23.5t34 -67.5q0 -26 -16.5 -46t-44.5 -26q72 -14 72 -81q0 -44 -37 -69.5t-104 -25.5q-54 0 -111 20l16 51q43 -19 95 -19q35 0 57 14t22 38q0 44 -70 44h-80v51z" />
    <glyph glyph-name="four.num" horiz-adv-x="361" 
d="M333 416h-62v-64h-60v64h-186v41l166 223h80v-218h62v-46zM87 462h124v168z" />
    <glyph glyph-name="five.num" horiz-adv-x="328" 
d="M55 506l-3 3l15 171h211v-52h-160l-6 -76h41q136 0 136 -93q0 -56 -39 -84t-102 -28q-61 0 -114 22l16 50q42 -21 94 -21q37 0 60.5 14.5t23.5 44.5q0 49 -79 49h-94z" />
    <glyph glyph-name="six.num" horiz-adv-x="358" 
d="M199 633q-48 0 -72 -29.5t-26 -79.5q39 44 98 44q58 0 89.5 -27.5t31.5 -77.5q0 -53 -36 -85t-93 -32q-71 0 -110.5 46t-39.5 124q0 77 40 123t111 46q65 0 114 -27l-17 -50q-41 25 -90 25zM190 522q-46 0 -86 -40q15 -81 87 -81q31 0 50.5 18t19.5 44q0 29 -19.5 44
t-51.5 15z" />
    <glyph glyph-name="seven.num" horiz-adv-x="292" 
d="M67 357l136 271h-176v52h243v-43l-137 -285h-66v5z" />
    <glyph glyph-name="eight.num" horiz-adv-x="359" 
d="M180 346q-66 0 -102.5 25.5t-36.5 69.5q0 68 77 82q-29 5 -47 25.5t-18 45.5q0 44 33 67.5t94 23.5t94 -23.5t33 -67.5q0 -25 -18 -45.5t-48 -25.5q77 -14 77 -82q0 -44 -36.5 -69.5t-101.5 -25.5zM180 500q-39 0 -58.5 -14t-19.5 -36q0 -25 21.5 -40t56.5 -15
q34 0 55.5 15t21.5 40q0 22 -19 36t-58 14zM180 636q-31 0 -49.5 -12.5t-18.5 -34.5q0 -20 17 -33.5t51 -13.5t50.5 13.5t16.5 33.5q0 22 -18 34.5t-49 12.5z" />
    <glyph glyph-name="nine.num" horiz-adv-x="357" 
d="M159 398q92 0 97 107q-40 -42 -98 -42t-89.5 27t-31.5 77q0 53 36.5 85.5t93.5 32.5q70 0 109.5 -46t39.5 -124q0 -77 -39.5 -123t-110.5 -46q-70 0 -114 27l18 50q36 -25 89 -25zM166 509q49 0 87 38q-14 83 -86 83q-31 0 -50 -18t-19 -45q0 -28 18.5 -43t49.5 -15z" />
    <glyph glyph-name="parenleft.case" horiz-adv-x="308" 
d="M269 760q-47 -67 -84.5 -174.5t-37.5 -244.5q0 -136 37.5 -243.5t84.5 -175.5l-61 -35q-55 56 -104.5 176.5t-49.5 278.5q0 157 49.5 277t104.5 177z" />
    <glyph glyph-name="parenright.case" horiz-adv-x="308" 
d="M39 760l61 36q55 -58 104.5 -177.5t49.5 -276.5q0 -158 -49.5 -278t-104.5 -177l-61 35q47 67 84.5 175t37.5 244q0 138 -37.5 245.5t-84.5 173.5z" />
    <glyph glyph-name="hyphen.case" horiz-adv-x="539" 
d="M77 384h385v-83h-385v83z" />
    <glyph glyph-name="bracketleft.case" horiz-adv-x="350" 
d="M307 -108h-217v898h217v-83h-133v-732h133v-83z" />
    <glyph glyph-name="bracketright.case" horiz-adv-x="349" 
d="M43 790h216v-898h-216v83h133v732h-133v83z" />
    <glyph glyph-name="braceleft.case" horiz-adv-x="328" 
d="M276 790v-75h-35q-33 0 -51 -18t-18 -45t28.5 -104t28.5 -118q0 -39 -18.5 -61.5t-60.5 -30.5q42 -8 60.5 -30.5t18.5 -63.5q0 -40 -28.5 -116t-28.5 -104t18 -46t51 -18h35v-75h-45q-72 0 -107 32t-35 88q0 36 28.5 114t28.5 119q0 36 -24 52.5t-77 16.5v64
q101 0 101 72q0 41 -28.5 118t-28.5 113q0 53 35 84.5t107 31.5h45z" />
    <glyph glyph-name="bar.case" horiz-adv-x="264" 
d="M90 -108v898h84v-898h-84z" />
    <glyph glyph-name="braceright.case" horiz-adv-x="328" 
d="M52 790h45q71 0 107 -31.5t36 -84.5q0 -36 -29 -113t-29 -118q0 -37 24 -54.5t77 -17.5v-64q-54 0 -77.5 -16.5t-23.5 -52.5q0 -41 29 -119t29 -114q0 -56 -35.5 -88t-107.5 -32h-45v75h35q33 0 51.5 18t18.5 46t-29 104t-29 116q0 41 19 63.5t61 30.5q-80 15 -80 92
q0 41 29 118t29 104t-18.5 45t-51.5 18h-35v75z" />
    <glyph glyph-name="guilsinglleft.case" horiz-adv-x="320" 
d="M53 331v22l161 201h8l38 -23l-118 -189l118 -188l-38 -24h-8z" />
    <glyph glyph-name="guilsinglright.case" horiz-adv-x="320" 
d="M267 353v-22l-160 -201h-9l-37 23l117 189l-118 188l38 24h9z" />
    <glyph glyph-name="guillemotleft.case" horiz-adv-x="540" 
d="M53 331v22l161 201h8l38 -23l-118 -189l118 -188l-38 -24h-8zM273 331v22l160 201h8l38 -23l-118 -189l118 -188l-38 -24h-8z" />
    <glyph glyph-name="guillemotright.case" horiz-adv-x="539" 
d="M267 353v-22l-160 -201h-9l-37 23l117 189l-118 188l38 24h9zM486 353v-22l-160 -201h-8l-37 23l117 189l-118 188l38 24h8z" />
    <glyph glyph-name="endash.case" horiz-adv-x="633" 
d="M77 384h480v-83h-480v83z" />
    <glyph glyph-name="emdash.case" horiz-adv-x="873" 
d="M77 384h719v-83h-719v83z" />
    <glyph glyph-name="bullet.case" horiz-adv-x="394" 
d="M94 342q0 51 26.5 78.5t74.5 27.5q50 0 77 -27.5t27 -78.5t-27 -78.5t-77 -27.5q-48 0 -74.5 27.5t-26.5 78.5z" />
    <glyph glyph-name="periodcentered.case" horiz-adv-x="285" 
d="M72 337q0 70 70 70q34 0 52.5 -18t18.5 -52q0 -70 -71 -70q-70 0 -70 70z" />
    <glyph glyph-name="a.alt" 
d="M56 262q0 119 69 194.5t182 75.5q99 0 167 -68v59h104v-523h-104v61q-66 -71 -167 -71q-112 0 -181.5 76t-69.5 196zM162 262q0 -81 47 -131t125 -50q41 0 79 17.5t61 41.5v240q-25 26 -62.5 43.5t-77.5 17.5q-78 0 -125 -49.5t-47 -129.5z" />
    <glyph glyph-name="agrave.alt" 
d="M56 262q0 119 69 194.5t182 75.5q99 0 167 -68v59h104v-523h-104v61q-66 -71 -167 -71q-112 0 -181.5 76t-69.5 196zM162 262q0 -81 47 -131t125 -50q41 0 79 17.5t61 41.5v240q-25 26 -62.5 43.5t-77.5 17.5q-78 0 -125 -49.5t-47 -129.5zM309 596l-96 145h105l81 -145
h-90z" />
    <glyph glyph-name="aacute.alt" 
d="M56 262q0 119 69 194.5t182 75.5q99 0 167 -68v59h104v-523h-104v61q-66 -71 -167 -71q-112 0 -181.5 76t-69.5 196zM162 262q0 -81 47 -131t125 -50q41 0 79 17.5t61 41.5v240q-25 26 -62.5 43.5t-77.5 17.5q-78 0 -125 -49.5t-47 -129.5zM484 741l-96 -145h-90l81 145
h105z" />
    <glyph glyph-name="acircumflex.alt" 
d="M56 262q0 119 69 194.5t182 75.5q99 0 167 -68v59h104v-523h-104v61q-66 -71 -167 -71q-112 0 -181.5 76t-69.5 196zM162 262q0 -81 47 -131t125 -50q41 0 79 17.5t61 41.5v240q-25 26 -62.5 43.5t-77.5 17.5q-78 0 -125 -49.5t-47 -129.5zM421 596l-76 92l-76 -92h-82
l106 145h103l106 -145h-81z" />
    <glyph glyph-name="atilde.alt" 
d="M56 262q0 119 69 194.5t182 75.5q99 0 167 -68v59h104v-523h-104v61q-66 -71 -167 -71q-112 0 -181.5 76t-69.5 196zM162 262q0 -81 47 -131t125 -50q41 0 79 17.5t61 41.5v240q-25 26 -62.5 43.5t-77.5 17.5q-78 0 -125 -49.5t-47 -129.5zM205 613l-34 43q15 32 43 54
t61 22t81 -31.5t67 -31.5q45 0 69 47l34 -42q-38 -78 -103 -78q-31 0 -80 32t-67 32q-43 0 -71 -47z" />
    <glyph glyph-name="adieresis.alt" 
d="M56 262q0 119 69 194.5t182 75.5q99 0 167 -68v59h104v-523h-104v61q-66 -71 -167 -71q-112 0 -181.5 76t-69.5 196zM162 262q0 -81 47 -131t125 -50q41 0 79 17.5t61 41.5v240q-25 26 -62.5 43.5t-77.5 17.5q-78 0 -125 -49.5t-47 -129.5zM166 670q0 54 60 54t60 -54
t-60 -54t-60 54zM418 670q0 54 61 54q59 0 59 -54t-59 -54q-61 0 -61 54z" />
    <glyph glyph-name="amacron.alt" 
d="M56 262q0 119 69 194.5t182 75.5q99 0 167 -68v59h104v-523h-104v61q-66 -71 -167 -71q-112 0 -181.5 76t-69.5 196zM162 262q0 -81 47 -131t125 -50q41 0 79 17.5t61 41.5v240q-25 26 -62.5 43.5t-77.5 17.5q-78 0 -125 -49.5t-47 -129.5zM474 623h-247v73h247v-73z" />
    <glyph glyph-name="abreve.alt" 
d="M56 262q0 119 69 194.5t182 75.5q99 0 167 -68v59h104v-523h-104v61q-66 -71 -167 -71q-112 0 -181.5 76t-69.5 196zM162 262q0 -81 47 -131t125 -50q41 0 79 17.5t61 41.5v240q-25 26 -62.5 43.5t-77.5 17.5q-78 0 -125 -49.5t-47 -129.5zM211 680l29 42q40 -50 111 -50
q73 0 109 50l30 -42q-46 -79 -138 -79q-93 0 -141 79z" />
    <glyph glyph-name="aring.alt" 
d="M56 262q0 119 69 194.5t182 75.5q99 0 167 -68v59h104v-523h-104v61q-66 -71 -167 -71q-112 0 -181.5 76t-69.5 196zM162 262q0 -81 47 -131t125 -50q41 0 79 17.5t61 41.5v240q-25 26 -62.5 43.5t-77.5 17.5q-78 0 -125 -49.5t-47 -129.5zM253 670q0 40 28.5 69t69.5 29
t69.5 -29t28.5 -69t-28.5 -69t-69.5 -29t-69.5 29t-28.5 69zM299 670q0 -22 15 -37t37 -15q21 0 36 15t15 37q0 21 -15 36t-36 15q-22 0 -37 -15t-15 -36z" />
    <glyph glyph-name="aringacute.alt" 
d="M434 835l-58 -78h-68l48 78h78zM246 655q0 39 28 61t70 22t70 -22t28 -61t-28 -60.5t-70 -21.5t-70 21.5t-28 60.5zM292 655q0 -39 52 -39t52 39t-52 39t-52 -39zM56 262q0 119 69 194.5t182 75.5q99 0 167 -68v59h104v-523h-104v61q-66 -71 -167 -71q-112 0 -181.5 76
t-69.5 196zM162 262q0 -81 47 -131t125 -50q41 0 79 17.5t61 41.5v240q-25 26 -62.5 43.5t-77.5 17.5q-78 0 -125 -49.5t-47 -129.5z" />
    <glyph glyph-name="aogonek.alt" 
d="M56 262q0 119 69 194.5t182 75.5q99 0 167 -68v59h104v-523h-14q-41 -2 -67.5 -21t-26.5 -52q0 -26 15.5 -40.5t41.5 -14.5q27 0 56 18l11 -49q-36 -20 -81 -20q-43 0 -69 25t-26 68q0 57 56 86v61q-66 -71 -167 -71q-112 0 -181.5 76t-69.5 196zM162 262q0 -81 47 -131
t125 -50q41 0 79 17.5t61 41.5v240q-25 26 -62.5 43.5t-77.5 17.5q-78 0 -125 -49.5t-47 -129.5z" />
    <glyph glyph-name="g.alt" horiz-adv-x="649" 
d="M50 297q0 102 64 168.5t176 66.5q102 0 167 -60v51h104v-444q0 -132 -73.5 -204.5t-177.5 -72.5q-80 0 -126 36.5t-46 100.5q0 48 29.5 85.5t86.5 48.5q-91 10 -147.5 66t-56.5 158zM156 297q0 -75 48 -110.5t115 -35.5h138v234q-60 56 -138 56q-77 0 -120 -40.5
t-43 -103.5zM314 -109q60 0 101.5 42.5t41.5 107.5v23h-52q-79 0 -126.5 -26t-47.5 -74q0 -34 23 -53.5t60 -19.5z" />
    <glyph glyph-name="y.alt" horiz-adv-x="588" 
d="M24 523h111l169 -411l163 411h105l-213 -526q-43 -109 -86 -152t-115 -43q-63 0 -97 32.5t-34 87.5q0 68 51.5 108t147.5 45zM253 -6l5 14q-144 0 -144 -73q0 -44 47 -44q31 0 52 24.5t40 78.5z" />
    <glyph glyph-name="gcircumflex.alt" horiz-adv-x="654" 
d="M50 297q0 102 64 168.5t176 66.5q102 0 167 -60v51h104v-444q0 -132 -73.5 -204.5t-177.5 -72.5q-80 0 -126 36.5t-46 100.5q0 48 29.5 85.5t86.5 48.5q-91 10 -147.5 66t-56.5 158zM156 297q0 -75 48 -110.5t115 -35.5h138v234q-60 56 -138 56q-77 0 -120 -40.5
t-43 -103.5zM314 -109q60 0 101.5 42.5t41.5 107.5v23h-52q-79 0 -126.5 -26t-47.5 -74q0 -34 23 -53.5t60 -19.5zM415 596l-76 92l-76 -92h-82l106 145h103l106 -145h-81z" />
    <glyph glyph-name="gbreve.alt" horiz-adv-x="654" 
d="M200 680l29 42q40 -50 111 -50q73 0 109 50l30 -42q-46 -79 -138 -79q-93 0 -141 79zM50 297q0 102 64 168.5t176 66.5q102 0 167 -60v51h104v-444q0 -132 -73.5 -204.5t-177.5 -72.5q-80 0 -126 36.5t-46 100.5q0 48 29.5 85.5t86.5 48.5q-91 10 -147.5 66t-56.5 158z
M156 297q0 -75 48 -110.5t115 -35.5h138v234q-60 56 -138 56q-77 0 -120 -40.5t-43 -103.5zM314 -109q60 0 101.5 42.5t41.5 107.5v23h-52q-79 0 -126.5 -26t-47.5 -74q0 -34 23 -53.5t60 -19.5z" />
    <glyph glyph-name="gdotaccent.alt" horiz-adv-x="654" 
d="M50 297q0 102 64 168.5t176 66.5q102 0 167 -60v51h104v-444q0 -132 -73.5 -204.5t-177.5 -72.5q-80 0 -126 36.5t-46 100.5q0 48 29.5 85.5t86.5 48.5q-91 10 -147.5 66t-56.5 158zM156 297q0 -75 48 -110.5t115 -35.5h138v234q-60 56 -138 56q-77 0 -120 -40.5
t-43 -103.5zM314 -109q60 0 101.5 42.5t41.5 107.5v23h-52q-79 0 -126.5 -26t-47.5 -74q0 -34 23 -53.5t60 -19.5zM283 672q0 56 64 56q62 0 62 -56q0 -57 -62 -57q-64 0 -64 57z" />
    <glyph glyph-name="gcommaaccent.alt" horiz-adv-x="654" 
d="M50 297q0 102 64 168.5t176 66.5q102 0 167 -60v51h104v-444q0 -132 -73.5 -204.5t-177.5 -72.5q-80 0 -126 36.5t-46 100.5q0 48 29.5 85.5t86.5 48.5q-91 10 -147.5 66t-56.5 158zM156 297q0 -75 48 -110.5t115 -35.5h138v234q-60 56 -138 56q-77 0 -120 -40.5
t-43 -103.5zM314 -109q60 0 101.5 42.5t41.5 107.5v23h-52q-79 0 -126.5 -26t-47.5 -74q0 -34 23 -53.5t60 -19.5zM375 773l-24 -67q54 -8 54 -54q0 -28 -17 -43.5t-44 -15.5q-34 0 -52 17.5t-18 49.5q0 67 49 132z" />
    <glyph glyph-name="yacute.alt" horiz-adv-x="610" 
d="M450 741l-96 -145h-90l81 145h105zM24 523h111l169 -411l163 411h105l-213 -526q-43 -109 -86 -152t-115 -43q-63 0 -97 32.5t-34 87.5q0 68 51.5 108t147.5 45zM253 -6l5 14q-144 0 -144 -73q0 -44 47 -44q31 0 52 24.5t40 78.5z" />
    <glyph glyph-name="ycircumflex.alt" horiz-adv-x="610" 
d="M24 523h111l169 -411l163 411h105l-213 -526q-43 -109 -86 -152t-115 -43q-63 0 -97 32.5t-34 87.5q0 68 51.5 108t147.5 45zM253 -6l5 14q-144 0 -144 -73q0 -44 47 -44q31 0 52 24.5t40 78.5zM388 596l-76 92l-76 -92h-82l106 145h103l106 -145h-81z" />
    <glyph glyph-name="ydieresis.alt" horiz-adv-x="610" 
d="M24 523h111l169 -411l163 411h105l-213 -526q-43 -109 -86 -152t-115 -43q-63 0 -97 32.5t-34 87.5q0 68 51.5 108t147.5 45zM253 -6l5 14q-144 0 -144 -73q0 -44 47 -44q31 0 52 24.5t40 78.5zM130 670q0 54 60 54t60 -54t-60 -54t-60 54zM382 670q0 54 61 54
q59 0 59 -54t-59 -54q-61 0 -61 54z" />
    <glyph glyph-name="ygrave.alt" horiz-adv-x="610" 
d="M279 596l-96 145h105l81 -145h-90zM24 523h111l169 -411l163 411h105l-213 -526q-43 -109 -86 -152t-115 -43q-63 0 -97 32.5t-34 87.5q0 68 51.5 108t147.5 45zM253 -6l5 14q-144 0 -144 -73q0 -44 47 -44q31 0 52 24.5t40 78.5z" />
    </font>
</defs>
</svg>
